<?xml version="1.0" standalone="no"?>
<!DOCTYPE svg PUBLIC "-//W3C//DTD SVG 1.1//EN" "http://www.w3.org/Graphics/SVG/1.1/DTD/svg11.dtd" >
<svg xmlns="http://www.w3.org/2000/svg" width="100%" height="100%">
<metadata>
Created by FontXChange 20110222 at Fri Dec  5 12:07:12 2014
 By Timothy Brister
Copyright (c) 2009 by Hannes von Dhren. All rights reserved.
</metadata>
<defs>
<font id="BrandonGrotesque-BoldItalic" horiz-adv-x="239" >
  <font-face 
    font-family="BrandonGrotesque"
    font-weight="450"
    font-style="italic"
    font-stretch="normal"
    units-per-em="1000"
    panose-1="2 11 8 3 2 2 3 13 2 2"
    ascent="700"
    descent="-300"
    x-height="400"
    cap-height="700"
    bbox="-182.5 -382.75 1021.61 1051.01"
    underline-thickness="50"
    underline-position="-50"
    slope="-8"
    stemh="108"
    stemv="75"
    unicode-range="U+0020-FB02"
  />
<missing-glyph horiz-adv-x="599" 
d="M50 30v640c0 21 9 30 30 30h439c21 0 30 -9 30 -30v-640c0 -21 -9 -30 -30 -30h-439c-21 0 -30 9 -30 30zM262 314c0 -7 7 -12 14 -12h36c9 0 15 4 15 13v26c0 48 105 63 105 150c0 65 -54 111 -125 111c-87 0 -130 -61 -130 -61c-4 -6 -6 -13 0 -18l22 -22
c6 -4 11 -4 17 0c13 12 36 41 84 41c40 0 61 -25 61 -52c0 -63 -99 -72 -99 -147v-29zM245 156c0 -26 22 -48 48 -48c27 0 49 22 49 48s-22 48 -49 48c-26 0 -48 -22 -48 -48z" />
    <glyph glyph-name="fi" unicode="fi" horiz-adv-x="524" 
d="M2 -281l81 576h-34c-10 0 -16 9 -15 19l10 67c1 11 9 19 19 19h34l16 109c18 122 92 201 209 201c58 0 112 -30 134 -46c7 -5 8 -17 2 -26l-37 -61c-8 -14 -15 -16 -26 -9c-14 9 -44 25 -78 25c-35 0 -69 -25 -78 -87l-15 -106h243c9 0 16 -8 14 -19l-51 -362
c-1 -10 -10 -19 -19 -19h-88c-10 0 -16 9 -15 19l39 276h-138l-80 -576c-2 -15 -10 -19 -24 -19h-89c-9 0 -16 9 -14 19z" />
    <glyph glyph-name="fl" unicode="fl" horiz-adv-x="542" 
d="M4 -281l81 577h-36c-10 0 -16 9 -15 19l10 66c1 11 9 19 19 19h36l16 109c19 130 100 201 209 201c80 0 129 -56 129 -56l15 28c6 11 13 18 25 18h33c9 0 15 -9 14 -19l-93 -662c-1 -10 -10 -19 -19 -19h-90c-9 0 -15 9 -14 19l74 533c-4 7 -31 44 -73 44
c-38 0 -76 -26 -85 -88l-15 -108h67c9 0 16 -8 14 -19l-9 -66c-1 -10 -11 -19 -20 -19h-67l-80 -577c-2 -10 -11 -19 -20 -19h-93c-9 0 -15 9 -13 19z" />
    <glyph glyph-name="f_f" unicode="ff" horiz-adv-x="603" 
d="M2 -281l81 576h-34c-10 0 -16 9 -15 19l10 67c1 11 10 19 19 19h35l12 89c19 141 110 211 222 211c62 0 101 -26 122 -46c37 37 82 56 135 56c48 0 95 -23 108 -39c5 -5 5 -16 1 -23l-35 -61c-8 -13 -17 -14 -27 -8c-9 5 -31 13 -50 13c-39 0 -62 -26 -71 -84l-16 -108
h86c10 0 16 -8 15 -19l-10 -67c-1 -10 -10 -19 -19 -19h-86l-81 -576c-2 -10 -11 -19 -20 -19h-92c-9 0 -16 9 -15 19l81 576h-148l-81 -576c-1 -10 -11 -19 -20 -19h-92c-9 0 -16 9 -15 19zM225 400h148l15 106c2 16 6 35 9 49c-10 15 -33 32 -69 32
c-45 0 -82 -36 -91 -100z" />
    <glyph glyph-name="f_f_i" unicode="ffi" horiz-adv-x="800" 
d="M3 -281l80 576h-34c-10 0 -15 9 -14 19l9 67c2 11 10 19 20 19h34l13 89c16 114 96 211 220 211c77 0 123 -46 123 -46c37 37 83 56 145 56c58 0 111 -30 133 -46c7 -5 8 -17 2 -26l-38 -60c-8 -14 -15 -16 -26 -9c-14 9 -43 24 -77 24c-31 0 -69 -25 -78 -87l-15 -106
h242c10 0 16 -8 15 -19l-51 -362c-2 -10 -10 -19 -20 -19h-88c-10 0 -16 9 -14 19l39 276h-138l-80 -576c-2 -10 -11 -19 -20 -19h-93c-9 0 -16 9 -14 19l81 576h-149l-81 -576c-1 -10 -10 -19 -19 -19h-93c-9 0 -16 9 -14 19zM225 400h148l16 105c2 16 5 34 8 48
c-9 15 -33 33 -68 33c-46 0 -83 -36 -92 -100z" />
    <glyph glyph-name="f_f_l" unicode="ffl" horiz-adv-x="818" 
d="M2 -281l81 576h-34c-10 0 -16 9 -15 19l10 67c1 11 10 19 19 19h35l12 89c20 141 110 211 217 211c68 0 107 -29 127 -46c37 37 83 56 146 56c80 0 129 -56 129 -56l15 28c6 11 13 18 25 18h33c9 0 15 -9 14 -19l-93 -662c-1 -10 -10 -19 -19 -19h-90c-9 0 -15 9 -14 19
l74 533c-4 7 -33 44 -75 44c-37 0 -76 -26 -84 -88l-16 -108h67c9 0 16 -8 15 -19l-10 -66c-1 -10 -10 -19 -19 -19h-67l-81 -577c-2 -10 -11 -19 -20 -19h-92c-9 0 -16 9 -15 19l81 576h-148l-81 -576c-1 -10 -11 -19 -20 -19h-92c-9 0 -16 9 -15 19zM225 400h148l15 104
c2 16 6 34 9 48c-10 15 -33 33 -69 33c-45 0 -82 -36 -91 -100z" />
    <glyph glyph-name="f_f_h" unicode="ffh" horiz-adv-x="1065" 
d="M2 -281l81 576h-34c-10 0 -16 9 -15 19l10 67c1 11 10 19 19 19h35l12 89c20 141 112 211 217 211c68 0 106 -29 126 -46c37 37 84 56 147 56c80 0 129 -56 129 -56l15 28c6 11 13 18 25 18h33c9 0 15 -9 14 -19l-43 -304c22 17 60 33 93 33c114 0 154 -98 140 -199
l-27 -192c-1 -10 -11 -19 -20 -19h-86c-10 0 -15 9 -14 19l27 191c8 55 -12 89 -56 89c-49 0 -75 -54 -75 -54l-32 -226c-2 -11 -8 -19 -22 -19h-88c-9 0 -15 9 -14 19l75 533c-4 7 -33 44 -75 44c-37 0 -76 -26 -84 -88l-16 -108h67c9 0 16 -8 15 -19l-10 -66
c-1 -10 -10 -19 -19 -19h-67l-81 -577c-2 -10 -11 -19 -20 -19h-92c-9 0 -16 9 -15 19l81 576h-148l-81 -576c-1 -10 -11 -19 -20 -19h-92c-9 0 -16 9 -15 19zM225 400h148l15 104c2 16 6 34 9 48c-10 15 -33 33 -69 33c-45 0 -82 -36 -91 -100z" />
    <glyph glyph-name="f_k" unicode="fk" horiz-adv-x="763" 
d="M4 -281l81 577h-36c-10 0 -16 9 -15 19l10 66c1 11 9 19 19 19h36l16 109c19 130 99 201 209 201c80 0 129 -56 129 -56l15 28c6 11 13 18 25 18h33c9 0 15 -9 14 -19l-62 -433l122 140c6 7 14 12 24 12h108c15 0 18 -16 7 -27l-153 -161l131 -187c8 -11 1 -25 -15 -25
h-104c-5 0 -10 4 -13 8l-116 180l-23 -169c-2 -10 -11 -19 -20 -19h-90c-9 0 -16 9 -14 19l76 533c-4 7 -31 44 -73 44c-38 0 -76 -26 -85 -88l-15 -108h67c9 0 16 -8 14 -19l-9 -66c-1 -10 -11 -19 -20 -19h-67l-80 -577c-2 -10 -11 -19 -20 -19h-93c-9 0 -15 9 -13 19z
" />
    <glyph glyph-name="f_j" unicode="fj" horiz-adv-x="535" 
d="M2 -281l81 576h-34c-10 0 -16 9 -15 19l10 67c1 11 9 19 19 19h34l16 109c18 122 92 201 209 201c58 0 112 -30 134 -46c7 -5 8 -17 2 -26l-38 -60c-8 -14 -15 -16 -26 -9c-14 9 -43 24 -77 24c-35 0 -69 -25 -78 -87l-15 -106h253c9 0 16 -8 14 -19l-69 -489
c-18 -132 -96 -202 -204 -202c-5 0 -10 0 -14 1c-7 1 -11 6 -9 17l19 91c3 12 9 11 15 11c38 0 62 33 70 91l56 394h-146l-80 -576c-2 -15 -10 -19 -24 -19h-89c-9 0 -16 9 -14 19z" />
    <glyph glyph-name="f_f_j" unicode="ffj" horiz-adv-x="811" 
d="M3 -281l80 576h-34c-10 0 -15 9 -14 19l9 67c2 11 10 19 20 19h34l13 89c16 114 96 211 220 211c77 0 123 -46 123 -46c37 37 83 56 145 56c58 0 111 -30 133 -46c7 -5 8 -17 2 -26l-38 -60c-8 -14 -15 -16 -26 -9c-14 9 -43 24 -77 24c-31 0 -69 -25 -78 -87l-15 -106
h253c9 0 16 -8 14 -19l-69 -489c-18 -132 -104 -202 -204 -202c-5 0 -10 0 -14 1c-7 1 -11 6 -9 17l19 91c3 12 9 11 15 11c38 0 61 33 70 91l56 394h-146l-80 -576c-2 -10 -11 -19 -20 -19h-93c-9 0 -16 9 -14 19l81 576h-149l-81 -576c-1 -10 -10 -19 -19 -19h-93
c-9 0 -16 9 -14 19zM225 400h148l16 105c2 16 6 34 9 48c-9 15 -34 33 -69 33c-46 0 -83 -36 -92 -100z" />
    <glyph glyph-name="f_b" unicode="fb" horiz-adv-x="770" 
d="M4 -281l81 577h-36c-10 0 -16 9 -15 19l10 66c1 11 9 19 19 19h36l16 109c19 130 100 201 209 201c80 0 129 -56 129 -56l15 28c6 11 13 18 25 18h33c9 0 15 -9 14 -19l-41 -289c22 11 49 18 73 18c90 0 158 -81 158 -182c0 -128 -94 -238 -207 -238
c-78 0 -111 60 -111 60l-15 -33c-5 -11 -12 -17 -21 -17h-39c-9 0 -16 9 -14 19l75 533c-4 7 -31 44 -73 44c-38 0 -76 -26 -85 -88l-15 -108h67c9 0 16 -8 14 -19l-9 -66c-1 -10 -11 -19 -20 -19h-67l-80 -577c-2 -10 -11 -19 -20 -19h-93c-9 0 -15 9 -13 19zM463 164
c3 -23 19 -66 61 -66c49 0 92 57 92 121c0 47 -26 83 -68 83c-41 0 -67 -23 -67 -23z" />
    <glyph glyph-name="f_f_k" unicode="ffk" horiz-adv-x="1039" 
d="M2 -281l81 576h-34c-10 0 -16 9 -15 19l10 67c1 11 10 19 19 19h35l12 89c20 141 114 211 217 211c68 0 107 -29 127 -46c37 37 83 56 146 56c80 0 129 -56 129 -56l15 28c6 11 13 18 25 18h33c9 0 15 -9 14 -19l-62 -433l122 140c6 7 14 12 24 12h108c15 0 18 -16 7 -27
l-153 -161l131 -187c8 -11 1 -25 -15 -25h-104c-5 0 -10 4 -13 8l-116 180l-23 -169c-2 -10 -11 -19 -20 -19h-90c-9 0 -15 9 -14 19l76 533c-4 7 -33 44 -75 44c-37 0 -76 -26 -84 -88l-16 -108h67c9 0 16 -8 15 -19l-10 -66c-1 -10 -10 -19 -19 -19h-67l-81 -577
c-2 -10 -11 -19 -20 -19h-92c-9 0 -16 9 -15 19l81 576h-148l-81 -576c-1 -10 -11 -19 -20 -19h-92c-9 0 -16 9 -15 19zM225 400h148l15 104c2 16 6 34 9 48c-10 15 -33 33 -69 33c-45 0 -82 -36 -91 -100z" />
    <glyph glyph-name="f_h" unicode="fh" horiz-adv-x="789" 
d="M4 -281l81 577h-36c-10 0 -16 9 -15 19l10 66c1 11 9 19 19 19h36l16 109c19 130 103 201 209 201c80 0 129 -56 129 -56l15 28c6 11 13 18 25 18h33c9 0 15 -9 14 -19l-43 -304c22 17 60 33 93 33c110 0 154 -98 140 -199l-27 -192c-1 -10 -11 -19 -20 -19h-86
c-10 0 -15 9 -14 19l27 191c8 55 -12 89 -56 89c-49 0 -75 -54 -75 -54l-32 -226c-2 -11 -8 -19 -22 -19h-88c-9 0 -15 9 -14 19l75 533c-4 7 -31 44 -73 44c-38 0 -76 -26 -85 -88l-15 -108h67c9 0 16 -8 14 -19l-9 -66c-1 -10 -11 -19 -20 -19h-67l-80 -577
c-2 -10 -11 -19 -20 -19h-93c-9 0 -15 9 -13 19z" />
    <glyph glyph-name="f_f_b" unicode="ffb" horiz-adv-x="1046" 
d="M2 -281l81 576h-34c-10 0 -16 9 -15 19l10 67c1 11 10 19 19 19h35l12 89c20 141 111 211 217 211c68 0 107 -29 127 -46c37 37 83 56 146 56c80 0 129 -56 129 -56l15 28c6 11 13 18 25 18h33c9 0 15 -9 14 -19l-41 -289c22 11 49 18 73 18c88 0 158 -81 158 -182
c0 -128 -89 -238 -207 -238c-78 0 -111 60 -111 60l-15 -33c-5 -11 -12 -17 -21 -17h-39c-9 0 -16 9 -14 19l75 533c-4 7 -33 44 -75 44c-37 0 -76 -26 -84 -88l-16 -108h67c9 0 16 -8 15 -19l-10 -66c-1 -10 -10 -19 -19 -19h-67l-81 -577c-2 -10 -11 -19 -20 -19h-92
c-9 0 -16 9 -15 19l81 576h-148l-81 -576c-1 -10 -11 -19 -20 -19h-92c-9 0 -16 9 -15 19zM225 400h148l15 104c2 16 6 34 9 48c-10 15 -33 33 -69 33c-45 0 -82 -36 -91 -100zM739 164c3 -23 19 -66 61 -66c49 0 92 57 92 121c0 47 -26 83 -68 83c-41 0 -67 -23 -67 -23z
" />
    <glyph glyph-name=".notdef" horiz-adv-x="599" 
d="M50 30v640c0 21 9 30 30 30h439c21 0 30 -9 30 -30v-640c0 -21 -9 -30 -30 -30h-439c-21 0 -30 9 -30 30zM262 314c0 -7 7 -12 14 -12h36c9 0 15 4 15 13v26c0 48 105 63 105 150c0 65 -54 111 -125 111c-87 0 -130 -61 -130 -61c-4 -6 -6 -13 0 -18l22 -22
c6 -4 11 -4 17 0c13 12 36 41 84 41c40 0 61 -25 61 -52c0 -63 -99 -72 -99 -147v-29zM245 156c0 -26 22 -48 48 -48c27 0 49 22 49 48s-22 48 -49 48c-26 0 -48 -22 -48 -48z" />
    <glyph glyph-name=".null" horiz-adv-x="0" 
 />
    <glyph glyph-name="CR" horiz-adv-x="0" 
 />
    <glyph glyph-name="space" unicode=" " horiz-adv-x="224" 
 />
    <glyph glyph-name="exclam" unicode="!" horiz-adv-x="311" 
d="M138 272c-9 0 -16 8 -15 16l-1 279l16 114c1 10 10 19 19 19h115c9 0 15 -9 14 -19l-16 -112l-79 -281c-2 -8 -12 -16 -20 -16h-33zM45 62c0 50 45 93 92 93c41 0 71 -34 71 -73c0 -50 -46 -92 -94 -92c-39 0 -69 33 -69 72z" />
    <glyph glyph-name="quotedbl" unicode="&#x22;" horiz-adv-x="332" 
d="M243 501c-9 0 -16 9 -14 19l23 161c1 10 10 19 19 19h84c12 0 19 -11 13 -25l-63 -159c-3 -8 -9 -15 -18 -15h-44zM84 501c-9 0 -16 9 -14 19l23 161c1 10 10 19 19 19h84c12 0 19 -11 13 -25l-63 -159c-3 -8 -7 -15 -18 -15h-44z" />
    <glyph glyph-name="numbersign" unicode="#" horiz-adv-x="500" 
d="M62 22l44 166h-64c-10 0 -16 9 -14 19l2 14c1 11 9 19 19 19h71l44 164h-65c-9 0 -16 9 -15 19l2 14c1 10 11 19 20 19h71l61 228c2 8 11 16 19 16h16c10 0 16 -10 13 -22l-58 -222h142l59 228c2 8 12 16 20 16h15c10 0 17 -10 14 -22l-59 -222h56c10 0 16 -9 14 -19
l-2 -14c-1 -10 -9 -19 -19 -19h-63l-43 -164h57c9 0 16 -8 14 -19l-2 -14c-1 -10 -11 -19 -20 -19h-64l-45 -172c-2 -9 -11 -16 -20 -16h-15c-11 0 -16 10 -14 22l45 166h-143l-44 -172c-3 -9 -12 -16 -20 -16h-15c-11 0 -17 10 -14 22zM170 240h142l43 164h-141z" />
    <glyph glyph-name="dollar" unicode="$" horiz-adv-x="491" 
d="M19 65c-10 12 -13 18 -2 33l39 56c12 17 25 16 36 6s57 -42 102 -52l28 186c-71 46 -153 103 -153 204c0 110 68 203 212 211l4 32c2 11 11 19 20 19h14c9 0 16 -8 14 -19l-4 -33c79 -7 134 -49 153 -65c8 -7 9 -23 1 -33l-43 -56c-8 -10 -19 -14 -31 -4
c-10 9 -48 37 -97 45l-25 -180c64 -37 160 -95 160 -207c0 -121 -79 -213 -221 -218l-14 -103c-2 -11 -11 -18 -20 -18h-16c-8 0 -14 8 -12 18l14 104c-87 6 -146 60 -159 74zM239 440l23 159c-40 -7 -68 -40 -68 -81c0 -31 14 -55 45 -78zM244 107c37 8 68 33 68 80
c0 32 -15 59 -44 84z" />
    <glyph glyph-name="percent" unicode="%" horiz-adv-x="604" 
d="M175 440c-63 0 -110 52 -110 117c0 84 55 153 137 153c62 0 109 -52 109 -117c0 -85 -61 -153 -136 -153zM61 27l403 663c4 6 9 10 17 10h52c13 0 19 -14 11 -27l-404 -663c-3 -4 -9 -10 -16 -10h-51c-14 0 -20 14 -12 27zM181 526c21 0 42 26 42 56c0 22 -11 41 -29 41
c-22 0 -43 -25 -43 -56c0 -22 12 -41 30 -41zM301 107c0 84 55 153 137 153c62 0 109 -52 109 -117c0 -85 -61 -153 -136 -153c-63 0 -110 52 -110 117zM387 117c0 -22 12 -41 30 -41c21 0 42 26 42 56c0 22 -11 41 -29 41c-22 0 -43 -25 -43 -56z" />
    <glyph glyph-name="ampersand" unicode="&#x26;" horiz-adv-x="626" 
d="M49 157c0 152 154 220 163 232v2l-15 23c-24 34 -57 89 -49 142c11 76 72 154 195 154c89 0 155 -69 155 -148c0 -125 -127 -194 -141 -204l80 -118s34 48 52 117c6 22 15 32 37 25l46 -14c21 -6 22 -25 18 -41c-23 -99 -84 -169 -84 -169l63 -84c10 -12 13 -31 -8 -46
l-43 -29c-14 -9 -30 -7 -38 5l-45 65s-78 -79 -209 -79c-107 0 -177 78 -177 167zM303 440c12 8 86 43 86 110c0 34 -23 64 -61 64c-42 0 -72 -34 -72 -77c0 -28 13 -46 31 -73zM168 178c0 -47 34 -82 79 -82c75 0 122 62 122 62l-103 149c-11 -8 -98 -51 -98 -129z" />
    <glyph glyph-name="quotesingle" unicode="'" horiz-adv-x="172" 
d="M84 501c-9 0 -16 9 -15 19l23 161c1 10 11 19 20 19h83c12 0 19 -11 13 -25l-63 -159c-3 -8 -10 -15 -18 -15h-43z" />
    <glyph glyph-name="parenleft" unicode="(" horiz-adv-x="327" 
d="M46 207c0 407 166 492 292 503c10 1 16 -6 15 -15l-6 -66c-1 -11 -7 -16 -14 -18c-169 -40 -162 -313 -162 -401c0 -97 26 -168 80 -190c5 -2 10 -7 8 -18l-12 -65c-2 -10 -10 -16 -20 -16c-86 4 -181 88 -181 286z" />
    <glyph glyph-name="parenright" unicode=")" horiz-adv-x="328" 
d="M-8 3c1 11 8 16 14 18c84 27 162 127 162 398c0 97 -23 176 -80 192c-6 2 -10 7 -8 18l12 66c2 9 10 16 20 15c86 -7 181 -78 181 -287c0 -411 -167 -496 -292 -502c-10 0 -16 6 -15 16z" />
    <glyph glyph-name="asterisk" unicode="*" horiz-adv-x="333" 
d="M162 370c-9 0 -16 9 -14 19l14 87l-73 -50c-8 -6 -19 -3 -23 5l-14 27c-5 9 -1 21 8 27l84 50l-70 50c-8 5 -8 19 -1 27l23 27c6 7 17 9 23 4l59 -50l11 88c1 10 9 19 19 19h34c9 0 16 -9 14 -19l-14 -88l73 51c8 5 19 3 23 -5l14 -27c5 -9 2 -21 -8 -27l-83 -50l69 -51
c8 -6 7 -18 1 -26l-23 -27c-7 -8 -17 -12 -24 -6l-59 50l-10 -86c-1 -10 -11 -19 -20 -19h-33z" />
    <glyph glyph-name="plus" unicode="+" horiz-adv-x="532" 
d="M197 150l21 149h-128c-9 0 -15 9 -14 19l8 56c1 10 11 19 20 19h127l22 151c1 10 10 18 19 18h65c9 0 16 -8 14 -18l-21 -151h132c9 0 15 -9 14 -19l-8 -56c-1 -10 -10 -19 -19 -19h-132l-21 -149c-1 -10 -11 -18 -20 -18h-64c-9 0 -16 8 -15 18z" />
    <glyph glyph-name="comma" unicode="," horiz-adv-x="257" 
d="M8 62c0 49 44 92 99 92c37 0 84 -27 84 -105c0 -137 -102 -216 -139 -242c-8 -6 -16 -6 -23 2l-18 19c-6 7 -3 19 7 27c11 9 88 59 100 143c0 0 -19 -8 -42 -8c-39 0 -68 33 -68 72z" />
    <glyph glyph-name="hyphen" unicode="-" horiz-adv-x="348" 
d="M59 192c-10 0 -15 8 -14 18l9 67c1 11 10 19 20 19h204c10 0 15 -8 14 -19l-9 -67c-1 -10 -10 -18 -20 -18h-204z" />
    <glyph glyph-name="period" unicode="." horiz-adv-x="232" 
d="M7 62c0 50 45 93 93 93c40 0 70 -34 70 -73c0 -50 -46 -92 -94 -92c-39 0 -69 33 -69 72z" />
    <glyph glyph-name="slash" unicode="/" horiz-adv-x="337" 
d="M8 0c-12 0 -19 11 -13 25l270 662c3 7 8 13 18 13h78c12 0 18 -11 12 -25l-268 -662c-3 -7 -10 -13 -18 -13h-79z" />
    <glyph glyph-name="zero" unicode="0" horiz-adv-x="584" 
d="M252 -10c-116 0 -187 105 -187 266c0 262 110 435 286 435c116 0 187 -104 187 -265c0 -262 -102 -436 -286 -436zM269 108c84 0 136 137 136 315c0 91 -25 150 -71 150c-84 0 -136 -137 -136 -314c0 -92 24 -151 71 -151z" />
    <glyph glyph-name="one" unicode="1" horiz-adv-x="347" 
d="M97 19l68 479l-86 -19c-9 -2 -17 4 -16 13l5 55c1 10 3 15 13 23l142 110h74c9 0 15 -9 14 -19l-90 -642c-1 -10 -10 -19 -19 -19h-90c-10 0 -16 9 -15 19z" />
    <glyph glyph-name="two" unicode="2" horiz-adv-x="480" 
d="M8 0c-10 0 -15 9 -14 19l3 23l283 333c26 31 57 73 57 120c0 42 -23 79 -71 79c-42 0 -82 -39 -105 -63c-8 -8 -18 -7 -25 0l-50 55c-5 6 -5 18 3 26c15 16 85 98 192 98c116 0 180 -79 180 -187c0 -57 -24 -115 -74 -174l-189 -222h183c9 0 15 -9 14 -19l-9 -69
c-1 -10 -11 -19 -20 -19h-358z" />
    <glyph glyph-name="three" unicode="3" horiz-adv-x="486" 
d="M9 79c-5 7 -3 19 4 25l53 48c8 8 20 8 29 -5c15 -20 48 -47 96 -47c56 0 100 42 100 103c0 46 -35 89 -101 89h-51c-9 0 -16 8 -14 20l9 63c2 13 10 20 20 20h50c75 0 121 51 121 109c0 40 -28 66 -66 66c-44 0 -72 -32 -90 -49c-8 -8 -18 -9 -25 -1l-48 56
c-6 7 -4 19 3 26c19 20 82 88 181 88c98 0 172 -63 172 -159c0 -92 -70 -162 -118 -185v-3c36 -18 88 -68 88 -142c0 -118 -89 -211 -231 -211c-113 0 -165 64 -182 89z" />
    <glyph glyph-name="four" unicode="4" horiz-adv-x="549" 
d="M16 145c-10 0 -16 9 -14 19l11 83l380 438c3 4 7 6 15 6h58c9 0 16 -8 14 -19l-59 -426h71c10 0 16 -8 15 -18l-9 -62c-1 -10 -10 -19 -20 -19h-71l-17 -128c-2 -10 -11 -19 -20 -19h-87c-9 0 -16 9 -15 19l18 126h-270zM148 249h156l35 221z" />
    <glyph glyph-name="five" unicode="5" horiz-adv-x="493" 
d="M25 79c-5 7 -3 19 4 25l51 48c8 8 19 7 29 -5c11 -13 48 -47 98 -47c68 0 121 65 121 137c0 52 -29 94 -86 94h-139c-18 0 -25 19 -23 35l42 295c1 10 10 19 20 19h287c10 0 16 -9 15 -19l-10 -68c-1 -10 -10 -19 -20 -19h-191l-19 -133h70c112 0 177 -84 177 -197
c0 -150 -98 -254 -244 -254c-107 0 -165 64 -182 89z" />
    <glyph glyph-name="six" unicode="6" horiz-adv-x="506" 
d="M42 224c0 326 283 452 367 478c14 4 23 -1 25 -14l16 -61c3 -12 -2 -22 -21 -29c-44 -16 -186 -79 -226 -180c0 0 36 18 90 18c95 0 171 -71 171 -189c0 -147 -105 -257 -233 -257c-116 0 -189 109 -189 234zM238 104c62 0 111 62 111 134c0 55 -34 98 -88 98
c-50 0 -89 -43 -102 -62c-15 -66 9 -170 79 -170z" />
    <glyph glyph-name="seven" unicode="7" horiz-adv-x="456" 
d="M11 19l2 11l312 542h-228c-9 0 -16 9 -15 19l10 70c1 10 11 19 20 19h374c9 0 17 -9 15 -19l-3 -15l-352 -619c-10 -17 -21 -27 -35 -27h-82c-11 0 -21 3 -18 19z" />
    <glyph glyph-name="eight" unicode="8" horiz-adv-x="531" 
d="M33 158c0 105 111 176 135 191v3c-29 20 -72 70 -72 136c0 120 97 202 223 202c100 0 180 -64 180 -160c0 -92 -73 -151 -116 -177l-1 -4c34 -21 88 -74 88 -148c0 -117 -89 -211 -246 -211c-122 0 -191 73 -191 168zM283 407c57 16 88 59 88 107c0 41 -28 68 -64 68
c-41 0 -85 -38 -85 -94c0 -37 20 -68 61 -81zM167 171c0 -47 34 -74 72 -74c46 0 98 37 98 100c0 39 -25 80 -71 93c-60 -17 -99 -68 -99 -119z" />
    <glyph glyph-name="nine" unicode="9" horiz-adv-x="505" 
d="M90 -2l-16 61c-3 12 2 22 21 29c44 16 186 79 226 180c0 0 -36 -18 -90 -18c-95 0 -171 71 -171 189c0 147 105 257 233 257c116 0 189 -109 189 -234c0 -326 -283 -452 -367 -478c-14 -4 -23 1 -25 14zM263 350c50 0 89 43 102 62c15 66 -9 170 -79 170
c-62 0 -111 -62 -111 -134c0 -55 34 -98 88 -98z" />
    <glyph glyph-name="colon" unicode=":" horiz-adv-x="257" 
d="M127 266c-34 0 -59 28 -59 63c0 45 38 81 79 81c35 0 60 -28 60 -63c0 -45 -38 -81 -80 -81zM29 53c0 45 38 81 80 81c34 0 59 -28 59 -63c0 -45 -38 -81 -80 -81c-34 0 -59 28 -59 63z" />
    <glyph glyph-name="semicolon" unicode=";" horiz-adv-x="241" 
d="M114 266c-38 0 -64 32 -58 72c5 40 40 72 78 72c35 0 60 -28 60 -63c0 -45 -38 -81 -80 -81zM20 49c0 40 35 75 78 75c29 0 65 -22 65 -86c0 -109 -78 -176 -107 -201c-7 -6 -13 -7 -20 1l-14 16c-6 6 -2 16 5 22c9 9 68 53 80 119c-1 0 -15 -5 -33 -5
c-31 0 -54 26 -54 59z" />
    <glyph glyph-name="less" unicode="&#x3c;" horiz-adv-x="400" 
d="M18 210c-5 4 -7 9 -6 18l1 7c1 8 5 11 10 14l344 212c12 8 25 0 23 -16l-10 -78c-1 -9 -6 -13 -10 -16l-201 -126v-5l165 -121c4 -3 7 -7 6 -16l-10 -68c-2 -16 -17 -17 -27 -10z" />
    <glyph glyph-name="equal" unicode="=" horiz-adv-x="460" 
d="M87 337c-10 0 -15 9 -14 19l8 57c1 10 9 19 19 19h300c10 0 16 -9 15 -19l-8 -57c-1 -10 -10 -19 -20 -19h-300zM58 127c-10 0 -15 9 -14 19l8 57c1 10 9 19 19 19h300c10 0 16 -9 15 -19l-8 -57c-1 -10 -10 -19 -20 -19h-300z" />
    <glyph glyph-name="greater" unicode="&#x3e;" horiz-adv-x="399" 
d="M19 4c-13 -8 -25 0 -23 16l11 79c1 9 5 13 10 16l204 123v2l-169 127c-4 3 -6 7 -5 16l9 66c2 16 16 20 27 12l284 -212c5 -4 8 -10 7 -16l-1 -7c-1 -6 -4 -12 -11 -16z" />
    <glyph glyph-name="question" unicode="?" horiz-adv-x="423" 
d="M148 272c-9 0 -16 8 -15 19l6 42c14 99 154 133 154 211c0 30 -19 51 -53 51c-40 0 -76 -38 -91 -52c-10 -9 -22 -6 -29 1l-46 51c-6 7 -3 18 4 26c13 14 70 89 183 89c92 0 166 -65 166 -151c0 -137 -152 -166 -166 -233l-8 -38c-2 -10 -8 -16 -19 -16h-86zM81 62
c0 50 45 93 93 93c40 0 70 -34 70 -73c0 -50 -46 -92 -93 -92c-40 0 -70 33 -70 72z" />
    <glyph glyph-name="at" unicode="@" horiz-adv-x="909" 
d="M23 160c0 312 196 550 492 550c220 0 357 -154 357 -356c0 -159 -72 -364 -250 -364c-62 0 -87 36 -96 78h-6c-28 -38 -81 -78 -138 -78c-84 0 -138 81 -138 178c0 137 87 242 196 242c54 0 92 -39 106 -59l17 34c4 9 6 15 19 15h34c9 0 16 -8 14 -19l-26 -183
c-11 -83 13 -100 39 -100c70 0 114 121 114 242c0 149 -78 267 -246 267c-222 0 -377 -178 -377 -436c0 -134 67 -248 166 -300c8 -4 13 -13 7 -24l-33 -63c-5 -10 -14 -15 -22 -11c-128 58 -229 212 -229 387zM356 172c0 -45 22 -74 54 -74c46 0 89 53 99 120l6 41
c-7 16 -34 43 -71 43c-57 0 -88 -58 -88 -130z" />
    <glyph glyph-name="A" unicode="A" horiz-adv-x="602" 
d="M-21 0c-14 0 -19 13 -12 26l376 673c4 7 9 11 17 11h9c7 0 12 -5 14 -11l184 -673c4 -13 -5 -26 -19 -26h-87c-15 0 -23 5 -26 20l-25 111h-249l-58 -111c-5 -10 -16 -20 -32 -20h-92zM220 239h158l-47 218h-2z" />
    <glyph glyph-name="B" unicode="B" horiz-adv-x="575" 
d="M53 19l93 662c1 10 10 19 20 19h208c97 0 168 -75 168 -163c0 -92 -72 -163 -122 -185c41 -16 93 -61 93 -139c0 -121 -90 -213 -225 -213h-221c-10 0 -16 9 -14 19zM237 406h72c53 0 93 47 93 104c0 41 -24 71 -59 71h-81zM196 118h86c52 0 94 46 94 102
c0 43 -34 76 -71 76h-83z" />
    <glyph glyph-name="C" unicode="C" horiz-adv-x="626" 
d="M51 301c0 235 166 409 373 409c90 0 161 -40 208 -95c6 -8 5 -20 -4 -28l-54 -52c-11 -10 -24 -9 -33 0c-26 25 -69 50 -124 50c-120 0 -224 -124 -224 -267c0 -106 57 -197 153 -197c58 0 103 29 137 59c13 11 24 9 32 -1l52 -65c5 -7 2 -20 -5 -27
c-70 -67 -146 -97 -226 -97c-173 0 -285 139 -285 311z" />
    <glyph glyph-name="D" unicode="D" horiz-adv-x="683" 
d="M53 19l93 662c1 10 10 19 19 19h216c158 0 271 -142 271 -304c0 -217 -159 -396 -369 -396h-217c-9 0 -15 9 -13 19zM197 122h93c122 0 223 115 223 265c0 109 -62 192 -158 192h-94z" />
    <glyph glyph-name="E" unicode="E" horiz-adv-x="545" 
d="M53 19l93 662c1 10 10 19 19 19h370c10 0 16 -9 15 -19l-12 -82c-1 -10 -10 -19 -20 -19h-256l-23 -164h212c9 0 16 -9 15 -19l-12 -83c-2 -11 -11 -19 -20 -19h-212l-25 -175h257c10 0 15 -9 14 -19l-11 -82c-1 -10 -10 -19 -20 -19h-370c-10 0 -16 9 -14 19z" />
    <glyph glyph-name="F" unicode="F" horiz-adv-x="524" 
d="M53 19l93 662c1 10 10 19 19 19h370c10 0 16 -9 15 -19l-12 -82c-1 -10 -10 -19 -20 -19h-256l-27 -188h213c9 0 16 -9 14 -19l-11 -82c-1 -10 -11 -19 -20 -19h-213l-35 -253c-2 -10 -11 -19 -20 -19h-96c-10 0 -16 9 -14 19z" />
    <glyph glyph-name="G" unicode="G" horiz-adv-x="653" 
d="M51 301c0 235 164 409 373 409c90 0 157 -35 208 -95c6 -8 5 -20 -4 -28l-53 -52c-12 -9 -24 -9 -33 0c-26 25 -63 50 -125 50c-120 0 -224 -124 -224 -267c0 -106 67 -198 155 -198c47 0 83 12 102 24l12 88h-64c-10 0 -16 8 -15 18l11 78c2 11 10 19 20 19h177
c9 0 15 -9 14 -19l-33 -240c-2 -16 -9 -25 -16 -31c-10 -8 -89 -67 -224 -67c-163 0 -281 139 -281 311z" />
    <glyph glyph-name="H" unicode="H" horiz-adv-x="714" 
d="M53 19l93 662c1 10 11 19 20 19h96c10 0 16 -9 15 -19l-37 -265h273l37 265c1 10 10 19 20 19h96c9 0 16 -9 15 -19l-93 -662c-2 -10 -11 -19 -20 -19h-97c-10 0 -15 9 -14 19l39 276h-273l-39 -276c-2 -10 -10 -19 -20 -19h-97c-9 0 -16 9 -14 19z" />
    <glyph glyph-name="I" unicode="I" horiz-adv-x="310" 
d="M53 19l93 662c1 10 10 19 19 19h98c9 0 16 -9 14 -19l-93 -662c-1 -10 -10 -19 -19 -19h-98c-9 0 -16 9 -14 19z" />
    <glyph glyph-name="J" unicode="J" horiz-adv-x="402" 
d="M-35 63c-5 8 -1 18 6 25l46 45c10 10 17 7 25 -1c11 -10 34 -24 59 -24c34 0 71 32 80 101l67 472c1 10 10 19 19 19h99c10 0 16 -9 15 -19l-67 -472c-19 -139 -81 -219 -210 -219c-79 0 -125 50 -139 73z" />
    <glyph glyph-name="K" unicode="K" horiz-adv-x="613" 
d="M53 24l92 652c2 13 12 24 25 24h94c12 0 20 -11 18 -24l-38 -270l235 276c11 13 20 18 41 18h99c17 0 23 -18 10 -33l-273 -306l202 -330c7 -13 -3 -31 -20 -31h-91c-19 0 -27 4 -36 20l-178 309l-43 -305c-1 -13 -13 -24 -24 -24h-94c-13 0 -20 11 -19 24z" />
    <glyph glyph-name="L" unicode="L" horiz-adv-x="465" 
d="M53 19l93 662c1 10 10 19 20 19h97c9 0 15 -9 14 -19l-79 -561h221c10 0 15 -9 14 -19l-11 -82c-1 -10 -10 -19 -20 -19h-334c-10 0 -16 9 -15 19z" />
    <glyph glyph-name="M" unicode="M" horiz-adv-x="807" 
d="M12 23l198 672c2 8 8 15 19 15h14c7 0 12 -4 14 -10l136 -453h2l272 453c4 6 9 10 17 10h15c7 0 14 -7 14 -15l9 -672c0 -14 -9 -23 -20 -23h-96c-10 0 -15 8 -15 15l8 359h-3l-209 -373c-3 -6 -9 -11 -17 -11h-16c-8 0 -12 5 -14 11l-102 373h-2l-96 -359
c-2 -7 -7 -15 -19 -15h-95c-11 0 -18 9 -14 23z" />
    <glyph glyph-name="N" unicode="N" horiz-adv-x="715" 
d="M53 17l94 675c1 10 10 18 19 18h26l305 -432h1l54 403c1 10 9 19 19 19h97c9 0 16 -9 15 -19l-95 -673c-1 -10 -10 -18 -19 -18h-27l-304 445h-1l-54 -416c-1 -10 -10 -19 -20 -19h-96c-8 0 -15 8 -14 17z" />
    <glyph glyph-name="O" unicode="O" horiz-adv-x="735" 
d="M50 300c0 226 161 410 374 410c162 0 281 -143 281 -313c0 -225 -163 -407 -374 -407c-163 0 -281 144 -281 310zM345 120c116 0 225 118 225 261c0 108 -66 199 -161 199c-115 0 -224 -121 -224 -263c0 -108 66 -197 160 -197z" />
    <glyph glyph-name="P" unicode="P" horiz-adv-x="549" 
d="M53 19l93 662c1 10 10 19 20 19h214c100 0 173 -95 173 -200c0 -146 -106 -246 -235 -246h-102l-33 -235c-1 -10 -11 -19 -20 -19h-96c-10 0 -16 9 -14 19zM233 376h93c49 0 96 53 96 118c0 47 -29 83 -68 83h-93z" />
    <glyph glyph-name="Q" unicode="Q" horiz-adv-x="738" 
d="M51 300c0 226 164 410 375 410c162 0 280 -140 280 -313c0 -180 -91 -302 -216 -372l84 -196c6 -14 -4 -27 -18 -27h-98c-13 0 -20 4 -25 18l-68 173c-12 -2 -27 -3 -35 -3c-163 0 -279 150 -279 310zM346 120c116 0 225 118 225 261c0 108 -66 199 -161 199
c-115 0 -224 -121 -224 -263c0 -108 66 -197 160 -197z" />
    <glyph glyph-name="R" unicode="R" horiz-adv-x="624" 
d="M53 19l93 662c1 10 10 19 19 19h264c98 0 169 -84 169 -187c0 -122 -64 -201 -159 -231l82 -256c4 -13 -2 -26 -17 -26h-95c-10 0 -19 4 -22 16l-73 258h-95l-36 -255c-1 -10 -10 -19 -19 -19h-97c-10 0 -16 9 -14 19zM235 381h125c63 0 105 53 105 116
c0 45 -28 83 -65 83h-137z" />
    <glyph glyph-name="S" unicode="S" horiz-adv-x="507" 
d="M27 68c-6 6 -11 15 0 30l39 57c9 14 23 11 31 4c14 -12 63 -52 124 -52c45 0 89 35 89 85c0 44 -30 73 -86 110c-66 43 -144 100 -144 200s69 208 226 208c93 0 161 -48 178 -65c12 -12 13 -26 3 -40l-39 -55c-8 -12 -21 -13 -35 -2c-16 13 -62 44 -113 44
s-85 -39 -85 -78c0 -40 27 -60 87 -100c66 -44 154 -99 154 -209c0 -117 -91 -215 -239 -215c-103 0 -174 60 -190 78z" />
    <glyph glyph-name="T" unicode="T" horiz-adv-x="457" 
d="M125 19l79 561h-132c-10 0 -16 9 -15 19l12 82c1 10 10 19 19 19h397c10 0 16 -9 15 -19l-12 -82c-1 -10 -10 -19 -20 -19h-132l-79 -561c-1 -10 -11 -19 -20 -19h-97c-9 0 -16 9 -15 19z" />
    <glyph glyph-name="U" unicode="U" horiz-adv-x="669" 
d="M79 265l59 416c1 10 11 19 20 19h99c10 0 16 -9 15 -19l-58 -409c-12 -85 28 -150 98 -150c71 0 130 65 142 149l58 410c1 10 10 19 20 19h99c9 0 16 -9 15 -19l-59 -416c-21 -152 -136 -275 -293 -275c-139 0 -236 123 -215 275z" />
    <glyph glyph-name="V" unicode="V" horiz-adv-x="603" 
d="M240 1l-185 673c-4 13 6 26 19 26h99c7 0 13 -6 14 -11l103 -418h4l222 418c3 5 8 11 16 11h112c14 0 19 -13 12 -26l-376 -673c-3 -6 -10 -11 -17 -11h-9c-8 0 -12 5 -14 11z" />
    <glyph glyph-name="W" unicode="W" horiz-adv-x="820" 
d="M161 4l-75 672c-2 14 7 24 19 24h87c7 0 13 -7 14 -14l34 -379h4l202 392c3 6 9 11 17 11h16c8 0 13 -5 14 -11l81 -392h4l142 379c3 7 11 14 18 14h95c13 0 19 -10 13 -24l-264 -672c-3 -8 -11 -14 -18 -14h-15c-8 0 -13 5 -14 11l-102 433h-4l-222 -433
c-3 -6 -8 -11 -17 -11h-14c-8 0 -14 6 -15 14z" />
    <glyph glyph-name="X" unicode="X" horiz-adv-x="595" 
d="M6 0c-15 0 -19 13 -9 26l234 333l-138 315c-5 13 3 26 19 26h101c6 0 11 -3 13 -9l91 -227h2l147 227c5 7 11 9 16 9h122c15 0 20 -13 10 -26l-227 -315l142 -333c6 -14 -2 -26 -17 -26h-96c-8 0 -13 6 -14 9l-100 244h-3l-161 -244c-3 -4 -8 -9 -17 -9h-115z" />
    <glyph glyph-name="Y" unicode="Y" horiz-adv-x="533" 
d="M162 19l45 318l-156 339c-6 13 3 24 17 24h94c11 0 15 -4 19 -14l105 -230l168 235c3 4 8 9 16 9h110c15 0 18 -13 9 -26l-252 -336l-44 -319c-1 -10 -11 -19 -20 -19h-97c-10 0 -15 9 -14 19z" />
    <glyph glyph-name="Z" unicode="Z" horiz-adv-x="501" 
d="M7 0c-9 0 -16 9 -14 19l2 18l332 538v4h-212c-9 0 -16 9 -15 19l12 83c1 10 11 19 20 19h379c9 0 16 -9 15 -19l-2 -13l-326 -543v-4h214c10 0 15 -9 14 -19l-11 -83c-1 -10 -10 -19 -20 -19h-388z" />
    <glyph glyph-name="bracketleft" unicode="[" horiz-adv-x="332" 
d="M113 -200h115c9 0 16 -8 15 -18l-9 -63c-1 -10 -11 -19 -20 -19h-213c-9 0 -16 9 -15 19l136 962c1 10 10 19 19 19h214c9 0 15 -9 14 -19l-8 -62c-1 -11 -11 -19 -20 -19h-115z" />
    <glyph glyph-name="backslash" unicode="\" horiz-adv-x="329" 
d="M158 13l-82 662c-2 14 7 25 20 25h69c7 0 14 -6 15 -13l83 -662c2 -14 -8 -25 -20 -25h-70c-7 0 -14 6 -15 13z" />
    <glyph glyph-name="bracketright" unicode="]" horiz-adv-x="333" 
d="M-30 -200h115l113 800h-116c-9 0 -16 8 -14 19l9 62c1 10 10 19 19 19h214c9 0 16 -9 14 -19l-135 -962c-1 -10 -11 -19 -20 -19h-213c-9 0 -16 9 -15 19l9 63c1 10 11 18 20 18z" />
    <glyph glyph-name="asciicircum" unicode="^" horiz-adv-x="472" 
d="M58 385c-14 0 -18 12 -8 24l229 295c4 5 9 10 17 10h5c7 0 12 -5 14 -10l143 -294c6 -13 -1 -25 -15 -25h-65c-8 0 -14 4 -16 9l-80 168h-1l-129 -168c-3 -4 -10 -9 -21 -9h-73z" />
    <glyph glyph-name="underscore" unicode="_" horiz-adv-x="388" 
d="M-4 -10h315c10 0 17 -8 15 -19l-6 -39c-2 -10 -9 -18 -19 -18h-316c-9 0 -15 8 -14 18l5 39c1 11 10 19 20 19z" />
    <glyph glyph-name="grave" unicode="`" horiz-adv-x="272" 
d="M227 531l-150 77c-7 4 -11 14 -2 27l29 43c9 14 22 12 27 8l137 -97c5 -3 8 -11 3 -19l-20 -33c-6 -9 -13 -12 -24 -6z" />
    <glyph glyph-name="a" unicode="a" horiz-adv-x="474" 
d="M278 163l12 83c-3 17 -23 56 -65 56c-46 0 -94 -47 -94 -126c0 -43 25 -78 66 -78c42 0 74 45 81 65zM426 381l-50 -362c-1 -10 -11 -19 -20 -19h-39c-6 0 -13 3 -16 17l-6 30c-15 -14 -58 -57 -129 -57c-84 0 -147 82 -147 184c0 129 89 236 206 236
c57 0 98 -36 112 -55l18 32c4 7 9 13 18 13h39c9 0 16 -8 14 -19z" />
    <glyph glyph-name="b" unicode="b" horiz-adv-x="469" 
d="M22 19l93 662c1 10 11 19 20 19h89c9 0 16 -9 15 -19l-41 -289c22 11 49 18 73 18c99 0 158 -81 158 -182c0 -128 -91 -238 -207 -238c-78 0 -111 60 -111 60l-15 -33c-5 -11 -12 -17 -21 -17h-39c-9 0 -16 9 -14 19zM162 164c3 -23 19 -66 61 -66c49 0 92 57 92 121
c0 47 -26 83 -68 83c-41 0 -67 -23 -67 -23z" />
    <glyph glyph-name="c" unicode="c" horiz-adv-x="396" 
d="M19 176c0 137 98 234 213 234c61 0 111 -32 136 -71c6 -9 1 -20 -8 -28l-40 -37c-9 -8 -20 -4 -25 1c-11 10 -27 27 -60 27c-48 0 -97 -49 -97 -118c0 -48 26 -86 64 -86c35 0 59 25 71 38c6 7 16 10 25 1l39 -38c8 -8 10 -18 3 -28c-35 -46 -87 -81 -150 -81
c-99 0 -171 79 -171 186z" />
    <glyph glyph-name="d" unicode="d" horiz-adv-x="471" 
d="M166 -10c-84 0 -147 82 -147 184c0 130 92 236 210 236c29 0 61 -10 75 -19l41 290c2 17 28 19 42 19h67c9 0 16 -9 15 -19l-93 -662c-1 -10 -11 -19 -20 -19h-39c-6 0 -13 3 -16 17l-6 30c-15 -14 -64 -57 -129 -57zM131 176c0 -43 25 -78 66 -78c42 0 74 45 81 65
l11 115s-20 24 -61 24c-52 0 -97 -57 -97 -126z" />
    <glyph glyph-name="e" unicode="e" horiz-adv-x="402" 
d="M17 168c0 125 95 242 235 242c79 0 128 -45 128 -106c0 -102 -149 -136 -251 -137c-3 -41 16 -73 66 -73c24 0 54 12 71 24c9 6 18 8 23 0l33 -47c5 -7 5 -18 -3 -26c-35 -32 -85 -55 -143 -55c-96 0 -159 82 -159 178zM144 245c48 1 123 15 123 47c0 14 -11 25 -34 25
c-40 0 -78 -38 -89 -72z" />
    <glyph glyph-name="f" unicode="f" horiz-adv-x="329" 
d="M0 -281l84 576h-34c-10 0 -16 9 -15 19l10 67c1 11 9 19 19 19h34l16 108c22 144 93 202 199 202c48 0 95 -23 108 -39c5 -5 5 -16 1 -23l-35 -62c-8 -13 -17 -14 -27 -8c-9 5 -26 14 -50 14c-38 0 -62 -29 -70 -84l-15 -108h86c10 0 16 -8 14 -19l-9 -67
c-1 -10 -10 -19 -20 -19h-86l-83 -576c-2 -10 -11 -19 -20 -19h-93c-9 0 -16 9 -14 19z" />
    <glyph glyph-name="g" unicode="g" horiz-adv-x="469" 
d="M170 -10c-89 0 -152 80 -152 181c0 129 92 239 206 239c57 0 98 -35 112 -55l18 32c4 7 12 13 18 13h39c9 0 16 -8 14 -19l-59 -425c-23 -162 -106 -216 -216 -216c-64 0 -118 37 -140 61c-10 10 -18 21 -4 38l34 43c11 14 23 8 33 0c13 -11 41 -35 81 -35
c48 0 75 34 88 112l8 53c-18 -10 -51 -22 -80 -22zM132 179c0 -47 26 -81 68 -81c41 0 65 23 65 23l21 140c-5 13 -24 41 -62 41c-51 0 -92 -59 -92 -123z" />
    <glyph glyph-name="h" unicode="h" horiz-adv-x="488" 
d="M22 19l93 662c1 10 11 19 20 19h89c9 0 16 -9 15 -19l-43 -304c22 17 60 33 93 33c114 0 154 -98 140 -199l-27 -192c-1 -10 -11 -19 -20 -19h-86c-10 0 -15 9 -14 19l27 194c8 55 -12 89 -56 89c-49 0 -75 -54 -75 -54l-32 -229c-2 -11 -8 -19 -22 -19h-88
c-9 0 -15 9 -14 19z" />
    <glyph glyph-name="i" unicode="i" 
d="M156 542c-34 0 -58 27 -58 60c0 43 37 78 77 78c35 0 60 -27 60 -61c0 -42 -38 -77 -79 -77zM22 19l51 362c2 11 11 19 20 19h88c9 0 17 -8 15 -19l-51 -362c-1 -10 -11 -19 -20 -19h-88c-9 0 -16 9 -15 19z" />
    <glyph glyph-name="j" unicode="j" 
d="M155 542c-34 0 -58 27 -58 60c0 43 37 78 78 78c34 0 59 -27 59 -61c0 -42 -38 -77 -79 -77zM3 -108l68 489c2 11 11 19 20 19h90c9 0 16 -8 14 -19l-71 -498c-17 -123 -87 -193 -191 -193c-49 0 -98 27 -111 39c-6 6 -6 17 0 26l31 55c7 11 18 12 25 8
c11 -6 31 -16 53 -16c40 0 64 32 72 90z" />
    <glyph glyph-name="k" unicode="k" horiz-adv-x="463" 
d="M22 19l93 662c1 10 11 19 20 19h89c9 0 16 -9 15 -19l-61 -433l122 140c6 7 14 12 24 12h108c15 0 18 -16 7 -27l-153 -161l131 -187c8 -11 1 -25 -15 -25h-104c-6 0 -10 4 -13 8l-116 180l-23 -169c-2 -10 -11 -19 -20 -19h-90c-9 0 -16 9 -14 19z" />
    <glyph glyph-name="l" unicode="l" horiz-adv-x="240" 
d="M22 19l93 662c1 10 11 19 20 19h88c9 0 16 -9 15 -19l-93 -662c-1 -10 -11 -19 -20 -19h-89c-9 0 -15 9 -14 19z" />
    <glyph glyph-name="m" unicode="m" horiz-adv-x="720" 
d="M22 19l51 362c1 11 10 19 19 19h38c7 0 12 -5 14 -11l9 -38c22 20 69 59 129 59c51 0 81 -22 107 -62c19 18 73 62 136 62c113 0 150 -95 135 -200l-27 -191c-2 -10 -10 -19 -20 -19h-86c-9 0 -15 9 -14 19l29 198c8 56 -9 85 -47 85c-48 0 -77 -53 -77 -53
s-3 -4 -35 -230c-1 -10 -10 -19 -20 -19h-78c-10 0 -16 9 -14 19l28 198c7 52 -6 85 -49 85c-49 0 -76 -54 -76 -54l-33 -229c-1 -10 -11 -19 -20 -19h-85c-9 0 -16 9 -14 19z" />
    <glyph glyph-name="n" unicode="n" horiz-adv-x="486" 
d="M22 19l51 362c1 11 10 19 19 19h39c6 0 13 -5 14 -12l9 -37c19 17 68 59 135 59c110 0 153 -95 138 -199l-27 -192c-1 -10 -10 -19 -19 -19h-87c-10 0 -15 9 -14 19l29 198c7 52 -11 85 -51 85c-52 0 -86 -56 -86 -56l-32 -227c-2 -14 -7 -19 -21 -19h-83
c-9 0 -16 9 -14 19z" />
    <glyph glyph-name="o" unicode="o" horiz-adv-x="435" 
d="M18 173c0 128 98 237 218 237c92 0 159 -84 159 -182c0 -129 -100 -238 -218 -238c-93 0 -159 87 -159 183zM192 98c48 0 92 54 92 119c0 47 -25 85 -63 85c-49 0 -93 -53 -93 -117c0 -48 25 -87 64 -87z" />
    <glyph glyph-name="p" unicode="p" horiz-adv-x="470" 
d="M145 12l-41 -293c-2 -12 -7 -19 -24 -19h-86c-8 0 -14 7 -14 16v3l93 662c1 11 10 19 19 19h40c5 0 12 -4 14 -12l8 -33c21 22 71 55 128 55c88 0 147 -82 147 -180c0 -135 -95 -240 -211 -240c-29 0 -58 11 -73 22zM157 123c0 0 19 -25 60 -25c55 0 96 60 96 122
c0 44 -24 82 -64 82c-42 0 -71 -34 -79 -49z" />
    <glyph glyph-name="q" unicode="q" horiz-adv-x="470" 
d="M171 -10c-86 0 -152 80 -152 181c0 129 89 239 206 239c57 0 98 -36 112 -55l18 32c4 7 9 13 18 13h39c9 0 16 -8 14 -19l-93 -662c-1 -10 -11 -19 -20 -19h-87c-11 0 -18 6 -16 19l41 293c-18 -10 -51 -22 -80 -22zM201 98c41 0 68 25 68 25l21 123c-3 17 -23 56 -65 56
c-56 0 -92 -67 -92 -123c0 -47 26 -81 68 -81z" />
    <glyph glyph-name="r" unicode="r" horiz-adv-x="324" 
d="M22 19l51 362c1 11 10 19 19 19h39c6 0 13 -6 15 -13l9 -39c15 21 57 62 108 62c29 0 53 -9 63 -16c7 -5 8 -13 2 -24l-37 -65c-5 -9 -12 -12 -21 -8s-25 6 -34 6c-37 0 -61 -42 -61 -42l-34 -242c-2 -14 -9 -19 -23 -19h-82c-9 0 -16 9 -14 19z" />
    <glyph glyph-name="s" unicode="s" horiz-adv-x="344" 
d="M11 29c-7 6 -6 16 -1 24l33 51c4 7 16 10 23 5c12 -8 40 -19 72 -19c18 0 32 9 32 23c0 20 -10 30 -54 56c-50 28 -81 59 -81 116c0 64 38 125 151 125c55 0 98 -20 115 -33c8 -6 12 -19 5 -29l-34 -50c-5 -7 -16 -11 -26 -4c-9 5 -36 15 -67 15c-21 0 -32 -8 -32 -23
s12 -24 40 -39c60 -33 105 -63 105 -127c0 -69 -53 -130 -158 -130c-65 0 -106 25 -123 39z" />
    <glyph glyph-name="t" unicode="t" horiz-adv-x="330" 
d="M59 119l25 176h-36c-9 0 -15 9 -14 19l9 67c2 11 10 19 19 19h37l15 111c2 10 11 19 20 19l87 1c9 0 15 -9 13 -19l-15 -112h72c10 0 16 -8 14 -19l-9 -67c-2 -10 -10 -19 -20 -19h-72l-23 -158c-4 -28 10 -32 22 -32c14 0 30 8 40 12s17 -1 19 -11l10 -66
c2 -10 -4 -18 -15 -24c-8 -5 -66 -26 -111 -26c-69 0 -98 48 -87 129z" />
    <glyph glyph-name="u" unicode="u" horiz-adv-x="472" 
d="M167 -10c-109 0 -143 95 -128 197l28 194c1 11 10 19 19 19h87c9 0 16 -8 14 -19l-28 -197c-7 -53 10 -86 44 -86c49 0 76 57 76 57l31 226c3 15 11 19 22 19h82c9 0 16 -8 14 -19l-50 -362c-1 -10 -11 -19 -20 -19h-39c-8 0 -13 7 -15 15l-7 33
c-21 -23 -59 -58 -130 -58z" />
    <glyph glyph-name="v" unicode="v" horiz-adv-x="387" 
d="M136 0l-116 377c-4 13 4 23 17 23h79c9 0 13 -5 15 -11l46 -176h3l94 176c6 10 13 11 24 11h83c13 0 18 -12 10 -25l-220 -375c-3 -6 -9 -10 -17 -10h-4c-8 0 -12 5 -14 10z" />
    <glyph glyph-name="w" unicode="w" horiz-adv-x="568" 
d="M96 1l-64 378c-2 13 5 21 17 21h77c6 0 13 -5 14 -12l27 -169h1l115 182c4 6 7 9 16 9h8c7 0 11 -4 13 -9l59 -182h1l77 169c5 11 13 12 23 12h73c13 0 17 -10 11 -23l-170 -376c-3 -6 -9 -11 -18 -11h-4c-7 0 -11 4 -13 9l-81 226h-1l-147 -226c-3 -5 -9 -9 -16 -9h-4
c-8 0 -13 5 -14 11z" />
    <glyph glyph-name="x" unicode="x" horiz-adv-x="425" 
d="M-4 0c-15 0 -17 13 -7 26l145 181l-94 165c-7 13 0 28 15 28h85c7 0 13 -2 19 -14l51 -102h1l71 102c8 11 14 14 27 14h94c16 0 19 -15 9 -28l-142 -174l95 -171c6 -13 -3 -27 -17 -27h-77c-12 0 -16 7 -21 16l-55 107h-1l-83 -115c-3 -4 -9 -8 -16 -8h-99z" />
    <glyph glyph-name="y" unicode="y" horiz-adv-x="425" 
d="M114 28l-91 346c-4 13 1 26 15 26h86c5 0 12 -5 14 -11l52 -237h1l117 237c4 9 12 11 20 11h89c14 0 19 -13 11 -26l-368 -662c-4 -6 -9 -12 -17 -12h-93c-13 0 -18 10 -9 24z" />
    <glyph glyph-name="z" unicode="z" horiz-adv-x="342" 
d="M10 0c-9 0 -17 9 -15 19l2 10l155 262v2h-93c-9 0 -14 9 -13 19l9 69c1 11 10 19 19 19h241c14 0 20 -14 12 -27l-160 -264v-3h89c10 0 15 -8 14 -19l-9 -68c-1 -10 -10 -19 -20 -19h-231z" />
    <glyph glyph-name="braceleft" unicode="{" horiz-adv-x="360" 
d="M51 -36l17 123c6 45 -32 64 -53 68c-11 2 -12 10 -11 18l7 49c2 11 9 15 15 17c3 1 67 26 73 69l18 127c33 231 169 271 262 275c10 0 17 -5 16 -17l-5 -63c-1 -11 -8 -16 -15 -18c-69 -15 -118 -75 -133 -177l-15 -105c-12 -86 -89 -126 -93 -130v-4
c20 -10 67 -40 59 -105l-20 -164c-9 -75 33 -123 87 -138c6 -2 12 -8 10 -19l-13 -63c-2 -10 -12 -17 -21 -17c-92 5 -214 64 -185 274z" />
    <glyph glyph-name="bar" unicode="|" horiz-adv-x="175" 
d="M-15 -282l144 1023c1 11 10 19 19 19h14c9 0 15 -8 14 -19l-144 -1023c-1 -10 -11 -18 -20 -18h-12c-9 0 -16 8 -15 18z" />
    <glyph glyph-name="braceright" unicode="}" horiz-adv-x="361" 
d="M96 -36l15 107c11 81 68 114 93 125v4c-3 4 -67 44 -56 130l14 105c15 102 -18 161 -83 177c-6 1 -12 7 -10 18l13 63c2 12 10 17 20 17c128 -6 205 -137 187 -268l-19 -134c-7 -43 43 -65 54 -69c5 -2 10 -9 9 -17l-6 -49c-1 -7 -5 -14 -14 -16c-25 -7 -67 -17 -74 -70
l-17 -123c-32 -233 -170 -274 -263 -274c-11 0 -16 5 -15 14l4 66c1 11 7 17 15 19c68 17 119 73 133 175z" />
    <glyph glyph-name="asciitilde" unicode="~" horiz-adv-x="495" 
d="M72 194l-43 48c-6 7 -5 17 1 24c0 0 71 95 146 95c38 0 69 -22 92 -41c17 -13 35 -32 61 -32c27 0 53 33 69 52c9 10 20 10 27 2l40 -47c5 -6 5 -17 -2 -24c0 0 -68 -95 -142 -95c-44 0 -77 22 -102 43c-15 13 -30 28 -52 28c-28 0 -54 -31 -69 -51
c-8 -10 -19 -10 -26 -2z" />
    <glyph glyph-name="uni00A0" unicode="&#xa0;" horiz-adv-x="224" 
 />
    <glyph glyph-name="Agrave" unicode="&#xc0;" horiz-adv-x="602" 
d="M-21 0c-14 0 -19 13 -12 26l376 673c4 7 9 11 17 11h9c7 0 12 -5 14 -11l184 -673c4 -13 -5 -26 -19 -26h-87c-15 0 -23 5 -26 20l-25 111h-249l-58 -111c-5 -10 -16 -20 -32 -20h-92zM220 239h158l-47 218h-2zM441 769l-150 77c-7 4 -11 14 -2 27l29 43c9 14 22 12 27 8
l137 -97c5 -3 8 -11 3 -19l-20 -33c-6 -9 -13 -12 -24 -6z" />
    <glyph glyph-name="Aacute" unicode="&#xc1;" horiz-adv-x="602" 
d="M-21 0c-14 0 -19 13 -12 26l376 673c4 7 9 11 17 11h9c7 0 12 -5 14 -11l184 -673c4 -13 -5 -26 -19 -26h-87c-15 0 -23 5 -26 20l-25 111h-249l-58 -111c-5 -10 -16 -20 -32 -20h-92zM220 239h158l-47 218h-2zM313 768c-14 -6 -19 -3 -23 6l-16 39c-3 8 0 15 8 19
l164 97c9 6 19 6 24 -5l24 -52c6 -12 0 -23 -9 -27z" />
    <glyph glyph-name="Acircumflex" unicode="&#xc2;" horiz-adv-x="602" 
d="M-21 0c-14 0 -19 13 -12 26l376 673c4 7 9 11 17 11h9c7 0 12 -5 14 -11l184 -673c4 -13 -5 -26 -19 -26h-87c-15 0 -23 5 -26 20l-25 111h-249l-58 -111c-5 -10 -16 -20 -32 -20h-92zM220 239h158l-47 218h-2zM282 765c-11 -7 -15 -4 -20 3l-22 33c-7 10 -2 18 5 23
l134 101c7 5 14 6 21 0l106 -101c5 -4 8 -12 3 -19l-29 -37c-6 -8 -12 -10 -20 -3l-78 62z" />
    <glyph glyph-name="Atilde" unicode="&#xc3;" horiz-adv-x="602" 
d="M-21 0c-14 0 -19 13 -12 26l376 673c4 7 9 11 17 11h9c7 0 12 -5 14 -11l184 -673c4 -13 -5 -26 -19 -26h-87c-15 0 -23 5 -26 20l-25 111h-249l-58 -111c-5 -10 -16 -20 -32 -20h-92zM220 239h158l-47 218h-2zM271 789l-27 21c-8 8 -6 16 -2 23c10 20 45 84 102 84
c45 0 62 -55 94 -55c16 0 25 17 32 31c6 12 19 18 30 10l23 -18c11 -8 9 -19 2 -33c-9 -19 -43 -76 -96 -76c-47 0 -70 56 -96 56c-19 0 -30 -24 -38 -39c-4 -8 -16 -11 -24 -4z" />
    <glyph glyph-name="Adieresis" unicode="&#xc4;" horiz-adv-x="602" 
d="M-21 0c-14 0 -19 13 -12 26l376 673c4 7 9 11 17 11h9c7 0 12 -5 14 -11l184 -673c4 -13 -5 -26 -19 -26h-87c-15 0 -23 5 -26 20l-25 111h-249l-58 -111c-5 -10 -16 -20 -32 -20h-92zM220 239h158l-47 218h-2zM486 775c-32 0 -53 29 -48 64c4 35 33 63 65 63
c31 0 53 -28 49 -63c-5 -35 -35 -64 -66 -64zM263 775c-31 0 -52 29 -47 64c4 35 33 63 64 63c32 0 54 -28 50 -63c-5 -35 -35 -64 -67 -64z" />
    <glyph glyph-name="Amacron" unicode="&#x100;" horiz-adv-x="602" 
d="M-21 0c-14 0 -19 13 -12 26l376 673c4 7 9 11 17 11h9c7 0 12 -5 14 -11l184 -673c4 -13 -5 -26 -19 -26h-87c-15 0 -23 5 -26 20l-25 111h-249l-58 -111c-5 -10 -16 -20 -32 -20h-92zM220 239h158l-47 218h-2zM265 808c-10 0 -16 8 -15 18l5 34c2 11 10 19 20 19h231
c10 0 16 -8 14 -19l-5 -34c-1 -10 -10 -18 -20 -18h-230z" />
    <glyph glyph-name="Abreve" unicode="&#x102;" horiz-adv-x="602" 
d="M-21 0c-14 0 -19 13 -12 26l376 673c4 7 9 11 17 11h9c7 0 12 -5 14 -11l184 -673c4 -13 -5 -26 -19 -26h-87c-15 0 -23 5 -26 20l-25 111h-249l-58 -111c-5 -10 -16 -20 -32 -20h-92zM220 239h158l-47 218h-2zM377 766c-61 0 -110 51 -110 118c0 11 8 21 20 21h37
c8 0 10 -7 11 -14c5 -30 21 -53 50 -53c28 0 53 25 64 53c4 9 11 14 17 14h41c11 0 16 -10 14 -21c-19 -67 -73 -118 -144 -118z" />
    <glyph glyph-name="Aring" unicode="&#xc5;" horiz-adv-x="602" 
d="M-21 0c-14 0 -19 13 -12 26l376 673c4 7 9 11 17 11h9c7 0 12 -5 14 -11l184 -673c4 -13 -5 -26 -19 -26h-87c-15 0 -23 5 -26 20l-25 111h-249l-58 -111c-5 -10 -16 -20 -32 -20h-92zM220 239h158l-47 218h-2zM373 754c-52 0 -89 44 -89 98c0 71 53 128 120 128
c51 0 88 -44 88 -98c0 -71 -54 -128 -119 -128zM381 817c24 0 48 27 48 56c0 23 -14 42 -34 42c-24 0 -48 -25 -48 -54c0 -23 15 -44 34 -44z" />
    <glyph glyph-name="Aringacute" unicode="&#x1fa;" horiz-adv-x="602" 
d="M304 892l-16 39c-3 8 0 15 8 19l164 97c9 6 19 6 24 -5l24 -52c6 -12 0 -23 -9 -27l-172 -77c-14 -6 -19 -3 -23 6zM-21 0c-14 0 -19 13 -12 26l354 635c-31 15 -50 49 -50 89c0 71 53 128 120 128c51 0 88 -44 88 -98c0 -58 -36 -107 -85 -123l173 -631
c4 -13 -5 -26 -19 -26h-87c-15 0 -23 5 -26 20l-25 111h-249l-58 -111c-5 -10 -16 -20 -32 -20h-92zM368 715c24 0 48 27 48 56c0 23 -14 42 -34 42c-24 0 -48 -25 -48 -54c0 -23 15 -44 34 -44zM220 239h158l-47 218h-2z" />
    <glyph glyph-name="Aogonek" unicode="&#x104;" horiz-adv-x="602" 
d="M-21 0c-14 0 -19 13 -12 26l376 673c4 7 9 11 17 11h9c7 0 12 -5 14 -11l184 -673c4 -13 -5 -26 -19 -26h-56c-21 -19 -55 -58 -55 -106c0 -30 16 -54 53 -54c16 0 29 6 40 9s19 -5 17 -17l-4 -30c-1 -10 -9 -16 -16 -19c-5 -3 -34 -10 -60 -10c-54 0 -105 31 -105 93
c0 76 57 127 77 142l-29 123h-249l-58 -111c-5 -10 -16 -20 -32 -20h-92zM220 239h158l-47 218h-2z" />
    <glyph glyph-name="AE" unicode="&#xc6;" horiz-adv-x="821" 
d="M-35 0c-14 0 -16 13 -7 26l451 643c15 20 21 31 44 31h359c9 0 15 -9 14 -19l-12 -82c-1 -10 -9 -19 -19 -19h-258l-23 -164h213c9 0 16 -9 15 -19l-12 -83c-2 -11 -11 -19 -20 -19h-213l-25 -175h258c10 0 15 -9 14 -19l-11 -82c-1 -10 -10 -19 -20 -19h-370
c-10 0 -16 9 -15 19l16 109h-175l-74 -113c-7 -10 -15 -15 -27 -15h-103zM249 239h110l31 222z" />
    <glyph glyph-name="AEacute" unicode="&#x1fc;" horiz-adv-x="821" 
d="M-35 0c-14 0 -16 13 -7 26l451 643c15 20 21 31 44 31h359c9 0 15 -9 14 -19l-12 -82c-1 -10 -9 -19 -19 -19h-258l-23 -164h213c9 0 16 -9 15 -19l-12 -83c-2 -11 -11 -19 -20 -19h-213l-25 -175h258c10 0 15 -9 14 -19l-11 -82c-1 -10 -10 -19 -20 -19h-370
c-10 0 -16 9 -15 19l16 109h-175l-74 -113c-7 -10 -15 -15 -27 -15h-103zM249 239h110l31 222zM596 769c-14 -6 -19 -3 -23 6l-16 39c-3 8 0 15 8 19l164 97c9 6 19 6 24 -5l24 -52c6 -12 0 -23 -9 -27z" />
    <glyph glyph-name="Cacute" unicode="&#x106;" horiz-adv-x="626" 
d="M51 301c0 235 166 409 373 409c90 0 161 -40 208 -95c6 -8 5 -20 -4 -28l-54 -52c-11 -10 -24 -9 -33 0c-26 25 -69 50 -124 50c-120 0 -224 -124 -224 -267c0 -106 57 -197 153 -197c58 0 103 29 137 59c13 11 24 9 32 -1l52 -65c5 -7 2 -20 -5 -27
c-70 -67 -146 -97 -226 -97c-173 0 -285 139 -285 311zM371 768c-14 -6 -19 -3 -23 6l-16 39c-3 8 0 15 8 19l164 97c9 6 19 6 24 -5l24 -52c6 -12 0 -23 -9 -27z" />
    <glyph glyph-name="Ccircumflex" unicode="&#x108;" horiz-adv-x="626" 
d="M51 301c0 235 166 409 373 409c90 0 161 -40 208 -95c6 -8 5 -20 -4 -28l-54 -52c-11 -10 -24 -9 -33 0c-26 25 -69 50 -124 50c-120 0 -224 -124 -224 -267c0 -106 57 -197 153 -197c58 0 103 29 137 59c13 11 24 9 32 -1l52 -65c5 -7 2 -20 -5 -27
c-70 -67 -146 -97 -226 -97c-173 0 -285 139 -285 311zM343 765c-11 -7 -15 -4 -20 3l-22 33c-7 10 -2 18 5 23l134 101c7 5 14 6 21 0l106 -101c5 -4 8 -12 3 -19l-29 -37c-6 -8 -12 -10 -20 -3l-78 62z" />
    <glyph glyph-name="Ccaron" unicode="&#x10c;" horiz-adv-x="626" 
d="M51 301c0 235 166 409 373 409c90 0 161 -40 208 -95c6 -8 5 -20 -4 -28l-54 -52c-11 -10 -24 -9 -33 0c-26 25 -69 50 -124 50c-120 0 -224 -124 -224 -267c0 -106 57 -197 153 -197c58 0 103 29 137 59c13 11 24 9 32 -1l52 -65c5 -7 2 -20 -5 -27
c-70 -67 -146 -97 -226 -97c-173 0 -285 139 -285 311zM426 764l-106 101c-5 4 -8 12 -3 19l29 37c6 8 12 10 20 3l78 -62l100 62c11 7 15 4 20 -3l22 -33c7 -10 2 -18 -5 -23l-134 -101c-7 -5 -14 -6 -21 0z" />
    <glyph glyph-name="Cdotaccent" unicode="&#x10a;" horiz-adv-x="626" 
d="M51 301c0 235 166 409 373 409c90 0 161 -40 208 -95c6 -8 5 -20 -4 -28l-54 -52c-11 -10 -24 -9 -33 0c-26 25 -69 50 -124 50c-120 0 -224 -124 -224 -267c0 -106 57 -197 153 -197c58 0 103 29 137 59c13 11 24 9 32 -1l52 -65c5 -7 2 -20 -5 -27
c-70 -67 -146 -97 -226 -97c-173 0 -285 139 -285 311zM434 781c-35 0 -59 28 -59 63c0 45 38 81 79 81c35 0 60 -28 60 -63c0 -45 -39 -81 -80 -81z" />
    <glyph glyph-name="Ccedilla" unicode="&#xc7;" horiz-adv-x="628" 
d="M278 -4c-139 27 -226 153 -226 305c0 235 166 409 373 409c90 0 161 -40 208 -95c6 -8 5 -20 -4 -28l-54 -52c-11 -10 -24 -9 -33 0c-26 25 -69 50 -124 50c-120 0 -224 -124 -224 -267c0 -106 57 -197 153 -197c58 0 103 29 137 59c13 11 24 9 32 -1l52 -65
c5 -7 2 -20 -5 -27c-69 -66 -144 -96 -223 -97l-6 -44c43 -6 72 -39 72 -90c0 -62 -42 -116 -106 -116c-30 0 -57 15 -69 35c-6 9 -3 20 7 28l18 17c6 6 14 5 19 -1s13 -12 26 -12c18 0 35 18 35 44c0 20 -12 38 -57 42c-13 2 -14 13 -13 18z" />
    <glyph glyph-name="Dcaron" unicode="&#x10e;" horiz-adv-x="683" 
d="M53 19l93 662c1 10 10 19 19 19h216c158 0 271 -142 271 -304c0 -217 -159 -396 -369 -396h-217c-9 0 -15 9 -13 19zM197 122h93c122 0 223 115 223 265c0 109 -62 192 -158 192h-94zM351 764l-106 101c-5 4 -8 12 -3 19l29 37c6 8 12 10 20 3l78 -62l100 62
c11 7 15 4 20 -3l22 -33c7 -10 2 -18 -5 -23l-134 -101c-7 -5 -14 -6 -21 0z" />
    <glyph glyph-name="Dcroat" unicode="&#x110;" horiz-adv-x="688" 
d="M58 19l42 302h-26c-9 0 -15 9 -14 19l1 13c1 10 11 19 20 19h26l44 309c1 10 10 19 19 19h216c158 0 271 -145 271 -304c0 -217 -163 -396 -369 -396h-217c-9 0 -15 9 -13 19zM202 122h93c122 0 223 115 223 265c0 109 -62 192 -158 192h-94l-29 -207h137
c10 0 15 -9 14 -19l-2 -14c-1 -10 -9 -18 -19 -18h-137z" />
    <glyph glyph-name="Eth" unicode="&#xd0;" horiz-adv-x="688" 
d="M58 19l42 302h-26c-9 0 -15 9 -14 19l1 13c1 10 11 19 20 19h26l44 309c1 10 10 19 19 19h216c158 0 271 -145 271 -304c0 -217 -163 -396 -369 -396h-217c-9 0 -15 9 -13 19zM202 122h93c122 0 223 115 223 265c0 109 -62 192 -158 192h-94l-29 -207h137
c10 0 15 -9 14 -19l-2 -14c-1 -10 -9 -18 -19 -18h-137z" />
    <glyph glyph-name="Egrave" unicode="&#xc8;" horiz-adv-x="545" 
d="M53 19l93 662c1 10 10 19 19 19h370c10 0 16 -9 15 -19l-12 -82c-1 -10 -10 -19 -20 -19h-256l-23 -164h212c9 0 16 -9 15 -19l-12 -83c-2 -11 -11 -19 -20 -19h-212l-25 -175h257c10 0 15 -9 14 -19l-11 -82c-1 -10 -10 -19 -20 -19h-370c-10 0 -16 9 -14 19zM427 769
l-150 77c-7 4 -11 14 -2 27l29 43c9 14 22 12 27 8l137 -97c5 -3 8 -11 3 -19l-20 -33c-6 -9 -13 -12 -24 -6z" />
    <glyph glyph-name="Eacute" unicode="&#xc9;" horiz-adv-x="545" 
d="M53 19l93 662c1 10 10 19 19 19h370c10 0 16 -9 15 -19l-12 -82c-1 -10 -10 -19 -20 -19h-256l-23 -164h212c9 0 16 -9 15 -19l-12 -83c-2 -11 -11 -19 -20 -19h-212l-25 -175h257c10 0 15 -9 14 -19l-11 -82c-1 -10 -10 -19 -20 -19h-370c-10 0 -16 9 -14 19zM300 768
c-14 -6 -19 -3 -23 6l-16 39c-3 8 0 15 8 19l164 97c9 6 19 6 24 -5l24 -52c6 -12 0 -23 -9 -27z" />
    <glyph glyph-name="Ecircumflex" unicode="&#xca;" horiz-adv-x="545" 
d="M53 19l93 662c1 10 10 19 19 19h370c10 0 16 -9 15 -19l-12 -82c-1 -10 -10 -19 -20 -19h-256l-23 -164h212c9 0 16 -9 15 -19l-12 -83c-2 -11 -11 -19 -20 -19h-212l-25 -175h257c10 0 15 -9 14 -19l-11 -82c-1 -10 -10 -19 -20 -19h-370c-10 0 -16 9 -14 19zM270 765
c-11 -7 -15 -4 -20 3l-22 33c-7 10 -2 18 5 23l134 101c7 5 14 6 21 0l106 -101c5 -4 8 -12 3 -19l-29 -37c-6 -8 -12 -10 -20 -3l-78 62z" />
    <glyph glyph-name="Ecaron" unicode="&#x11a;" horiz-adv-x="545" 
d="M53 19l93 662c1 10 10 19 19 19h370c10 0 16 -9 15 -19l-12 -82c-1 -10 -10 -19 -20 -19h-256l-23 -164h212c9 0 16 -9 15 -19l-12 -83c-2 -11 -11 -19 -20 -19h-212l-25 -175h257c10 0 15 -9 14 -19l-11 -82c-1 -10 -10 -19 -20 -19h-370c-10 0 -16 9 -14 19zM354 764
l-106 101c-5 4 -8 12 -3 19l29 37c6 8 12 10 20 3l78 -62l100 62c11 7 15 4 20 -3l22 -33c7 -10 2 -18 -5 -23l-134 -101c-7 -5 -14 -6 -21 0z" />
    <glyph glyph-name="Edieresis" unicode="&#xcb;" horiz-adv-x="545" 
d="M53 19l93 662c1 10 10 19 19 19h370c10 0 16 -9 15 -19l-12 -82c-1 -10 -10 -19 -20 -19h-256l-23 -164h212c9 0 16 -9 15 -19l-12 -83c-2 -11 -11 -19 -20 -19h-212l-25 -175h257c10 0 15 -9 14 -19l-11 -82c-1 -10 -10 -19 -20 -19h-370c-10 0 -16 9 -14 19zM473 775
c-32 0 -53 29 -48 64c4 35 33 63 65 63c31 0 53 -28 49 -63c-5 -35 -35 -64 -66 -64zM250 775c-31 0 -52 29 -47 64c4 35 33 63 64 63c32 0 54 -28 50 -63c-5 -35 -35 -64 -67 -64z" />
    <glyph glyph-name="Emacron" unicode="&#x112;" horiz-adv-x="545" 
d="M53 19l93 662c1 10 10 19 19 19h370c10 0 16 -9 15 -19l-12 -82c-1 -10 -10 -19 -20 -19h-256l-23 -164h212c9 0 16 -9 15 -19l-12 -83c-2 -11 -11 -19 -20 -19h-212l-25 -175h257c10 0 15 -9 14 -19l-11 -82c-1 -10 -10 -19 -20 -19h-370c-10 0 -16 9 -14 19zM252 808
c-10 0 -16 8 -15 18l5 34c2 11 10 19 20 19h231c10 0 16 -8 14 -19l-5 -34c-1 -10 -10 -18 -20 -18h-230z" />
    <glyph glyph-name="Ebreve" unicode="&#x114;" horiz-adv-x="545" 
d="M53 19l93 662c1 10 10 19 19 19h370c10 0 16 -9 15 -19l-12 -82c-1 -10 -10 -19 -20 -19h-256l-23 -164h212c9 0 16 -9 15 -19l-12 -83c-2 -11 -11 -19 -20 -19h-212l-25 -175h257c10 0 15 -9 14 -19l-11 -82c-1 -10 -10 -19 -20 -19h-370c-10 0 -16 9 -14 19zM367 766
c-61 0 -110 51 -110 118c0 11 8 21 20 21h37c8 0 10 -7 11 -14c5 -30 21 -53 50 -53c28 0 53 25 64 53c4 9 11 14 17 14h41c11 0 16 -10 14 -21c-19 -67 -73 -118 -144 -118z" />
    <glyph glyph-name="Edotaccent" unicode="&#x116;" horiz-adv-x="545" 
d="M53 19l93 662c1 10 10 19 19 19h370c10 0 16 -9 15 -19l-12 -82c-1 -10 -10 -19 -20 -19h-256l-23 -164h212c9 0 16 -9 15 -19l-12 -83c-2 -11 -11 -19 -20 -19h-212l-25 -175h257c10 0 15 -9 14 -19l-11 -82c-1 -10 -10 -19 -20 -19h-370c-10 0 -16 9 -14 19zM363 781
c-35 0 -59 28 -59 63c0 45 38 81 79 81c35 0 60 -28 60 -63c0 -45 -39 -81 -80 -81z" />
    <glyph glyph-name="Eogonek" unicode="&#x118;" horiz-adv-x="545" 
d="M53 19l93 662c1 10 10 19 19 19h370c10 0 16 -9 15 -19l-12 -82c-1 -10 -10 -19 -20 -19h-256l-23 -164h212c9 0 16 -9 15 -19l-12 -83c-2 -11 -11 -19 -20 -19h-212l-25 -175h257c10 0 15 -9 14 -19l-10 -73c-1 -14 -11 -21 -19 -28c-21 -19 -55 -58 -55 -106
c0 -30 16 -54 53 -54c16 0 29 6 40 9s19 -5 17 -17l-4 -30c-1 -10 -9 -16 -16 -19c-5 -3 -34 -10 -60 -10c-54 0 -105 31 -105 93c0 65 42 112 67 134h-309c-10 0 -16 9 -14 19z" />
    <glyph glyph-name="Gcircumflex" unicode="&#x11c;" horiz-adv-x="653" 
d="M51 301c0 235 164 409 373 409c90 0 157 -35 208 -95c6 -8 5 -20 -4 -28l-53 -52c-12 -9 -24 -9 -33 0c-26 25 -63 50 -125 50c-120 0 -224 -124 -224 -267c0 -106 67 -198 155 -198c47 0 83 12 102 24l12 88h-64c-10 0 -16 8 -15 18l11 78c2 11 10 19 20 19h177
c9 0 15 -9 14 -19l-33 -240c-2 -16 -9 -25 -16 -31c-10 -8 -89 -67 -224 -67c-163 0 -281 139 -281 311zM342 765c-11 -7 -15 -4 -20 3l-22 33c-7 10 -2 18 5 23l134 101c7 5 14 6 21 0l106 -101c5 -4 8 -12 3 -19l-29 -37c-6 -8 -12 -10 -20 -3l-78 62z" />
    <glyph glyph-name="Gbreve" unicode="&#x11e;" horiz-adv-x="653" 
d="M51 301c0 235 164 409 373 409c90 0 157 -35 208 -95c6 -8 5 -20 -4 -28l-53 -52c-12 -9 -24 -9 -33 0c-26 25 -63 50 -125 50c-120 0 -224 -124 -224 -267c0 -106 67 -198 155 -198c47 0 83 12 102 24l12 88h-64c-10 0 -16 8 -15 18l11 78c2 11 10 19 20 19h177
c9 0 15 -9 14 -19l-33 -240c-2 -16 -9 -25 -16 -31c-10 -8 -89 -67 -224 -67c-163 0 -281 139 -281 311zM443 766c-61 0 -110 51 -110 118c0 11 8 21 20 21h37c8 0 10 -7 11 -14c5 -30 21 -53 50 -53c28 0 53 25 64 53c4 9 11 14 17 14h41c11 0 16 -10 14 -21
c-19 -67 -73 -118 -144 -118z" />
    <glyph glyph-name="Gdotaccent" unicode="&#x120;" horiz-adv-x="653" 
d="M51 301c0 235 164 409 373 409c90 0 157 -35 208 -95c6 -8 5 -20 -4 -28l-53 -52c-12 -9 -24 -9 -33 0c-26 25 -63 50 -125 50c-120 0 -224 -124 -224 -267c0 -106 67 -198 155 -198c47 0 83 12 102 24l12 88h-64c-10 0 -16 8 -15 18l11 78c2 11 10 19 20 19h177
c9 0 15 -9 14 -19l-33 -240c-2 -16 -9 -25 -16 -31c-10 -8 -89 -67 -224 -67c-163 0 -281 139 -281 311zM435 781c-35 0 -59 28 -59 63c0 45 38 81 79 81c35 0 60 -28 60 -63c0 -45 -39 -81 -80 -81z" />
    <glyph glyph-name="Gcommaaccent" unicode="&#x122;" horiz-adv-x="653" 
d="M51 301c0 235 164 409 373 409c90 0 157 -35 208 -95c6 -8 5 -20 -4 -28l-53 -52c-12 -9 -24 -9 -33 0c-26 25 -63 50 -125 50c-120 0 -224 -124 -224 -267c0 -106 67 -198 155 -198c47 0 83 12 102 24l12 88h-64c-10 0 -16 8 -15 18l11 78c2 11 10 19 20 19h177
c9 0 15 -9 14 -19l-33 -240c-2 -16 -9 -25 -16 -31c-10 -8 -89 -67 -224 -67c-163 0 -281 139 -281 311zM230 -166c0 40 35 75 78 75c29 0 65 -22 65 -86c0 -109 -78 -176 -107 -201c-7 -6 -13 -7 -20 1l-14 16c-6 6 -2 16 5 22c9 9 68 53 80 119c-1 0 -15 -5 -33 -5
c-31 0 -54 26 -54 59z" />
    <glyph glyph-name="Hcircumflex" unicode="&#x124;" horiz-adv-x="714" 
d="M53 19l93 662c1 10 11 19 20 19h96c10 0 16 -9 15 -19l-37 -265h273l37 265c1 10 10 19 20 19h96c9 0 16 -9 15 -19l-93 -662c-2 -10 -11 -19 -20 -19h-97c-10 0 -15 9 -14 19l39 276h-273l-39 -276c-2 -10 -10 -19 -20 -19h-97c-9 0 -16 9 -14 19zM332 765
c-11 -7 -15 -4 -20 3l-22 33c-7 10 -2 18 5 23l134 101c7 5 14 6 21 0l106 -101c5 -4 8 -12 3 -19l-29 -37c-6 -8 -12 -10 -20 -3l-78 62z" />
    <glyph glyph-name="Hbar" unicode="&#x126;" horiz-adv-x="714" 
d="M54 19l72 514h-24c-9 0 -15 9 -14 19l2 15c1 10 10 17 19 17h24l14 97c1 10 11 19 20 19h96c10 0 16 -9 15 -19l-14 -97h273l14 97c1 10 10 19 20 19h96c9 0 16 -9 15 -19l-14 -97h24c10 0 16 -9 15 -19l-2 -14c-1 -10 -10 -18 -20 -18h-24l-72 -514
c-2 -10 -11 -19 -20 -19h-97c-10 0 -15 9 -14 19l39 276h-273l-39 -276c-2 -10 -10 -19 -20 -19h-97c-9 0 -16 9 -14 19zM241 416h273l16 117h-273z" />
    <glyph glyph-name="Igrave" unicode="&#xcc;" horiz-adv-x="310" 
d="M53 19l93 662c1 10 10 19 19 19h98c9 0 16 -9 14 -19l-93 -662c-1 -10 -10 -19 -19 -19h-98c-9 0 -16 9 -14 19zM290 769l-150 77c-7 4 -11 14 -2 27l29 43c9 14 22 12 27 8l137 -97c5 -3 8 -11 3 -19l-20 -33c-6 -9 -13 -12 -24 -6z" />
    <glyph glyph-name="Iacute" unicode="&#xcd;" horiz-adv-x="310" 
d="M53 19l93 662c1 10 10 19 19 19h98c9 0 16 -9 14 -19l-93 -662c-1 -10 -10 -19 -19 -19h-98c-9 0 -16 9 -14 19zM162 768c-14 -6 -19 -3 -23 6l-16 39c-3 8 0 15 8 19l164 97c9 6 19 6 24 -5l24 -52c6 -12 0 -23 -9 -27z" />
    <glyph glyph-name="Ibreve" unicode="&#x12c;" horiz-adv-x="310" 
d="M53 19l93 662c1 10 10 19 19 19h98c9 0 16 -9 14 -19l-93 -662c-1 -10 -10 -19 -19 -19h-98c-9 0 -16 9 -14 19zM229 766c-61 0 -110 51 -110 118c0 11 8 21 20 21h37c8 0 10 -7 11 -14c5 -30 21 -53 50 -53c28 0 53 25 64 53c4 9 11 14 17 14h41c11 0 16 -10 14 -21
c-19 -67 -73 -118 -144 -118z" />
    <glyph glyph-name="Icircumflex" unicode="&#xce;" horiz-adv-x="310" 
d="M53 19l93 662c1 10 10 19 19 19h98c9 0 16 -9 14 -19l-93 -662c-1 -10 -10 -19 -19 -19h-98c-9 0 -16 9 -14 19zM132 765c-11 -7 -15 -4 -20 3l-22 33c-7 10 -2 18 5 23l134 101c7 5 14 6 21 0l106 -101c5 -4 8 -12 3 -19l-29 -37c-6 -8 -12 -10 -20 -3l-78 62z" />
    <glyph glyph-name="Itilde" unicode="&#x128;" horiz-adv-x="310" 
d="M53 19l93 662c1 10 10 19 19 19h98c9 0 16 -9 14 -19l-93 -662c-1 -10 -10 -19 -19 -19h-98c-9 0 -16 9 -14 19zM120 789l-27 21c-8 8 -6 16 -2 23c10 20 45 84 102 84c45 0 62 -55 94 -55c16 0 25 17 32 31c6 12 19 18 30 10l23 -18c11 -8 9 -19 2 -33
c-9 -19 -43 -76 -96 -76c-47 0 -70 56 -96 56c-19 0 -30 -24 -38 -39c-4 -8 -16 -11 -24 -4z" />
    <glyph glyph-name="Idieresis" unicode="&#xcf;" horiz-adv-x="310" 
d="M53 19l93 662c1 10 10 19 19 19h98c9 0 16 -9 14 -19l-93 -662c-1 -10 -10 -19 -19 -19h-98c-9 0 -16 9 -14 19zM335 775c-32 0 -53 29 -48 64c4 35 33 63 65 63c31 0 53 -28 49 -63c-5 -35 -35 -64 -66 -64zM112 775c-31 0 -52 29 -47 64c4 35 33 63 64 63
c32 0 54 -28 50 -63c-5 -35 -35 -64 -67 -64z" />
    <glyph glyph-name="Imacron" unicode="&#x12a;" horiz-adv-x="310" 
d="M53 19l93 662c1 10 10 19 19 19h98c9 0 16 -9 14 -19l-93 -662c-1 -10 -10 -19 -19 -19h-98c-9 0 -16 9 -14 19zM114 808c-10 0 -16 8 -15 18l5 34c2 11 10 19 20 19h231c10 0 16 -8 14 -19l-5 -34c-1 -10 -10 -18 -20 -18h-230z" />
    <glyph glyph-name="Idotaccent" unicode="&#x130;" horiz-adv-x="310" 
d="M53 19l93 662c1 10 10 19 19 19h98c9 0 16 -9 14 -19l-93 -662c-1 -10 -10 -19 -19 -19h-98c-9 0 -16 9 -14 19zM224 781c-35 0 -59 28 -59 63c0 45 38 81 79 81c35 0 60 -28 60 -63c0 -45 -39 -81 -80 -81z" />
    <glyph glyph-name="Iogonek" unicode="&#x12e;" horiz-adv-x="310" 
d="M53 19l93 662c1 10 10 19 19 19h98c9 0 16 -9 14 -19l-93 -662c-1 -10 -10 -19 -19 -19h-22c-21 -19 -55 -58 -55 -106c0 -30 16 -54 53 -54c16 0 29 6 40 9s19 -5 17 -17l-4 -30c-1 -10 -9 -16 -16 -19c-5 -3 -34 -10 -60 -10c-54 0 -105 31 -105 93c0 65 42 112 67 134
h-13c-9 0 -16 9 -14 19z" />
    <glyph glyph-name="Jcircumflex" unicode="&#x134;" horiz-adv-x="403" 
d="M-35 63c-5 8 -1 18 6 25l46 45c10 10 17 7 25 -1c11 -10 34 -24 59 -24c34 0 71 32 80 101l67 472c1 10 10 19 19 19h99c10 0 16 -9 15 -19l-67 -472c-19 -139 -81 -219 -210 -219c-79 0 -125 50 -139 73zM233 765c-11 -7 -15 -4 -20 3l-22 33c-7 10 -2 18 5 23l134 101
c7 5 14 6 21 0l106 -101c5 -4 8 -12 3 -19l-29 -37c-6 -8 -12 -10 -20 -3l-78 62z" />
    <glyph glyph-name="Kcommaaccent" unicode="&#x136;" horiz-adv-x="613" 
d="M53 24l92 652c2 13 12 24 25 24h94c12 0 20 -11 18 -24l-38 -270l235 276c11 13 20 18 41 18h99c17 0 23 -18 10 -33l-273 -306l202 -330c7 -13 -3 -31 -20 -31h-91c-19 0 -27 4 -36 20l-178 309l-43 -305c-1 -13 -13 -24 -24 -24h-94c-13 0 -20 11 -19 24zM197 -166
c0 40 35 75 78 75c29 0 65 -22 65 -86c0 -109 -78 -176 -107 -201c-7 -6 -13 -7 -20 1l-14 16c-6 6 -2 16 5 22c9 9 68 53 80 119c-1 0 -15 -5 -33 -5c-31 0 -54 26 -54 59z" />
    <glyph glyph-name="Lacute" unicode="&#x139;" horiz-adv-x="465" 
d="M53 19l93 662c1 10 10 19 20 19h97c9 0 15 -9 14 -19l-79 -561h221c10 0 15 -9 14 -19l-11 -82c-1 -10 -10 -19 -20 -19h-334c-10 0 -16 9 -15 19zM160 768c-14 -6 -19 -3 -23 6l-16 39c-3 8 0 15 8 19l164 97c9 6 19 6 24 -5l24 -52c6 -12 0 -23 -9 -27z" />
    <glyph glyph-name="Lcaron" unicode="&#x13d;" horiz-adv-x="465" 
d="M53 19l93 662c1 10 10 19 20 19h97c9 0 15 -9 14 -19l-79 -561h221c10 0 15 -9 14 -19l-11 -82c-1 -10 -10 -19 -20 -19h-334c-10 0 -16 9 -15 19zM337 634c0 40 35 75 78 75c29 0 65 -22 65 -86c0 -109 -78 -176 -107 -201c-7 -6 -13 -7 -20 1l-14 16c-6 6 -2 16 5 22
c9 9 68 53 80 119c-1 0 -15 -5 -33 -5c-31 0 -54 26 -54 59z" />
    <glyph glyph-name="Lcommaaccent" unicode="&#x13b;" horiz-adv-x="465" 
d="M53 19l93 662c1 10 10 19 20 19h97c9 0 15 -9 14 -19l-79 -561h221c10 0 15 -9 14 -19l-11 -82c-1 -10 -10 -19 -20 -19h-334c-10 0 -16 9 -15 19zM151 -166c0 40 35 75 78 75c29 0 65 -22 65 -86c0 -109 -78 -176 -107 -201c-7 -6 -13 -7 -20 1l-14 16c-6 6 -2 16 5 22
c9 9 68 53 80 119c-1 0 -15 -5 -33 -5c-31 0 -54 26 -54 59z" />
    <glyph glyph-name="Lslash" unicode="&#x141;" horiz-adv-x="474" 
d="M62 19l41 287l-23 -12c-8 -4 -18 -2 -22 7l-5 12c-3 8 0 20 9 25l49 27l44 316c2 10 10 19 20 19h97c9 0 15 -9 14 -19l-34 -240l80 51c9 6 18 1 22 -7l6 -13c4 -8 -1 -19 -10 -25l-106 -66l-37 -261h221c10 0 16 -9 14 -19l-11 -82c-1 -10 -10 -19 -20 -19h-334
c-10 0 -16 9 -15 19z" />
    <glyph glyph-name="Ldot" unicode="&#x13f;" horiz-adv-x="528" 
d="M53 19l93 662c1 10 10 19 20 19h97c9 0 15 -9 14 -19l-79 -561h221c10 0 15 -9 14 -19l-11 -82c-1 -10 -10 -19 -20 -19h-334c-10 0 -16 9 -15 19zM435 284c-35 0 -59 28 -59 63c0 45 38 81 79 81c35 0 60 -28 60 -63c0 -45 -39 -81 -80 -81z" />
    <glyph glyph-name="Nacute" unicode="&#x143;" horiz-adv-x="715" 
d="M53 17l94 675c1 10 10 18 19 18h26l305 -432h1l54 403c1 10 9 19 19 19h97c9 0 16 -9 15 -19l-95 -673c-1 -10 -10 -18 -19 -18h-27l-304 445h-1l-54 -416c-1 -10 -10 -19 -20 -19h-96c-8 0 -15 8 -14 17zM360 768c-14 -6 -19 -3 -23 6l-16 39c-3 8 0 15 8 19l164 97
c9 6 19 6 24 -5l24 -52c6 -12 0 -23 -9 -27z" />
    <glyph glyph-name="Ncaron" unicode="&#x147;" horiz-adv-x="715" 
d="M53 17l94 675c1 10 10 18 19 18h26l305 -432h1l54 403c1 10 9 19 19 19h97c9 0 16 -9 15 -19l-95 -673c-1 -10 -10 -18 -19 -18h-27l-304 445h-1l-54 -416c-1 -10 -10 -19 -20 -19h-96c-8 0 -15 8 -14 17zM410 764l-106 101c-5 4 -8 12 -3 19l29 37c6 8 12 10 20 3
l78 -62l100 62c11 7 15 4 20 -3l22 -33c7 -10 2 -18 -5 -23l-134 -101c-7 -5 -14 -6 -21 0z" />
    <glyph glyph-name="Ntilde" unicode="&#xd1;" horiz-adv-x="715" 
d="M53 17l94 675c1 10 10 18 19 18h26l305 -432h1l54 403c1 10 9 19 19 19h97c9 0 16 -9 15 -19l-95 -673c-1 -10 -10 -18 -19 -18h-27l-304 445h-1l-54 -416c-1 -10 -10 -19 -20 -19h-96c-8 0 -15 8 -14 17zM317 789l-27 21c-8 8 -6 16 -2 23c10 20 45 84 102 84
c45 0 62 -55 94 -55c16 0 25 17 32 31c6 12 19 18 30 10l23 -18c11 -8 9 -19 2 -33c-9 -19 -43 -76 -96 -76c-47 0 -70 56 -96 56c-19 0 -30 -24 -38 -39c-4 -8 -16 -11 -24 -4z" />
    <glyph glyph-name="Ncommaaccent" unicode="&#x145;" horiz-adv-x="715" 
d="M53 17l94 675c1 10 10 18 19 18h26l305 -432h1l54 403c1 10 9 19 19 19h97c9 0 16 -9 15 -19l-95 -673c-1 -10 -10 -18 -19 -18h-27l-304 445h-1l-54 -416c-1 -10 -10 -19 -20 -19h-96c-8 0 -15 8 -14 17zM243 -166c0 40 35 75 78 75c29 0 65 -22 65 -86
c0 -109 -78 -176 -107 -201c-7 -6 -13 -7 -20 1l-14 16c-6 6 -2 16 5 22c9 9 68 53 80 119c-1 0 -15 -5 -33 -5c-31 0 -54 26 -54 59z" />
    <glyph glyph-name="Ograve" unicode="&#xd2;" horiz-adv-x="735" 
d="M50 300c0 226 161 410 374 410c162 0 281 -143 281 -313c0 -225 -163 -407 -374 -407c-163 0 -281 144 -281 310zM345 120c116 0 225 118 225 261c0 108 -66 199 -161 199c-115 0 -224 -121 -224 -263c0 -108 66 -197 160 -197zM494 769l-150 77c-7 4 -11 14 -2 27l29 43
c9 14 22 12 27 8l137 -97c5 -3 8 -11 3 -19l-20 -33c-6 -9 -13 -12 -24 -6z" />
    <glyph glyph-name="Oacute" unicode="&#xd3;" horiz-adv-x="735" 
d="M50 300c0 226 161 410 374 410c162 0 281 -143 281 -313c0 -225 -163 -407 -374 -407c-163 0 -281 144 -281 310zM345 120c116 0 225 118 225 261c0 108 -66 199 -161 199c-115 0 -224 -121 -224 -263c0 -108 66 -197 160 -197zM366 768c-14 -6 -19 -3 -23 6l-16 39
c-3 8 0 15 8 19l164 97c9 6 19 6 24 -5l24 -52c6 -12 0 -23 -9 -27z" />
    <glyph glyph-name="Ocircumflex" unicode="&#xd4;" horiz-adv-x="735" 
d="M50 300c0 226 161 410 374 410c162 0 281 -143 281 -313c0 -225 -163 -407 -374 -407c-163 0 -281 144 -281 310zM345 120c116 0 225 118 225 261c0 108 -66 199 -161 199c-115 0 -224 -121 -224 -263c0 -108 66 -197 160 -197zM335 765c-11 -7 -15 -4 -20 3l-22 33
c-7 10 -2 18 5 23l134 101c7 5 14 6 21 0l106 -101c5 -4 8 -12 3 -19l-29 -37c-6 -8 -12 -10 -20 -3l-78 62z" />
    <glyph glyph-name="Otilde" unicode="&#xd5;" horiz-adv-x="735" 
d="M50 300c0 226 161 410 374 410c162 0 281 -143 281 -313c0 -225 -163 -407 -374 -407c-163 0 -281 144 -281 310zM345 120c116 0 225 118 225 261c0 108 -66 199 -161 199c-115 0 -224 -121 -224 -263c0 -108 66 -197 160 -197zM324 789l-27 21c-8 8 -6 16 -2 23
c10 20 45 84 102 84c45 0 62 -55 94 -55c16 0 25 17 32 31c6 12 19 18 30 10l23 -18c11 -8 9 -19 2 -33c-9 -19 -43 -76 -96 -76c-47 0 -70 56 -96 56c-19 0 -30 -24 -38 -39c-4 -8 -16 -11 -24 -4z" />
    <glyph glyph-name="Odieresis" unicode="&#xd6;" horiz-adv-x="735" 
d="M50 300c0 226 161 410 374 410c162 0 281 -143 281 -313c0 -225 -163 -407 -374 -407c-163 0 -281 144 -281 310zM345 120c116 0 225 118 225 261c0 108 -66 199 -161 199c-115 0 -224 -121 -224 -263c0 -108 66 -197 160 -197zM540 775c-32 0 -53 29 -48 64
c4 35 33 63 65 63c31 0 53 -28 49 -63c-5 -35 -35 -64 -66 -64zM317 775c-31 0 -52 29 -47 64c4 35 33 63 64 63c32 0 54 -28 50 -63c-5 -35 -35 -64 -67 -64z" />
    <glyph glyph-name="Omacron" unicode="&#x14c;" horiz-adv-x="735" 
d="M50 300c0 226 161 410 374 410c162 0 281 -143 281 -313c0 -225 -163 -407 -374 -407c-163 0 -281 144 -281 310zM345 120c116 0 225 118 225 261c0 108 -66 199 -161 199c-115 0 -224 -121 -224 -263c0 -108 66 -197 160 -197zM318 808c-10 0 -16 8 -15 18l5 34
c2 11 10 19 20 19h231c10 0 16 -8 14 -19l-5 -34c-1 -10 -10 -18 -20 -18h-230z" />
    <glyph glyph-name="Obreve" unicode="&#x14e;" horiz-adv-x="735" 
d="M50 300c0 226 161 410 374 410c162 0 281 -143 281 -313c0 -225 -163 -407 -374 -407c-163 0 -281 144 -281 310zM345 120c116 0 225 118 225 261c0 108 -66 199 -161 199c-115 0 -224 -121 -224 -263c0 -108 66 -197 160 -197zM428 766c-61 0 -110 51 -110 118
c0 11 8 21 20 21h37c8 0 10 -7 11 -14c5 -30 21 -53 50 -53c28 0 53 25 64 53c4 9 11 14 17 14h41c11 0 16 -10 14 -21c-19 -67 -73 -118 -144 -118z" />
    <glyph glyph-name="Ohungarumlaut" unicode="&#x150;" horiz-adv-x="735" 
d="M50 300c0 226 161 410 374 410c162 0 281 -143 281 -313c0 -225 -163 -407 -374 -407c-163 0 -281 144 -281 310zM345 120c116 0 225 118 225 261c0 108 -66 199 -161 199c-115 0 -224 -121 -224 -263c0 -108 66 -197 160 -197zM485 768c-9 0 -18 9 -14 19l49 141
c4 11 11 19 23 19h75c17 0 21 -12 12 -25l-89 -139c-5 -8 -11 -15 -22 -15h-34zM336 768c-9 0 -18 9 -14 19l49 141c4 11 11 19 23 19h75c17 0 21 -12 12 -25l-89 -139c-5 -8 -11 -15 -22 -15h-34z" />
    <glyph glyph-name="Oslash" unicode="&#xd8;" horiz-adv-x="735" 
d="M26 23c-6 6 -6 17 3 26l73 70c-33 51 -52 114 -52 181c0 226 161 410 374 410c80 0 151 -36 201 -92l74 71c7 7 17 6 23 0l9 -10c6 -7 4 -18 -4 -26l-75 -72c33 -52 53 -116 53 -184c0 -225 -163 -407 -374 -407c-81 0 -151 35 -201 91l-72 -69c-7 -7 -17 -5 -23 1z
M205 218l319 304c-28 35 -68 58 -115 58c-115 0 -224 -121 -224 -263c0 -36 7 -70 20 -99zM230 177c28 -35 68 -57 115 -57c116 0 225 118 225 261c0 36 -8 71 -21 101z" />
    <glyph glyph-name="Oslashacute" unicode="&#x1fe;" horiz-adv-x="736" 
d="M27 23c-6 6 -6 17 3 26l73 70c-33 51 -52 114 -52 181c0 226 161 410 374 410c80 0 151 -36 201 -92l74 71c7 7 17 6 23 0l9 -10c6 -7 4 -18 -4 -26l-75 -72c33 -52 53 -116 53 -184c0 -225 -163 -407 -374 -407c-81 0 -151 35 -201 91l-72 -69c-7 -7 -17 -5 -23 1z
M206 218l319 304c-28 35 -68 58 -115 58c-115 0 -224 -121 -224 -263c0 -36 7 -70 20 -99zM231 177c28 -35 68 -57 115 -57c116 0 225 118 225 261c0 36 -8 71 -21 101zM373 768c-14 -6 -19 -3 -23 6l-16 39c-3 8 0 15 8 19l164 97c9 6 19 6 24 -5l24 -52
c6 -12 0 -23 -9 -27z" />
    <glyph glyph-name="OE" unicode="&#x152;" horiz-adv-x="896" 
d="M50 300c0 226 167 410 378 410c47 0 89 -10 89 -10h370c9 0 15 -9 14 -19l-12 -82c-1 -10 -9 -19 -19 -19h-257l-23 -164h213c9 0 15 -9 14 -19l-12 -83c-2 -11 -10 -19 -19 -19h-213l-25 -175h257c10 0 15 -9 14 -19l-11 -82c-1 -10 -10 -19 -20 -19h-370
s-50 -10 -91 -10c-151 0 -277 138 -277 310zM345 118c25 0 50 3 75 13l61 437c-22 9 -45 14 -71 14c-116 0 -227 -123 -227 -265c0 -108 68 -199 162 -199z" />
    <glyph glyph-name="Racute" unicode="&#x154;" horiz-adv-x="624" 
d="M53 19l93 662c1 10 10 19 19 19h264c98 0 169 -84 169 -187c0 -122 -64 -201 -159 -231l82 -256c4 -13 -2 -26 -17 -26h-95c-10 0 -19 4 -22 16l-73 258h-95l-36 -255c-1 -10 -10 -19 -19 -19h-97c-10 0 -16 9 -14 19zM235 381h125c63 0 105 53 105 116
c0 45 -28 83 -65 83h-137zM305 768c-14 -6 -19 -3 -23 6l-16 39c-3 8 0 15 8 19l164 97c9 6 19 6 24 -5l24 -52c6 -12 0 -23 -9 -27z" />
    <glyph glyph-name="Rcaron" unicode="&#x158;" horiz-adv-x="624" 
d="M53 19l93 662c1 10 10 19 19 19h264c98 0 169 -84 169 -187c0 -122 -64 -201 -159 -231l82 -256c4 -13 -2 -26 -17 -26h-95c-10 0 -19 4 -22 16l-73 258h-95l-36 -255c-1 -10 -10 -19 -19 -19h-97c-10 0 -16 9 -14 19zM235 381h125c63 0 105 53 105 116
c0 45 -28 83 -65 83h-137zM354 764l-106 101c-5 4 -8 12 -3 19l29 37c6 8 12 10 20 3l78 -62l100 62c11 7 15 4 20 -3l22 -33c7 -10 2 -18 -5 -23l-134 -101c-7 -5 -14 -6 -21 0z" />
    <glyph glyph-name="Rcommaaccent" unicode="&#x156;" horiz-adv-x="623" 
d="M53 19l93 662c1 10 10 19 19 19h264c98 0 169 -84 169 -187c0 -122 -64 -201 -159 -231l82 -256c4 -13 -2 -26 -17 -26h-95c-10 0 -19 4 -22 16l-73 258h-95l-36 -255c-1 -10 -10 -19 -19 -19h-97c-10 0 -16 9 -14 19zM235 381h125c63 0 105 53 105 116
c0 45 -28 83 -65 83h-137zM188 -166c0 40 35 75 78 75c29 0 65 -22 65 -86c0 -109 -78 -176 -107 -201c-7 -6 -13 -7 -20 1l-14 16c-6 6 -2 16 5 22c9 9 68 53 80 119c-1 0 -15 -5 -33 -5c-31 0 -54 26 -54 59z" />
    <glyph glyph-name="Sacute" unicode="&#x15a;" horiz-adv-x="507" 
d="M27 68c-6 6 -11 15 0 30l39 57c9 14 23 11 31 4c14 -12 63 -52 124 -52c45 0 89 35 89 85c0 44 -30 73 -86 110c-66 43 -144 100 -144 200s69 208 226 208c93 0 161 -48 178 -65c12 -12 13 -26 3 -40l-39 -55c-8 -12 -21 -13 -35 -2c-16 13 -62 44 -113 44
s-85 -39 -85 -78c0 -40 27 -60 87 -100c66 -44 154 -99 154 -209c0 -117 -91 -215 -239 -215c-103 0 -174 60 -190 78zM264 768c-14 -6 -19 -3 -23 6l-16 39c-3 8 0 15 8 19l164 97c9 6 19 6 24 -5l24 -52c6 -12 0 -23 -9 -27z" />
    <glyph glyph-name="Scircumflex" unicode="&#x15c;" horiz-adv-x="507" 
d="M27 68c-6 6 -11 15 0 30l39 57c9 14 23 11 31 4c14 -12 63 -52 124 -52c45 0 89 35 89 85c0 44 -30 73 -86 110c-66 43 -144 100 -144 200s69 208 226 208c93 0 161 -48 178 -65c12 -12 13 -26 3 -40l-39 -55c-8 -12 -21 -13 -35 -2c-16 13 -62 44 -113 44
s-85 -39 -85 -78c0 -40 27 -60 87 -100c66 -44 154 -99 154 -209c0 -117 -91 -215 -239 -215c-103 0 -174 60 -190 78zM233 765c-11 -7 -15 -4 -20 3l-22 33c-7 10 -2 18 5 23l134 101c7 5 14 6 21 0l106 -101c5 -4 8 -12 3 -19l-29 -37c-6 -8 -12 -10 -20 -3l-78 62z" />
    <glyph glyph-name="Scaron" unicode="&#x160;" horiz-adv-x="507" 
d="M27 68c-6 6 -11 15 0 30l39 57c9 14 23 11 31 4c14 -12 63 -52 124 -52c45 0 89 35 89 85c0 44 -30 73 -86 110c-66 43 -144 100 -144 200s69 208 226 208c93 0 161 -48 178 -65c12 -12 13 -26 3 -40l-39 -55c-8 -12 -21 -13 -35 -2c-16 13 -62 44 -113 44
s-85 -39 -85 -78c0 -40 27 -60 87 -100c66 -44 154 -99 154 -209c0 -117 -91 -215 -239 -215c-103 0 -174 60 -190 78zM314 764l-106 101c-5 4 -8 12 -3 19l29 37c6 8 12 10 20 3l78 -62l100 62c11 7 15 4 20 -3l22 -33c7 -10 2 -18 -5 -23l-134 -101c-7 -5 -14 -6 -21 0z
" />
    <glyph glyph-name="Scedilla" unicode="&#x15e;" horiz-adv-x="508" 
d="M28 68c-6 6 -11 15 0 30l39 57c9 14 23 11 31 4c14 -12 63 -52 124 -52c45 0 89 35 89 85c0 44 -30 73 -86 110c-66 43 -144 100 -144 200s69 208 226 208c93 0 161 -48 178 -65c12 -12 13 -26 3 -40l-39 -55c-8 -12 -21 -13 -35 -2c-16 13 -62 44 -113 44
s-85 -39 -85 -78c0 -40 27 -60 87 -100c66 -44 154 -99 154 -209c0 -117 -90 -214 -237 -215l-6 -44c43 -6 72 -39 72 -90c0 -62 -42 -116 -106 -116c-30 0 -57 15 -69 35c-6 9 -3 20 7 28l18 17c6 6 14 5 19 -1s13 -12 26 -12c18 0 35 18 35 44c0 20 -12 38 -57 42
c-13 2 -14 13 -13 18l12 86c-70 16 -118 56 -130 71z" />
    <glyph glyph-name="Scommaaccent" unicode="&#x218;" horiz-adv-x="507" 
d="M27 68c-6 6 -11 15 0 30l39 57c9 14 23 11 31 4c14 -12 63 -52 124 -52c45 0 89 35 89 85c0 44 -30 73 -86 110c-66 43 -144 100 -144 200s69 208 226 208c93 0 161 -48 178 -65c12 -12 13 -26 3 -40l-39 -55c-8 -12 -21 -13 -35 -2c-16 13 -62 44 -113 44
s-85 -39 -85 -78c0 -40 27 -60 87 -100c66 -44 154 -99 154 -209c0 -117 -91 -215 -239 -215c-103 0 -174 60 -190 78zM129 -166c0 40 35 75 78 75c29 0 65 -22 65 -86c0 -109 -78 -176 -107 -201c-7 -6 -13 -7 -20 1l-14 16c-6 6 -2 16 5 22c9 9 68 53 80 119
c-1 0 -15 -5 -33 -5c-31 0 -54 26 -54 59z" />
    <glyph glyph-name="Tcaron" unicode="&#x164;" horiz-adv-x="457" 
d="M125 19l79 561h-132c-10 0 -16 9 -15 19l12 82c1 10 10 19 19 19h397c10 0 16 -9 15 -19l-12 -82c-1 -10 -10 -19 -20 -19h-132l-79 -561c-1 -10 -11 -19 -20 -19h-97c-9 0 -16 9 -15 19zM286 764l-106 101c-5 4 -8 12 -3 19l29 37c6 8 12 10 20 3l78 -62l100 62
c11 7 15 4 20 -3l22 -33c7 -10 2 -18 -5 -23l-134 -101c-7 -5 -14 -6 -21 0z" />
    <glyph glyph-name="Tcommaaccent" unicode="&#x162;" horiz-adv-x="457" 
d="M125 19l79 561h-132c-10 0 -16 9 -15 19l12 82c1 10 10 19 19 19h397c10 0 16 -9 15 -19l-12 -82c-1 -10 -10 -19 -20 -19h-132l-79 -561c-1 -10 -11 -19 -20 -19h-97c-9 0 -16 9 -15 19zM96 -166c0 40 35 75 78 75c29 0 65 -22 65 -86c0 -109 -78 -176 -107 -201
c-7 -6 -13 -7 -20 1l-14 16c-6 6 -2 16 5 22c9 9 68 53 80 119c-1 0 -15 -5 -33 -5c-31 0 -54 26 -54 59z" />
    <glyph glyph-name="uni021A" unicode="&#x21a;" horiz-adv-x="457" 
d="M125 19l79 561h-132c-10 0 -16 9 -15 19l12 82c1 10 10 19 19 19h397c10 0 16 -9 15 -19l-12 -82c-1 -10 -10 -19 -20 -19h-132l-79 -561c-1 -10 -11 -19 -20 -19h-97c-9 0 -16 9 -15 19zM96 -166c0 40 35 75 78 75c29 0 65 -22 65 -86c0 -109 -78 -176 -107 -201
c-7 -6 -13 -7 -20 1l-14 16c-6 6 -2 16 5 22c9 9 68 53 80 119c-1 0 -15 -5 -33 -5c-31 0 -54 26 -54 59z" />
    <glyph glyph-name="Tbar" unicode="&#x166;" horiz-adv-x="457" 
d="M126 19l38 272h-78c-9 0 -15 9 -13 19l2 13c2 10 9 19 18 19h78l34 238h-132c-10 0 -16 9 -15 19l12 82c1 10 10 19 19 19h397c10 0 16 -9 15 -19l-12 -82c-1 -10 -10 -19 -20 -19h-132l-34 -238h81c10 0 16 -9 15 -19l-2 -14c-1 -10 -10 -18 -20 -18h-81l-38 -272
c-1 -10 -11 -19 -20 -19h-97c-9 0 -16 9 -15 19z" />
    <glyph glyph-name="Thorn" unicode="&#xde;" horiz-adv-x="546" 
d="M53 19l93 662c1 10 10 19 20 19h96c9 0 15 -9 14 -19l-15 -108h101c101 1 173 -90 173 -193c0 -138 -106 -253 -235 -253h-102l-15 -108c-1 -10 -11 -19 -20 -19h-96c-10 0 -16 9 -14 19zM215 249h94c49 0 96 53 96 118c0 47 -28 83 -68 83h-93z" />
    <glyph glyph-name="Ugrave" unicode="&#xd9;" horiz-adv-x="669" 
d="M79 265l59 416c1 10 11 19 20 19h99c10 0 16 -9 15 -19l-58 -409c-12 -85 28 -150 98 -150c71 0 130 65 142 149l58 410c1 10 10 19 20 19h99c9 0 16 -9 15 -19l-59 -416c-21 -152 -136 -275 -293 -275c-139 0 -236 123 -215 275zM467 769l-150 77c-7 4 -11 14 -2 27
l29 43c9 14 22 12 27 8l137 -97c5 -3 8 -11 3 -19l-20 -33c-6 -9 -13 -12 -24 -6z" />
    <glyph glyph-name="Uacute" unicode="&#xda;" horiz-adv-x="669" 
d="M79 265l59 416c1 10 11 19 20 19h99c10 0 16 -9 15 -19l-58 -409c-12 -85 28 -150 98 -150c71 0 130 65 142 149l58 410c1 10 10 19 20 19h99c9 0 16 -9 15 -19l-59 -416c-21 -152 -136 -275 -293 -275c-139 0 -236 123 -215 275zM340 768c-14 -6 -19 -3 -23 6l-16 39
c-3 8 0 15 8 19l164 97c9 6 19 6 24 -5l24 -52c6 -12 0 -23 -9 -27z" />
    <glyph glyph-name="Ucircumflex" unicode="&#xdb;" horiz-adv-x="669" 
d="M79 265l59 416c1 10 11 19 20 19h99c10 0 16 -9 15 -19l-58 -409c-12 -85 28 -150 98 -150c71 0 130 65 142 149l58 410c1 10 10 19 20 19h99c9 0 16 -9 15 -19l-59 -416c-21 -152 -136 -275 -293 -275c-139 0 -236 123 -215 275zM310 765c-11 -7 -15 -4 -20 3l-22 33
c-7 10 -2 18 5 23l134 101c7 5 14 6 21 0l106 -101c5 -4 8 -12 3 -19l-29 -37c-6 -8 -12 -10 -20 -3l-78 62z" />
    <glyph glyph-name="Utilde" unicode="&#x168;" horiz-adv-x="669" 
d="M79 265l59 416c1 10 11 19 20 19h99c10 0 16 -9 15 -19l-58 -409c-12 -85 28 -150 98 -150c71 0 130 65 142 149l58 410c1 10 10 19 20 19h99c9 0 16 -9 15 -19l-59 -416c-21 -152 -136 -275 -293 -275c-139 0 -236 123 -215 275zM297 789l-27 21c-8 8 -6 16 -2 23
c10 20 45 84 102 84c45 0 62 -55 94 -55c16 0 25 17 32 31c6 12 19 18 30 10l23 -18c11 -8 9 -19 2 -33c-9 -19 -43 -76 -96 -76c-47 0 -70 56 -96 56c-19 0 -30 -24 -38 -39c-4 -8 -16 -11 -24 -4z" />
    <glyph glyph-name="Udieresis" unicode="&#xdc;" horiz-adv-x="669" 
d="M79 265l59 416c1 10 11 19 20 19h99c10 0 16 -9 15 -19l-58 -409c-12 -85 28 -150 98 -150c71 0 130 65 142 149l58 410c1 10 10 19 20 19h99c9 0 16 -9 15 -19l-59 -416c-21 -152 -136 -275 -293 -275c-139 0 -236 123 -215 275zM513 775c-32 0 -53 29 -48 64
c4 35 33 63 65 63c31 0 53 -28 49 -63c-5 -35 -35 -64 -66 -64zM290 775c-31 0 -52 29 -47 64c4 35 33 63 64 63c32 0 54 -28 50 -63c-5 -35 -35 -64 -67 -64z" />
    <glyph glyph-name="Umacron" unicode="&#x16a;" horiz-adv-x="669" 
d="M79 265l59 416c1 10 11 19 20 19h99c10 0 16 -9 15 -19l-58 -409c-12 -85 28 -150 98 -150c71 0 130 65 142 149l58 410c1 10 10 19 20 19h99c9 0 16 -9 15 -19l-59 -416c-21 -152 -136 -275 -293 -275c-139 0 -236 123 -215 275zM291 808c-10 0 -16 8 -15 18l5 34
c2 11 10 19 20 19h231c10 0 16 -8 14 -19l-5 -34c-1 -10 -10 -18 -20 -18h-230z" />
    <glyph glyph-name="Ubreve" unicode="&#x16c;" horiz-adv-x="669" 
d="M79 265l59 416c1 10 11 19 20 19h99c10 0 16 -9 15 -19l-58 -409c-12 -85 28 -150 98 -150c71 0 130 65 142 149l58 410c1 10 10 19 20 19h99c9 0 16 -9 15 -19l-59 -416c-21 -152 -136 -275 -293 -275c-139 0 -236 123 -215 275zM392 766c-61 0 -110 51 -110 118
c0 11 8 21 20 21h37c8 0 10 -7 11 -14c5 -30 21 -53 50 -53c28 0 53 25 64 53c4 9 11 14 17 14h41c11 0 16 -10 14 -21c-19 -67 -73 -118 -144 -118z" />
    <glyph glyph-name="Uring" unicode="&#x16e;" horiz-adv-x="669" 
d="M79 265l59 416c1 10 11 19 20 19h99c10 0 16 -9 15 -19l-58 -409c-12 -85 28 -150 98 -150c71 0 130 65 142 149l58 410c1 10 10 19 20 19h99c9 0 16 -9 15 -19l-59 -416c-21 -152 -136 -275 -293 -275c-139 0 -236 123 -215 275zM400 754c-52 0 -89 44 -89 98
c0 71 53 128 120 128c51 0 88 -44 88 -98c0 -71 -54 -128 -119 -128zM408 817c24 0 48 27 48 56c0 23 -14 42 -34 42c-24 0 -48 -25 -48 -54c0 -23 15 -44 34 -44z" />
    <glyph glyph-name="Uhungarumlaut" unicode="&#x170;" horiz-adv-x="669" 
d="M79 265l59 416c1 10 11 19 20 19h99c10 0 16 -9 15 -19l-58 -409c-12 -85 28 -150 98 -150c71 0 130 65 142 149l58 410c1 10 10 19 20 19h99c9 0 16 -9 15 -19l-59 -416c-21 -152 -136 -275 -293 -275c-139 0 -236 123 -215 275zM456 768c-9 0 -18 9 -14 19l49 141
c4 11 11 19 23 19h75c17 0 21 -12 12 -25l-89 -139c-5 -8 -11 -15 -22 -15h-34zM307 768c-9 0 -18 9 -14 19l49 141c4 11 11 19 23 19h75c17 0 21 -12 12 -25l-89 -139c-5 -8 -11 -15 -22 -15h-34z" />
    <glyph glyph-name="Uogonek" unicode="&#x172;" horiz-adv-x="674" 
d="M198 -134c0 59 34 103 59 127c-118 20 -195 134 -176 272l59 416c1 10 11 19 20 19h99c10 0 16 -9 15 -19l-58 -409c-12 -85 28 -150 98 -150c71 0 130 65 142 149l58 410c1 10 10 19 20 19h99c9 0 16 -9 15 -19l-59 -416c-20 -145 -125 -263 -270 -274
c-21 -21 -46 -55 -46 -97c0 -30 16 -54 53 -54c16 0 29 6 40 9s19 -5 17 -17l-4 -30c-1 -10 -9 -16 -16 -19c-5 -3 -34 -10 -60 -10c-54 0 -105 31 -105 93z" />
    <glyph glyph-name="Wacute" unicode="&#x1e82;" horiz-adv-x="820" 
d="M161 4l-75 672c-2 14 7 24 19 24h87c7 0 13 -7 14 -14l34 -379h4l202 392c3 6 9 11 17 11h16c8 0 13 -5 14 -11l81 -392h4l142 379c3 7 11 14 18 14h95c13 0 19 -10 13 -24l-264 -672c-3 -8 -11 -14 -18 -14h-15c-8 0 -13 5 -14 11l-102 433h-4l-222 -433
c-3 -6 -8 -11 -17 -11h-14c-8 0 -14 6 -15 14zM416 768c-14 -6 -19 -3 -23 6l-16 39c-3 8 0 15 8 19l164 97c9 6 19 6 24 -5l24 -52c6 -12 0 -23 -9 -27z" />
    <glyph glyph-name="Wcircumflex" unicode="&#x174;" horiz-adv-x="820" 
d="M161 4l-75 672c-2 14 7 24 19 24h87c7 0 13 -7 14 -14l34 -379h4l202 392c3 6 9 11 17 11h16c8 0 13 -5 14 -11l81 -392h4l142 379c3 7 11 14 18 14h95c13 0 19 -10 13 -24l-264 -672c-3 -8 -11 -14 -18 -14h-15c-8 0 -13 5 -14 11l-102 433h-4l-222 -433
c-3 -6 -8 -11 -17 -11h-14c-8 0 -14 6 -15 14zM386 765c-11 -7 -15 -4 -20 3l-22 33c-7 10 -2 18 5 23l134 101c7 5 14 6 21 0l106 -101c5 -4 8 -12 3 -19l-29 -37c-6 -8 -12 -10 -20 -3l-78 62z" />
    <glyph glyph-name="Wdieresis" unicode="&#x1e84;" horiz-adv-x="820" 
d="M161 4l-75 672c-2 14 7 24 19 24h87c7 0 13 -7 14 -14l34 -379h4l202 392c3 6 9 11 17 11h16c8 0 13 -5 14 -11l81 -392h4l142 379c3 7 11 14 18 14h95c13 0 19 -10 13 -24l-264 -672c-3 -8 -11 -14 -18 -14h-15c-8 0 -13 5 -14 11l-102 433h-4l-222 -433
c-3 -6 -8 -11 -17 -11h-14c-8 0 -14 6 -15 14zM590 775c-32 0 -53 29 -48 64c4 35 33 63 65 63c31 0 53 -28 49 -63c-5 -35 -35 -64 -66 -64zM367 775c-31 0 -52 29 -47 64c4 35 33 63 64 63c32 0 54 -28 50 -63c-5 -35 -35 -64 -67 -64z" />
    <glyph glyph-name="Wgrave" unicode="&#x1e80;" horiz-adv-x="820" 
d="M161 4l-75 672c-2 14 7 24 19 24h87c7 0 13 -7 14 -14l34 -379h4l202 392c3 6 9 11 17 11h16c8 0 13 -5 14 -11l81 -392h4l142 379c3 7 11 14 18 14h95c13 0 19 -10 13 -24l-264 -672c-3 -8 -11 -14 -18 -14h-15c-8 0 -13 5 -14 11l-102 433h-4l-222 -433
c-3 -6 -8 -11 -17 -11h-14c-8 0 -14 6 -15 14zM544 769l-150 77c-7 4 -11 14 -2 27l29 43c9 14 22 12 27 8l137 -97c5 -3 8 -11 3 -19l-20 -33c-6 -9 -13 -12 -24 -6z" />
    <glyph glyph-name="Yacute" unicode="&#xdd;" horiz-adv-x="532" 
d="M161 19l45 318l-156 339c-6 13 3 24 17 24h94c11 0 15 -4 19 -14l105 -230l168 235c3 4 8 9 16 9h110c15 0 18 -13 9 -26l-252 -336l-44 -319c-1 -10 -11 -19 -20 -19h-97c-10 0 -15 9 -14 19zM265 768c-14 -6 -19 -3 -23 6l-16 39c-3 8 0 15 8 19l164 97c9 6 19 6 24 -5
l24 -52c6 -12 0 -23 -9 -27z" />
    <glyph glyph-name="Ycircumflex" unicode="&#x176;" horiz-adv-x="532" 
d="M161 19l45 318l-156 339c-6 13 3 24 17 24h94c11 0 15 -4 19 -14l105 -230l168 235c3 4 8 9 16 9h110c15 0 18 -13 9 -26l-252 -336l-44 -319c-1 -10 -11 -19 -20 -19h-97c-10 0 -15 9 -14 19zM235 765c-11 -7 -15 -4 -20 3l-22 33c-7 10 -2 18 5 23l134 101
c7 5 14 6 21 0l106 -101c5 -4 8 -12 3 -19l-29 -37c-6 -8 -12 -10 -20 -3l-78 62z" />
    <glyph glyph-name="Ydieresis" unicode="&#x178;" horiz-adv-x="532" 
d="M161 19l45 318l-156 339c-6 13 3 24 17 24h94c11 0 15 -4 19 -14l105 -230l168 235c3 4 8 9 16 9h110c15 0 18 -13 9 -26l-252 -336l-44 -319c-1 -10 -11 -19 -20 -19h-97c-10 0 -15 9 -14 19zM440 775c-32 0 -53 29 -48 64c4 35 33 63 65 63c31 0 53 -28 49 -63
c-5 -35 -35 -64 -66 -64zM217 775c-31 0 -52 29 -47 64c4 35 33 63 64 63c32 0 54 -28 50 -63c-5 -35 -35 -64 -67 -64z" />
    <glyph glyph-name="Ygrave" unicode="&#x1ef2;" horiz-adv-x="532" 
d="M161 19l45 318l-156 339c-6 13 3 24 17 24h94c11 0 15 -4 19 -14l105 -230l168 235c3 4 8 9 16 9h110c15 0 18 -13 9 -26l-252 -336l-44 -319c-1 -10 -11 -19 -20 -19h-97c-10 0 -15 9 -14 19zM395 769l-150 77c-7 4 -11 14 -2 27l29 43c9 14 22 12 27 8l137 -97
c5 -3 8 -11 3 -19l-20 -33c-6 -9 -13 -12 -24 -6z" />
    <glyph glyph-name="Zacute" unicode="&#x179;" horiz-adv-x="501" 
d="M7 0c-9 0 -16 9 -14 19l2 18l332 538v4h-212c-9 0 -16 9 -15 19l12 83c1 10 11 19 20 19h379c9 0 16 -9 15 -19l-2 -13l-326 -543v-4h214c10 0 15 -9 14 -19l-11 -83c-1 -10 -10 -19 -20 -19h-388zM263 768c-14 -6 -19 -3 -23 6l-16 39c-3 8 0 15 8 19l164 97
c9 6 19 6 24 -5l24 -52c6 -12 0 -23 -9 -27z" />
    <glyph glyph-name="Zcaron" unicode="&#x17d;" horiz-adv-x="501" 
d="M7 0c-9 0 -16 9 -14 19l2 18l332 538v4h-212c-9 0 -16 9 -15 19l12 83c1 10 11 19 20 19h379c9 0 16 -9 15 -19l-2 -13l-326 -543v-4h214c10 0 15 -9 14 -19l-11 -83c-1 -10 -10 -19 -20 -19h-388zM320 764l-106 101c-5 4 -8 12 -3 19l29 37c6 8 12 10 20 3l78 -62
l100 62c11 7 15 4 20 -3l22 -33c7 -10 2 -18 -5 -23l-134 -101c-7 -5 -14 -6 -21 0z" />
    <glyph glyph-name="Zdotaccent" unicode="&#x17b;" horiz-adv-x="501" 
d="M7 0c-9 0 -16 9 -14 19l2 18l332 538v4h-212c-9 0 -16 9 -15 19l12 83c1 10 11 19 20 19h379c9 0 16 -9 15 -19l-2 -13l-326 -543v-4h214c10 0 15 -9 14 -19l-11 -83c-1 -10 -10 -19 -20 -19h-388zM333 781c-35 0 -59 28 -59 63c0 45 38 81 79 81c35 0 60 -28 60 -63
c0 -45 -39 -81 -80 -81z" />
    <glyph glyph-name="agrave" unicode="&#xe0;" horiz-adv-x="474" 
d="M321 531l-150 77c-7 4 -11 14 -2 27l29 43c9 14 22 12 27 8l137 -97c5 -3 8 -11 3 -19l-20 -33c-6 -9 -13 -12 -24 -6zM278 163l12 83c-3 17 -23 56 -65 56c-46 0 -94 -47 -94 -126c0 -43 25 -78 66 -78c42 0 74 45 81 65zM426 381l-50 -362c-1 -10 -11 -19 -20 -19h-39
c-6 0 -13 3 -16 17l-6 30c-15 -14 -58 -57 -129 -57c-84 0 -147 82 -147 184c0 129 89 236 206 236c57 0 98 -36 112 -55l18 32c4 7 9 13 18 13h39c9 0 16 -8 14 -19z" />
    <glyph glyph-name="aacute" unicode="&#xe1;" horiz-adv-x="474" 
d="M192 528c-14 -6 -19 -3 -23 6l-16 39c-3 8 0 15 8 19l164 97c9 6 19 6 24 -5l24 -52c6 -12 0 -23 -9 -27zM278 163l12 83c-3 17 -23 56 -65 56c-46 0 -94 -47 -94 -126c0 -43 25 -78 66 -78c42 0 74 45 81 65zM426 381l-50 -362c-1 -10 -11 -19 -20 -19h-39
c-6 0 -13 3 -16 17l-6 30c-15 -14 -58 -57 -129 -57c-84 0 -147 82 -147 184c0 129 89 236 206 236c57 0 98 -36 112 -55l18 32c4 7 9 13 18 13h39c9 0 16 -8 14 -19z" />
    <glyph glyph-name="acircumflex" unicode="&#xe2;" horiz-adv-x="474" 
d="M141 529l-22 33c-7 10 -2 18 5 23l134 101c7 5 14 6 21 0l106 -101c5 -4 8 -12 3 -19l-29 -37c-6 -8 -12 -10 -20 -3l-78 62l-100 -62c-11 -7 -15 -4 -20 3zM278 163l12 83c-3 17 -23 56 -65 56c-46 0 -94 -47 -94 -126c0 -43 25 -78 66 -78c42 0 74 45 81 65zM426 381
l-50 -362c-1 -10 -11 -19 -20 -19h-39c-6 0 -13 3 -16 17l-6 30c-15 -14 -58 -57 -129 -57c-84 0 -147 82 -147 184c0 129 89 236 206 236c57 0 98 -36 112 -55l18 32c4 7 9 13 18 13h39c9 0 16 -8 14 -19z" />
    <glyph glyph-name="atilde" unicode="&#xe3;" horiz-adv-x="474" 
d="M152 562l-27 21c-8 8 -6 16 -2 23c10 20 45 84 102 84c45 0 62 -55 94 -55c16 0 25 17 32 31c6 12 19 18 30 10l23 -18c11 -8 9 -19 2 -33c-9 -19 -43 -76 -96 -76c-47 0 -70 56 -96 56c-19 0 -30 -24 -38 -39c-4 -8 -16 -11 -24 -4zM278 163l12 83c-3 17 -23 56 -65 56
c-46 0 -94 -47 -94 -126c0 -43 25 -78 66 -78c42 0 74 45 81 65zM426 381l-50 -362c-1 -10 -11 -19 -20 -19h-39c-6 0 -13 3 -16 17l-6 30c-15 -14 -58 -57 -129 -57c-84 0 -147 82 -147 184c0 129 89 236 206 236c57 0 98 -36 112 -55l18 32c4 7 9 13 18 13h39
c9 0 16 -8 14 -19z" />
    <glyph glyph-name="adieresis" unicode="&#xe4;" horiz-adv-x="474" 
d="M346 551c-32 0 -53 29 -48 64c4 35 33 63 65 63c31 0 54 -28 50 -63c-5 -35 -36 -64 -67 -64zM165 551c-31 0 -53 29 -48 64c4 35 34 63 65 63c32 0 54 -28 50 -63c-5 -35 -35 -64 -67 -64zM278 163l12 83c-3 17 -23 56 -65 56c-46 0 -94 -47 -94 -126
c0 -43 25 -78 66 -78c42 0 74 45 81 65zM426 381l-50 -362c-1 -10 -11 -19 -20 -19h-39c-6 0 -13 3 -16 17l-6 30c-15 -14 -58 -57 -129 -57c-84 0 -147 82 -147 184c0 129 89 236 206 236c57 0 98 -36 112 -55l18 32c4 7 9 13 18 13h39c9 0 16 -8 14 -19z" />
    <glyph glyph-name="amacron" unicode="&#x101;" horiz-adv-x="474" 
d="M143 570c-10 0 -15 8 -14 18l4 34c1 11 10 19 20 19h231c9 0 16 -8 14 -19l-5 -34c-1 -10 -9 -18 -19 -18h-231zM278 163l12 83c-3 17 -23 56 -65 56c-46 0 -94 -47 -94 -126c0 -43 25 -78 66 -78c42 0 74 45 81 65zM426 381l-50 -362c-1 -10 -11 -19 -20 -19h-39
c-6 0 -13 3 -16 17l-6 30c-15 -14 -58 -57 -129 -57c-84 0 -147 82 -147 184c0 129 89 236 206 236c57 0 98 -36 112 -55l18 32c4 7 9 13 18 13h39c9 0 16 -8 14 -19z" />
    <glyph glyph-name="abreve" unicode="&#x103;" horiz-adv-x="474" 
d="M258 528c-63 0 -111 51 -111 118c0 12 9 22 20 22h36c7 0 12 -7 13 -14c4 -31 20 -53 50 -53c28 0 52 25 63 53c3 8 11 14 18 14h41c11 0 16 -10 14 -22c-20 -67 -74 -118 -144 -118zM278 163l12 83c-3 17 -23 56 -65 56c-46 0 -94 -47 -94 -126c0 -43 25 -78 66 -78
c42 0 74 45 81 65zM426 381l-50 -362c-1 -10 -11 -19 -20 -19h-39c-6 0 -13 3 -16 17l-6 30c-15 -14 -58 -57 -129 -57c-84 0 -147 82 -147 184c0 129 89 236 206 236c57 0 98 -36 112 -55l18 32c4 7 9 13 18 13h39c9 0 16 -8 14 -19z" />
    <glyph glyph-name="aring" unicode="&#xe5;" horiz-adv-x="474" 
d="M247 484c-52 0 -89 44 -89 98c0 71 53 128 120 128c51 0 88 -44 88 -98c0 -71 -54 -128 -119 -128zM255 547c24 0 48 27 48 56c0 23 -14 42 -34 42c-24 0 -48 -25 -48 -54c0 -23 15 -44 34 -44zM278 163l12 83c-3 17 -23 56 -65 56c-46 0 -94 -47 -94 -126
c0 -43 25 -78 66 -78c42 0 74 45 81 65zM426 381l-50 -362c-1 -10 -11 -19 -20 -19h-39c-6 0 -13 3 -16 17l-6 30c-15 -14 -58 -57 -129 -57c-84 0 -147 82 -147 184c0 129 89 236 206 236c57 0 98 -36 112 -55l18 32c4 7 9 13 18 13h39c9 0 16 -8 14 -19z" />
    <glyph glyph-name="aringacute" unicode="&#x1fb;" horiz-adv-x="474" 
d="M244 433c-52 0 -89 44 -89 98c0 71 53 128 120 128c51 0 88 -44 88 -98c0 -71 -54 -128 -119 -128zM252 496c24 0 48 27 48 56c0 23 -14 42 -34 42c-24 0 -48 -25 -48 -54c0 -23 15 -44 34 -44zM215 672c-14 -6 -19 -3 -23 6l-16 39c-3 8 0 15 8 19l164 97
c9 6 19 6 24 -5l24 -52c6 -12 0 -23 -9 -27zM278 163l12 83c-3 17 -23 56 -65 56c-46 0 -94 -47 -94 -126c0 -43 25 -78 66 -78c42 0 74 45 81 65zM426 381l-50 -362c-1 -10 -11 -19 -20 -19h-39c-6 0 -13 3 -16 17l-6 30c-15 -14 -58 -57 -129 -57c-84 0 -147 82 -147 184
c0 129 89 236 206 236c57 0 98 -36 112 -55l18 32c4 7 9 13 18 13h39c9 0 16 -8 14 -19z" />
    <glyph glyph-name="aogonek" unicode="&#x105;" horiz-adv-x="474" 
d="M426 381l-50 -362c-1 -10 -11 -19 -20 -19h-5c-21 -19 -55 -58 -55 -106c0 -30 16 -54 53 -54c16 0 29 6 40 9s19 -5 17 -17l-4 -30c-1 -10 -9 -16 -16 -19c-5 -3 -34 -10 -60 -10c-54 0 -105 31 -105 93c0 83 66 135 81 145l-7 36c-15 -14 -58 -57 -129 -57
c-84 0 -147 82 -147 184c0 129 89 236 206 236c57 0 98 -36 112 -55l18 32c4 7 9 13 18 13h39c9 0 16 -8 14 -19zM278 163l12 83c-3 17 -23 56 -65 56c-46 0 -94 -47 -94 -126c0 -43 25 -78 66 -78c42 0 74 45 81 65z" />
    <glyph glyph-name="ae" unicode="&#xe6;" horiz-adv-x="599" 
d="M2 105c0 86 64 148 162 148c34 0 63 -8 63 -8c5 51 -1 73 -39 73c-29 0 -73 -10 -96 -16c-9 -1 -18 6 -18 16l-2 54c0 10 9 18 18 20c0 0 71 18 123 18c55 0 85 -23 102 -49c27 31 84 49 134 49c79 0 128 -45 128 -106c0 -102 -149 -136 -251 -137c-3 -41 16 -73 66 -73
c24 0 54 12 71 24c9 6 18 8 23 0l33 -47c5 -7 5 -18 -3 -26c-35 -32 -85 -55 -143 -55c-55 0 -93 25 -121 65h-1c-15 -22 -53 -65 -136 -65c-66 0 -113 45 -113 115zM343 245c48 1 123 15 123 47c0 14 -11 25 -34 25c-40 0 -78 -38 -89 -72zM106 121c0 -27 22 -45 45 -45
c55 0 64 57 67 100c-4 1 -29 7 -50 7c-28 0 -62 -24 -62 -62z" />
    <glyph glyph-name="aeacute" unicode="&#x1fd;" horiz-adv-x="599" 
d="M2 105c0 86 64 148 162 148c34 0 63 -8 63 -8c5 51 -1 73 -39 73c-29 0 -73 -10 -96 -16c-9 -1 -18 6 -18 16l-2 54c0 10 9 18 18 20c0 0 71 18 123 18c55 0 85 -23 102 -49c27 31 84 49 134 49c79 0 128 -45 128 -106c0 -102 -149 -136 -251 -137c-3 -41 16 -73 66 -73
c24 0 54 12 71 24c9 6 18 8 23 0l33 -47c5 -7 5 -18 -3 -26c-35 -32 -85 -55 -143 -55c-55 0 -93 25 -121 65h-1c-15 -22 -53 -65 -136 -65c-66 0 -113 45 -113 115zM343 245c48 1 123 15 123 47c0 14 -11 25 -34 25c-40 0 -78 -38 -89 -72zM106 121c0 -27 22 -45 45 -45
c55 0 64 57 67 100c-4 1 -29 7 -50 7c-28 0 -62 -24 -62 -62zM307 528c-14 -6 -19 -3 -23 6l-16 39c-3 8 0 15 8 19l164 97c9 6 19 6 24 -5l24 -52c6 -12 0 -23 -9 -27z" />
    <glyph glyph-name="cacute" unicode="&#x107;" horiz-adv-x="396" 
d="M19 176c0 137 98 234 213 234c61 0 111 -32 136 -71c6 -9 1 -20 -8 -28l-40 -37c-9 -8 -20 -4 -25 1c-11 10 -27 27 -60 27c-48 0 -97 -49 -97 -118c0 -48 26 -86 64 -86c35 0 59 25 71 38c6 7 16 10 25 1l39 -38c8 -8 10 -18 3 -28c-35 -46 -87 -81 -150 -81
c-99 0 -171 79 -171 186zM188 528c-14 -6 -19 -3 -23 6l-16 39c-3 8 0 15 8 19l164 97c9 6 19 6 24 -5l24 -52c6 -12 0 -23 -9 -27z" />
    <glyph glyph-name="ccircumflex" unicode="&#x109;" horiz-adv-x="396" 
d="M19 176c0 137 98 234 213 234c61 0 111 -32 136 -71c6 -9 1 -20 -8 -28l-40 -37c-9 -8 -20 -4 -25 1c-11 10 -27 27 -60 27c-48 0 -97 -49 -97 -118c0 -48 26 -86 64 -86c35 0 59 25 71 38c6 7 16 10 25 1l39 -38c8 -8 10 -18 3 -28c-35 -46 -87 -81 -150 -81
c-99 0 -171 79 -171 186zM138 529l-22 33c-7 10 -2 18 5 23l134 101c7 5 14 6 21 0l106 -101c5 -4 8 -12 3 -19l-29 -37c-6 -8 -12 -10 -20 -3l-78 62l-100 -62c-11 -7 -15 -4 -20 3z" />
    <glyph glyph-name="ccaron" unicode="&#x10d;" horiz-adv-x="396" 
d="M19 176c0 137 98 234 213 234c61 0 111 -32 136 -71c6 -9 1 -20 -8 -28l-40 -37c-9 -8 -20 -4 -25 1c-11 10 -27 27 -60 27c-48 0 -97 -49 -97 -118c0 -48 26 -86 64 -86c35 0 59 25 71 38c6 7 16 10 25 1l39 -38c8 -8 10 -18 3 -28c-35 -46 -87 -81 -150 -81
c-99 0 -171 79 -171 186zM244 525l-106 101c-5 4 -8 12 -3 19l29 37c6 8 12 10 20 3l78 -62l100 62c11 7 15 4 20 -3l22 -33c7 -10 2 -18 -5 -23l-134 -101c-7 -5 -14 -6 -21 0z" />
    <glyph glyph-name="cdotaccent" unicode="&#x10b;" horiz-adv-x="396" 
d="M19 176c0 137 98 234 213 234c61 0 111 -32 136 -71c6 -9 1 -20 -8 -28l-40 -37c-9 -8 -20 -4 -25 1c-11 10 -27 27 -60 27c-48 0 -97 -49 -97 -118c0 -48 26 -86 64 -86c35 0 59 25 71 38c6 7 16 10 25 1l39 -38c8 -8 10 -18 3 -28c-35 -46 -87 -81 -150 -81
c-99 0 -171 79 -171 186zM251 536c-34 0 -59 28 -59 63c0 45 38 81 80 81c34 0 59 -28 59 -63c0 -45 -38 -81 -80 -81z" />
    <glyph glyph-name="ccedilla" unicode="&#xe7;" horiz-adv-x="396" 
d="M136 -1c-70 22 -117 90 -117 177c0 137 98 234 213 234c61 0 111 -32 136 -71c6 -9 1 -20 -8 -28l-40 -37c-9 -8 -20 -4 -25 1c-11 10 -27 27 -60 27c-48 0 -97 -49 -97 -118c0 -48 26 -86 64 -86c35 0 59 25 71 38c6 7 16 10 25 1l39 -38c8 -8 10 -18 3 -28
c-34 -44 -83 -78 -143 -81l-6 -44c43 -6 72 -39 72 -90c0 -62 -42 -116 -106 -116c-30 0 -57 15 -69 35c-6 9 -3 20 7 28l18 17c6 6 14 5 19 -1s13 -12 26 -12c18 0 35 18 35 44c0 20 -12 38 -57 42c-13 2 -14 13 -13 18z" />
    <glyph glyph-name="dcaron" unicode="&#x10f;" horiz-adv-x="501" 
d="M166 -10c-84 0 -147 82 -147 184c0 130 92 236 210 236c29 0 61 -10 75 -19l41 290c2 17 28 19 42 19h67c9 0 16 -9 15 -19l-93 -662c-1 -10 -11 -19 -20 -19h-39c-6 0 -13 3 -16 17l-6 30c-15 -14 -64 -57 -129 -57zM131 176c0 -43 25 -78 66 -78c42 0 74 45 81 65
l11 115s-20 24 -61 24c-52 0 -97 -57 -97 -126zM561 424l-14 16c-6 6 -2 16 5 22c9 9 68 53 80 119c-1 0 -15 -5 -33 -5c-31 0 -54 26 -54 59c0 40 35 75 78 75c29 0 65 -22 65 -86c0 -109 -78 -176 -107 -201c-7 -6 -13 -7 -20 1z" />
    <glyph glyph-name="dcroat" unicode="&#x111;" horiz-adv-x="470" 
d="M166 -10c-84 0 -147 82 -147 184c0 130 92 236 210 236c29 0 61 -10 75 -19l20 142h-94c-10 0 -16 8 -15 18l2 14c1 10 10 19 20 19h94l14 97c2 17 28 19 42 19h67c9 0 16 -9 15 -19l-14 -97h29c9 0 16 -9 14 -19l-2 -13c-2 -10 -10 -19 -19 -19h-29l-72 -514
c-1 -10 -11 -19 -20 -19h-39c-6 0 -13 3 -16 17l-6 30c-15 -14 -64 -57 -129 -57zM131 176c0 -43 25 -78 66 -78c42 0 74 45 81 65l11 115s-20 24 -61 24c-52 0 -97 -57 -97 -126z" />
    <glyph glyph-name="eth" unicode="&#xf0;" horiz-adv-x="492" 
d="M21 191c0 161 104 245 214 245c35 0 71 -17 89 -28c-4 55 -32 101 -66 134l-79 -49c-9 -5 -19 -2 -22 6l-5 13c-3 8 0 19 9 25l54 36c-16 15 -42 25 -52 30c-14 6 -16 17 -10 29l29 56c6 13 18 20 33 14c21 -9 64 -34 108 -71l69 40c9 5 17 0 22 -8l6 -11
c5 -8 0 -21 -9 -26l-51 -30c52 -57 96 -151 96 -269c0 -184 -87 -337 -259 -337c-94 0 -176 92 -176 201zM214 104c67 0 109 87 115 150c-2 31 -29 84 -82 84c-57 0 -111 -61 -111 -134c0 -54 32 -100 78 -100z" />
    <glyph glyph-name="egrave" unicode="&#xe8;" horiz-adv-x="402" 
d="M17 168c0 125 95 242 235 242c79 0 128 -45 128 -106c0 -102 -149 -136 -251 -137c-3 -41 16 -73 66 -73c24 0 54 12 71 24c9 6 18 8 23 0l33 -47c5 -7 5 -18 -3 -26c-35 -32 -85 -55 -143 -55c-96 0 -159 82 -159 178zM144 245c48 1 123 15 123 47c0 14 -11 25 -34 25
c-40 0 -78 -38 -89 -72zM331 531l-150 77c-7 4 -11 14 -2 27l29 43c9 14 22 12 27 8l137 -97c5 -3 8 -11 3 -19l-20 -33c-6 -9 -13 -12 -24 -6z" />
    <glyph glyph-name="eacute" unicode="&#xe9;" horiz-adv-x="402" 
d="M17 168c0 125 95 242 235 242c79 0 128 -45 128 -106c0 -102 -149 -136 -251 -137c-3 -41 16 -73 66 -73c24 0 54 12 71 24c9 6 18 8 23 0l33 -47c5 -7 5 -18 -3 -26c-35 -32 -85 -55 -143 -55c-96 0 -159 82 -159 178zM144 245c48 1 123 15 123 47c0 14 -11 25 -34 25
c-40 0 -78 -38 -89 -72zM202 528c-14 -6 -19 -3 -23 6l-16 39c-3 8 0 15 8 19l164 97c9 6 19 6 24 -5l24 -52c6 -12 0 -23 -9 -27z" />
    <glyph glyph-name="ecircumflex" unicode="&#xea;" horiz-adv-x="402" 
d="M17 168c0 125 95 242 235 242c79 0 128 -45 128 -106c0 -102 -149 -136 -251 -137c-3 -41 16 -73 66 -73c24 0 54 12 71 24c9 6 18 8 23 0l33 -47c5 -7 5 -18 -3 -26c-35 -32 -85 -55 -143 -55c-96 0 -159 82 -159 178zM144 245c48 1 123 15 123 47c0 14 -11 25 -34 25
c-40 0 -78 -38 -89 -72zM151 529l-22 33c-7 10 -2 18 5 23l134 101c7 5 14 6 21 0l106 -101c5 -4 8 -12 3 -19l-29 -37c-6 -8 -12 -10 -20 -3l-78 62l-100 -62c-11 -7 -15 -4 -20 3z" />
    <glyph glyph-name="ecaron" unicode="&#x11b;" horiz-adv-x="402" 
d="M17 168c0 125 95 242 235 242c79 0 128 -45 128 -106c0 -102 -149 -136 -251 -137c-3 -41 16 -73 66 -73c24 0 54 12 71 24c9 6 18 8 23 0l33 -47c5 -7 5 -18 -3 -26c-35 -32 -85 -55 -143 -55c-96 0 -159 82 -159 178zM144 245c48 1 123 15 123 47c0 14 -11 25 -34 25
c-40 0 -78 -38 -89 -72zM256 525l-106 101c-5 4 -8 12 -3 19l29 37c6 8 12 10 20 3l78 -62l100 62c11 7 15 4 20 -3l22 -33c7 -10 2 -18 -5 -23l-134 -101c-7 -5 -14 -6 -21 0z" />
    <glyph glyph-name="edieresis" unicode="&#xeb;" horiz-adv-x="402" 
d="M17 168c0 125 95 242 235 242c79 0 128 -45 128 -106c0 -102 -149 -136 -251 -137c-3 -41 16 -73 66 -73c24 0 54 12 71 24c9 6 18 8 23 0l33 -47c5 -7 5 -18 -3 -26c-35 -32 -85 -55 -143 -55c-96 0 -159 82 -159 178zM144 245c48 1 123 15 123 47c0 14 -11 25 -34 25
c-40 0 -78 -38 -89 -72zM356 551c-32 0 -53 29 -48 64c4 35 33 63 65 63c31 0 54 -28 50 -63c-5 -35 -36 -64 -67 -64zM175 551c-31 0 -53 29 -48 64c4 35 34 63 65 63c32 0 54 -28 50 -63c-5 -35 -35 -64 -67 -64z" />
    <glyph glyph-name="emacron" unicode="&#x113;" horiz-adv-x="402" 
d="M17 168c0 125 95 242 235 242c79 0 128 -45 128 -106c0 -102 -149 -136 -251 -137c-3 -41 16 -73 66 -73c24 0 54 12 71 24c9 6 18 8 23 0l33 -47c5 -7 5 -18 -3 -26c-35 -32 -85 -55 -143 -55c-96 0 -159 82 -159 178zM144 245c48 1 123 15 123 47c0 14 -11 25 -34 25
c-40 0 -78 -38 -89 -72zM153 570c-10 0 -15 8 -14 18l4 34c1 11 10 19 20 19h231c9 0 16 -8 14 -19l-5 -34c-1 -10 -9 -18 -19 -18h-231z" />
    <glyph glyph-name="ebreve" unicode="&#x115;" horiz-adv-x="402" 
d="M17 168c0 125 95 242 235 242c79 0 128 -45 128 -106c0 -102 -149 -136 -251 -137c-3 -41 16 -73 66 -73c24 0 54 12 71 24c9 6 18 8 23 0l33 -47c5 -7 5 -18 -3 -26c-35 -32 -85 -55 -143 -55c-96 0 -159 82 -159 178zM144 245c48 1 123 15 123 47c0 14 -11 25 -34 25
c-40 0 -78 -38 -89 -72zM267 528c-63 0 -111 51 -111 118c0 12 9 22 20 22h36c7 0 12 -7 13 -14c4 -31 20 -53 50 -53c28 0 52 25 63 53c3 8 11 14 18 14h41c11 0 16 -10 14 -22c-20 -67 -74 -118 -144 -118z" />
    <glyph glyph-name="edotaccent" unicode="&#x117;" horiz-adv-x="402" 
d="M17 168c0 125 95 242 235 242c79 0 128 -45 128 -106c0 -102 -149 -136 -251 -137c-3 -41 16 -73 66 -73c24 0 54 12 71 24c9 6 18 8 23 0l33 -47c5 -7 5 -18 -3 -26c-35 -32 -85 -55 -143 -55c-96 0 -159 82 -159 178zM144 245c48 1 123 15 123 47c0 14 -11 25 -34 25
c-40 0 -78 -38 -89 -72zM264 536c-34 0 -59 28 -59 63c0 45 38 81 80 81c34 0 59 -28 59 -63c0 -45 -38 -81 -80 -81z" />
    <glyph glyph-name="eogonek" unicode="&#x119;" horiz-adv-x="404" 
d="M150 -7c-81 13 -132 88 -132 175c0 125 95 242 235 242c79 0 128 -45 128 -106c0 -102 -149 -136 -251 -137c-3 -41 16 -73 66 -73c24 0 54 12 71 24c9 6 18 8 23 0l33 -47c5 -7 5 -18 -3 -26c-28 -25 -64 -45 -106 -52c-21 -21 -48 -56 -48 -99c0 -30 16 -54 53 -54
c16 0 29 6 40 9s19 -5 17 -17l-4 -30c-1 -10 -9 -16 -16 -19c-5 -3 -34 -10 -60 -10c-54 0 -105 31 -105 93c0 59 34 102 59 127zM145 245c48 1 123 15 123 47c0 14 -11 25 -34 25c-40 0 -78 -38 -89 -72z" />
    <glyph glyph-name="gcircumflex" unicode="&#x11d;" horiz-adv-x="469" 
d="M170 -10c-89 0 -152 80 -152 181c0 129 92 239 206 239c57 0 98 -35 112 -55l18 32c4 7 12 13 18 13h39c9 0 16 -8 14 -19l-59 -425c-23 -162 -106 -216 -216 -216c-64 0 -118 37 -140 61c-10 10 -18 21 -4 38l34 43c11 14 23 8 33 0c13 -11 41 -35 81 -35
c48 0 75 34 88 112l8 53c-18 -10 -51 -22 -80 -22zM132 179c0 -47 26 -81 68 -81c41 0 65 23 65 23l21 140c-5 13 -24 41 -62 41c-51 0 -92 -59 -92 -123zM149 529l-22 33c-7 10 -2 18 5 23l134 101c7 5 14 6 21 0l106 -101c5 -4 8 -12 3 -19l-29 -37c-6 -8 -12 -10 -20 -3
l-78 62l-100 -62c-11 -7 -15 -4 -20 3z" />
    <glyph glyph-name="gbreve" unicode="&#x11f;" horiz-adv-x="469" 
d="M170 -10c-89 0 -152 80 -152 181c0 129 92 239 206 239c57 0 98 -35 112 -55l18 32c4 7 12 13 18 13h39c9 0 16 -8 14 -19l-59 -425c-23 -162 -106 -216 -216 -216c-64 0 -118 37 -140 61c-10 10 -18 21 -4 38l34 43c11 14 23 8 33 0c13 -11 41 -35 81 -35
c48 0 75 34 88 112l8 53c-18 -10 -51 -22 -80 -22zM132 179c0 -47 26 -81 68 -81c41 0 65 23 65 23l21 140c-5 13 -24 41 -62 41c-51 0 -92 -59 -92 -123zM265 528c-63 0 -111 51 -111 118c0 12 9 22 20 22h36c7 0 12 -7 13 -14c4 -31 20 -53 50 -53c28 0 52 25 63 53
c3 8 11 14 18 14h41c11 0 16 -10 14 -22c-20 -67 -74 -118 -144 -118z" />
    <glyph glyph-name="gdotaccent" unicode="&#x121;" horiz-adv-x="469" 
d="M170 -10c-89 0 -152 80 -152 181c0 129 92 239 206 239c57 0 98 -35 112 -55l18 32c4 7 12 13 18 13h39c9 0 16 -8 14 -19l-59 -425c-23 -162 -106 -216 -216 -216c-64 0 -118 37 -140 61c-10 10 -18 21 -4 38l34 43c11 14 23 8 33 0c13 -11 41 -35 81 -35
c48 0 75 34 88 112l8 53c-18 -10 -51 -22 -80 -22zM132 179c0 -47 26 -81 68 -81c41 0 65 23 65 23l21 140c-5 13 -24 41 -62 41c-51 0 -92 -59 -92 -123zM259 536c-34 0 -59 28 -59 63c0 45 38 81 80 81c34 0 59 -28 59 -63c0 -45 -38 -81 -80 -81z" />
    <glyph glyph-name="gcommaaccent" unicode="&#x123;" horiz-adv-x="469" 
d="M261 529c-29 0 -65 22 -65 86c0 109 78 176 107 201c7 6 13 7 20 -1l14 -16c6 -6 2 -16 -5 -22c-9 -9 -68 -53 -80 -119c1 0 15 5 33 5c31 0 54 -26 54 -59c0 -40 -35 -75 -78 -75zM170 -10c-89 0 -152 80 -152 181c0 129 92 239 206 239c57 0 98 -35 112 -55l18 32
c4 7 12 13 18 13h39c9 0 16 -8 14 -19l-59 -425c-23 -162 -106 -216 -216 -216c-64 0 -118 37 -140 61c-10 10 -18 21 -4 38l34 43c11 14 23 8 33 0c13 -11 41 -35 81 -35c48 0 75 34 88 112l8 53c-18 -10 -51 -22 -80 -22zM132 179c0 -47 26 -81 68 -81c41 0 65 23 65 23
l21 140c-5 13 -24 41 -62 41c-51 0 -92 -59 -92 -123z" />
    <glyph glyph-name="hcircumflex" unicode="&#x125;" horiz-adv-x="488" 
d="M22 19l93 662c1 10 11 19 20 19h89c9 0 16 -9 15 -19l-43 -304c22 17 60 33 93 33c114 0 154 -98 140 -199l-27 -192c-1 -10 -11 -19 -20 -19h-86c-10 0 -15 9 -14 19l27 194c8 55 -12 89 -56 89c-49 0 -75 -54 -75 -54l-32 -229c-2 -11 -8 -19 -22 -19h-88
c-9 0 -15 9 -14 19zM72 746l-22 33c-7 10 -2 18 5 23l134 101c7 5 14 6 21 0l106 -101c5 -4 8 -12 3 -19l-29 -37c-6 -8 -12 -10 -20 -3l-78 62l-100 -62c-11 -7 -15 -4 -20 3z" />
    <glyph glyph-name="hbar" unicode="&#x127;" horiz-adv-x="488" 
d="M22 19l72 514h-28c-9 0 -15 9 -13 19l2 15c2 10 9 17 18 17h28l14 97c1 10 11 19 20 19h89c9 0 16 -9 15 -19l-14 -97h95c10 0 15 -9 14 -19l-2 -14c-1 -10 -9 -18 -19 -18h-95l-22 -156c22 17 60 33 93 33c114 0 154 -98 140 -199l-27 -192c-1 -10 -11 -19 -20 -19h-86
c-10 0 -15 9 -14 19l27 194c8 55 -12 89 -56 89c-49 0 -75 -54 -75 -54l-32 -229c-2 -11 -8 -19 -22 -19h-88c-9 0 -15 9 -14 19z" />
    <glyph glyph-name="dotlessi" unicode="&#x131;" 
d="M22 19l51 362c2 11 11 19 20 19h88c9 0 16 -8 15 -19l-51 -362c-1 -10 -11 -19 -20 -19h-88c-9 0 -16 9 -15 19z" />
    <glyph glyph-name="igrave" unicode="&#xec;" 
d="M221 531l-150 77c-7 4 -11 14 -2 27l29 43c9 14 22 12 27 8l137 -97c5 -3 8 -11 3 -19l-20 -33c-6 -9 -13 -12 -24 -6zM22 19l51 362c2 11 11 19 20 19h88c9 0 16 -8 15 -19l-51 -362c-1 -10 -11 -19 -20 -19h-88c-9 0 -16 9 -15 19z" />
    <glyph glyph-name="iacute" unicode="&#xed;" 
d="M93 528c-14 -6 -19 -3 -23 6l-16 39c-3 8 0 15 8 19l164 97c9 6 19 6 24 -5l24 -52c6 -12 0 -23 -9 -27zM22 19l51 362c2 11 11 19 20 19h88c9 0 16 -8 15 -19l-51 -362c-1 -10 -11 -19 -20 -19h-88c-9 0 -16 9 -15 19z" />
    <glyph glyph-name="ibreve" unicode="&#x12d;" 
d="M162 528c-63 0 -111 51 -111 118c0 12 9 22 20 22h36c7 0 12 -7 13 -14c4 -31 20 -53 50 -53c28 0 52 25 63 53c3 8 11 14 18 14h41c11 0 16 -10 14 -22c-20 -67 -74 -118 -144 -118zM22 19l51 362c2 11 11 19 20 19h88c9 0 16 -8 15 -19l-51 -362
c-1 -10 -11 -19 -20 -19h-88c-9 0 -16 9 -15 19z" />
    <glyph glyph-name="icircumflex" unicode="&#xee;" 
d="M22 19l51 362c2 11 11 19 20 19h88c9 0 16 -8 15 -19l-51 -362c-1 -10 -11 -19 -20 -19h-88c-9 0 -16 9 -15 19zM42 529l-22 33c-7 10 -2 18 5 23l134 101c7 5 14 6 21 0l106 -101c5 -4 8 -12 3 -19l-29 -37c-6 -8 -12 -10 -20 -3l-78 62l-100 -62c-11 -7 -15 -4 -20 3z
" />
    <glyph glyph-name="itilde" unicode="&#x129;" 
d="M53 562l-27 21c-8 8 -6 16 -2 23c10 20 45 84 102 84c45 0 62 -55 94 -55c16 0 25 17 32 31c6 12 19 18 30 10l23 -18c11 -8 9 -19 2 -33c-9 -19 -43 -76 -96 -76c-47 0 -70 56 -96 56c-19 0 -30 -24 -38 -39c-4 -8 -16 -11 -24 -4zM22 19l51 362c2 11 11 19 20 19h88
c9 0 16 -8 15 -19l-51 -362c-1 -10 -11 -19 -20 -19h-88c-9 0 -16 9 -15 19z" />
    <glyph glyph-name="idieresis" unicode="&#xef;" 
d="M247 551c-32 0 -53 29 -48 64c4 35 33 63 65 63c31 0 54 -28 50 -63c-5 -35 -36 -64 -67 -64zM66 551c-31 0 -53 29 -48 64c4 35 34 63 65 63c32 0 54 -28 50 -63c-5 -35 -35 -64 -67 -64zM22 19l51 362c2 11 11 19 20 19h88c9 0 16 -8 15 -19l-51 -362
c-1 -10 -11 -19 -20 -19h-88c-9 0 -16 9 -15 19z" />
    <glyph glyph-name="imacron" unicode="&#x12b;" 
d="M43 570c-10 0 -15 8 -14 18l4 34c1 11 10 19 20 19h231c9 0 16 -8 14 -19l-5 -34c-1 -10 -9 -18 -19 -18h-231zM22 19l51 362c2 11 11 19 20 19h88c9 0 16 -8 15 -19l-51 -362c-1 -10 -11 -19 -20 -19h-88c-9 0 -16 9 -15 19z" />
    <glyph glyph-name="iogonek" unicode="&#x12f;" 
d="M156 542c-34 0 -58 27 -58 60c0 43 37 78 77 78c35 0 60 -27 60 -61c0 -42 -38 -77 -79 -77zM22 19l51 362c2 11 11 19 20 19h88c9 0 17 -8 15 -19l-51 -362c-1 -10 -11 -19 -20 -19h-15c-21 -19 -55 -58 -55 -106c0 -30 16 -54 53 -54c16 0 29 6 40 9s19 -5 17 -17
l-4 -30c-1 -10 -9 -16 -16 -19c-5 -3 -34 -10 -60 -10c-54 0 -105 31 -105 93c0 65 42 112 67 134h-10c-9 0 -16 9 -15 19z" />
    <glyph glyph-name="dotlessj" unicode="&#x237;" 
d="M3 -108l68 489c2 11 11 19 20 19h90c9 0 16 -8 14 -19l-71 -498c-17 -123 -87 -193 -191 -193c-49 0 -98 27 -111 39c-6 6 -6 17 0 26l31 55c7 11 18 12 25 8c11 -6 31 -16 53 -16c40 0 64 32 72 90z" />
    <glyph glyph-name="jcircumflex" unicode="&#x135;" 
d="M3 -108l68 489c2 11 11 19 20 19h90c9 0 16 -8 14 -19l-71 -498c-17 -123 -87 -193 -191 -193c-49 0 -98 27 -111 39c-6 6 -6 17 0 26l31 55c7 11 18 12 25 8c11 -6 31 -16 53 -16c40 0 64 32 72 90zM43 529l-22 33c-7 10 -2 18 5 23l134 101c7 5 14 6 21 0l106 -101
c5 -4 8 -12 3 -19l-29 -37c-6 -8 -12 -10 -20 -3l-78 62l-100 -62c-11 -7 -15 -4 -20 3z" />
    <glyph glyph-name="kcommaaccent" unicode="&#x137;" horiz-adv-x="463" 
d="M22 19l93 662c1 10 11 19 20 19h89c9 0 16 -9 15 -19l-61 -433l122 140c6 7 14 12 24 12h108c15 0 18 -16 7 -27l-153 -161l131 -187c8 -11 1 -25 -15 -25h-104c-6 0 -10 4 -13 8l-116 180l-23 -169c-2 -10 -11 -19 -20 -19h-90c-9 0 -16 9 -14 19zM129 -166
c0 40 35 75 78 75c29 0 65 -22 65 -86c0 -109 -78 -176 -107 -201c-7 -6 -13 -7 -20 1l-14 16c-6 6 -2 16 5 22c9 9 68 53 80 119c-1 0 -15 -5 -33 -5c-31 0 -54 26 -54 59z" />
    <glyph glyph-name="kgreenlandic" unicode="&#x138;" horiz-adv-x="455" 
d="M22 19l51 362c1 10 12 19 21 19h89c9 0 15 -9 14 -19l-22 -159l135 166c6 7 15 12 25 12h102c16 0 18 -18 8 -29l-168 -183l120 -160c8 -11 -1 -28 -16 -28h-99c-6 0 -12 4 -14 8l-102 154l-20 -143c-1 -10 -11 -19 -20 -19h-89c-9 0 -16 9 -15 19z" />
    <glyph glyph-name="lacute" unicode="&#x13a;" horiz-adv-x="240" 
d="M22 19l93 662c1 10 11 19 20 19h88c9 0 16 -9 15 -19l-93 -662c-1 -10 -11 -19 -20 -19h-89c-9 0 -15 9 -14 19zM124 745c-14 -6 -19 -3 -23 6l-16 39c-3 8 0 15 8 19l164 97c9 6 19 6 24 -5l24 -52c6 -12 0 -23 -9 -27z" />
    <glyph glyph-name="lcaron" unicode="&#x13e;" horiz-adv-x="270" 
d="M22 19l93 662c1 10 11 19 20 19h88c9 0 16 -9 15 -19l-93 -662c-1 -10 -11 -19 -20 -19h-89c-9 0 -15 9 -14 19zM331 424l-14 16c-6 6 -2 16 5 22c9 9 68 53 80 119c-1 0 -15 -5 -33 -5c-31 0 -54 26 -54 59c0 40 35 75 78 75c29 0 65 -22 65 -86
c0 -109 -78 -176 -107 -201c-7 -6 -13 -7 -20 1z" />
    <glyph glyph-name="lcommaaccent" unicode="&#x13c;" horiz-adv-x="240" 
d="M21 19l93 662c1 10 11 19 20 19h88c9 0 16 -9 15 -19l-93 -662c-1 -10 -11 -19 -20 -19h-89c-9 0 -15 9 -14 19zM-12 -166c0 40 35 75 78 75c29 0 65 -22 65 -86c0 -109 -78 -176 -107 -201c-7 -6 -13 -7 -20 1l-14 16c-6 6 -2 16 5 22c9 9 68 53 80 119
c-1 0 -15 -5 -33 -5c-31 0 -54 26 -54 59z" />
    <glyph glyph-name="lslash" unicode="&#x142;" horiz-adv-x="252" 
d="M34 19l41 292l-29 -19c-9 -6 -19 -2 -23 7l-5 12c-3 8 1 20 9 25l56 34l44 311c1 10 11 19 20 19h88c9 0 16 -9 15 -19l-34 -239l55 37c9 6 20 2 23 -7l5 -13c3 -8 0 -19 -9 -25l-82 -52l-51 -363c-2 -10 -11 -19 -20 -19h-89c-9 0 -16 9 -14 19z" />
    <glyph glyph-name="ldot" unicode="&#x140;" horiz-adv-x="369" 
d="M22 19l93 662c1 10 11 19 20 19h88c9 0 16 -9 15 -19l-93 -662c-1 -10 -11 -19 -20 -19h-89c-9 0 -15 9 -14 19zM306 288c-34 0 -59 28 -59 63c0 45 38 81 80 81c34 0 59 -28 59 -63c0 -45 -38 -81 -80 -81z" />
    <glyph glyph-name="nacute" unicode="&#x144;" horiz-adv-x="486" 
d="M22 19l51 362c1 11 10 19 19 19h39c6 0 13 -5 14 -12l9 -37c19 17 68 59 135 59c110 0 153 -95 138 -199l-27 -192c-1 -10 -10 -19 -19 -19h-87c-10 0 -15 9 -14 19l29 198c7 52 -11 85 -51 85c-52 0 -86 -56 -86 -56l-32 -227c-2 -14 -7 -19 -21 -19h-83
c-9 0 -16 9 -14 19zM226 528c-14 -6 -19 -3 -23 6l-16 39c-3 8 0 15 8 19l164 97c9 6 19 6 24 -5l24 -52c6 -12 0 -23 -9 -27z" />
    <glyph glyph-name="ncaron" unicode="&#x148;" horiz-adv-x="486" 
d="M22 19l51 362c1 11 10 19 19 19h39c6 0 13 -5 14 -12l9 -37c19 17 68 59 135 59c110 0 153 -95 138 -199l-27 -192c-1 -10 -10 -19 -19 -19h-87c-10 0 -15 9 -14 19l29 198c7 52 -11 85 -51 85c-52 0 -86 -56 -86 -56l-32 -227c-2 -14 -7 -19 -21 -19h-83
c-9 0 -16 9 -14 19zM276 525l-106 101c-5 4 -8 12 -3 19l29 37c6 8 12 10 20 3l78 -62l100 62c11 7 15 4 20 -3l22 -33c7 -10 2 -18 -5 -23l-134 -101c-7 -5 -14 -6 -21 0z" />
    <glyph glyph-name="ntilde" unicode="&#xf1;" horiz-adv-x="486" 
d="M22 19l51 362c1 11 10 19 19 19h39c6 0 13 -5 14 -12l9 -37c19 17 68 59 135 59c110 0 153 -95 138 -199l-27 -192c-1 -10 -10 -19 -19 -19h-87c-10 0 -15 9 -14 19l29 198c7 52 -11 85 -51 85c-52 0 -86 -56 -86 -56l-32 -227c-2 -14 -7 -19 -21 -19h-83
c-9 0 -16 9 -14 19zM186 562l-27 21c-8 8 -6 16 -2 23c10 20 45 84 102 84c45 0 62 -55 94 -55c16 0 25 17 32 31c6 12 19 18 30 10l23 -18c11 -8 9 -19 2 -33c-9 -19 -43 -76 -96 -76c-47 0 -70 56 -96 56c-19 0 -30 -24 -38 -39c-4 -8 -16 -11 -24 -4z" />
    <glyph glyph-name="ncommaaccent" unicode="&#x146;" horiz-adv-x="487" 
d="M22 19l51 362c1 11 10 19 19 19h39c6 0 13 -5 14 -12l9 -37c19 17 68 59 135 59c110 0 153 -95 138 -199l-27 -192c-1 -10 -10 -19 -19 -19h-87c-10 0 -15 9 -14 19l29 198c7 52 -11 85 -51 85c-52 0 -86 -56 -86 -56l-32 -227c-2 -14 -7 -19 -21 -19h-83
c-9 0 -16 9 -14 19zM121 -166c0 40 35 75 78 75c29 0 65 -22 65 -86c0 -109 -78 -176 -107 -201c-7 -6 -13 -7 -20 1l-14 16c-6 6 -2 16 5 22c9 9 68 53 80 119c-1 0 -15 -5 -33 -5c-31 0 -54 26 -54 59z" />
    <glyph glyph-name="napostrophe" unicode="&#x149;" horiz-adv-x="486" 
d="M21 19l51 362c1 11 10 19 19 19h39c6 0 13 -5 14 -12l9 -37c19 17 68 59 135 59c110 0 153 -95 138 -199l-27 -192c-1 -10 -10 -19 -19 -19h-87c-10 0 -15 9 -14 19l29 198c7 52 -11 85 -51 85c-52 0 -86 -56 -86 -56l-32 -227c-2 -14 -7 -19 -21 -19h-83
c-9 0 -16 9 -14 19zM-128 635c0 40 35 75 78 75c29 0 65 -22 65 -86c0 -109 -78 -176 -107 -201c-7 -6 -13 -7 -20 1l-14 16c-6 6 -2 16 5 22c9 9 68 53 80 119c-1 0 -15 -5 -33 -5c-31 0 -54 26 -54 59z" />
    <glyph glyph-name="ograve" unicode="&#xf2;" horiz-adv-x="435" 
d="M18 173c0 128 98 237 218 237c92 0 159 -84 159 -182c0 -129 -100 -238 -218 -238c-93 0 -159 87 -159 183zM192 98c48 0 92 54 92 119c0 47 -25 85 -63 85c-49 0 -93 -53 -93 -117c0 -48 25 -87 64 -87zM318 531l-150 77c-7 4 -11 14 -2 27l29 43c9 14 22 12 27 8
l137 -97c5 -3 8 -11 3 -19l-20 -33c-6 -9 -13 -12 -24 -6z" />
    <glyph glyph-name="oacute" unicode="&#xf3;" horiz-adv-x="435" 
d="M18 173c0 128 98 237 218 237c92 0 159 -84 159 -182c0 -129 -100 -238 -218 -238c-93 0 -159 87 -159 183zM192 98c48 0 92 54 92 119c0 47 -25 85 -63 85c-49 0 -93 -53 -93 -117c0 -48 25 -87 64 -87zM190 528c-14 -6 -19 -3 -23 6l-16 39c-3 8 0 15 8 19l164 97
c9 6 19 6 24 -5l24 -52c6 -12 0 -23 -9 -27z" />
    <glyph glyph-name="ocircumflex" unicode="&#xf4;" horiz-adv-x="435" 
d="M18 173c0 128 98 237 218 237c92 0 159 -84 159 -182c0 -129 -100 -238 -218 -238c-93 0 -159 87 -159 183zM192 98c48 0 92 54 92 119c0 47 -25 85 -63 85c-49 0 -93 -53 -93 -117c0 -48 25 -87 64 -87zM139 529l-22 33c-7 10 -2 18 5 23l134 101c7 5 14 6 21 0
l106 -101c5 -4 8 -12 3 -19l-29 -37c-6 -8 -12 -10 -20 -3l-78 62l-100 -62c-11 -7 -15 -4 -20 3z" />
    <glyph glyph-name="otilde" unicode="&#xf5;" horiz-adv-x="435" 
d="M18 173c0 128 98 237 218 237c92 0 159 -84 159 -182c0 -129 -100 -238 -218 -238c-93 0 -159 87 -159 183zM192 98c48 0 92 54 92 119c0 47 -25 85 -63 85c-49 0 -93 -53 -93 -117c0 -48 25 -87 64 -87zM150 562l-27 21c-8 8 -6 16 -2 23c10 20 45 84 102 84
c45 0 62 -55 94 -55c16 0 25 17 32 31c6 12 19 18 30 10l23 -18c11 -8 9 -19 2 -33c-9 -19 -43 -76 -96 -76c-47 0 -70 56 -96 56c-19 0 -30 -24 -38 -39c-4 -8 -16 -11 -24 -4z" />
    <glyph glyph-name="odieresis" unicode="&#xf6;" horiz-adv-x="435" 
d="M18 173c0 128 98 237 218 237c92 0 159 -84 159 -182c0 -129 -100 -238 -218 -238c-93 0 -159 87 -159 183zM192 98c48 0 92 54 92 119c0 47 -25 85 -63 85c-49 0 -93 -53 -93 -117c0 -48 25 -87 64 -87zM345 551c-32 0 -53 29 -48 64c4 35 33 63 65 63
c31 0 54 -28 50 -63c-5 -35 -36 -64 -67 -64zM164 551c-31 0 -53 29 -48 64c4 35 34 63 65 63c32 0 54 -28 50 -63c-5 -35 -35 -64 -67 -64z" />
    <glyph glyph-name="omacron" unicode="&#x14d;" horiz-adv-x="435" 
d="M18 173c0 128 98 237 218 237c92 0 159 -84 159 -182c0 -129 -100 -238 -218 -238c-93 0 -159 87 -159 183zM192 98c48 0 92 54 92 119c0 47 -25 85 -63 85c-49 0 -93 -53 -93 -117c0 -48 25 -87 64 -87zM141 570c-10 0 -15 8 -14 18l4 34c1 11 10 19 20 19h231
c9 0 16 -8 14 -19l-5 -34c-1 -10 -9 -18 -19 -18h-231z" />
    <glyph glyph-name="obreve" unicode="&#x14f;" horiz-adv-x="435" 
d="M18 173c0 128 98 237 218 237c92 0 159 -84 159 -182c0 -129 -100 -238 -218 -238c-93 0 -159 87 -159 183zM192 98c48 0 92 54 92 119c0 47 -25 85 -63 85c-49 0 -93 -53 -93 -117c0 -48 25 -87 64 -87zM256 528c-63 0 -111 51 -111 118c0 12 9 22 20 22h36
c7 0 12 -7 13 -14c4 -31 20 -53 50 -53c28 0 52 25 63 53c3 8 11 14 18 14h41c11 0 16 -10 14 -22c-20 -67 -74 -118 -144 -118z" />
    <glyph glyph-name="ohungarumlaut" unicode="&#x151;" horiz-adv-x="435" 
d="M18 173c0 128 98 237 218 237c92 0 159 -84 159 -182c0 -129 -100 -238 -218 -238c-93 0 -159 87 -159 183zM192 98c48 0 92 54 92 119c0 47 -25 85 -63 85c-49 0 -93 -53 -93 -117c0 -48 25 -87 64 -87zM306 521c-9 0 -18 9 -14 19l49 141c4 11 11 19 23 19h75
c17 0 21 -12 12 -25l-89 -139c-5 -8 -11 -15 -22 -15h-34zM157 521c-9 0 -18 9 -14 19l49 141c4 11 11 19 23 19h75c17 0 21 -12 12 -25l-89 -139c-5 -8 -11 -15 -22 -15h-34z" />
    <glyph glyph-name="oslash" unicode="&#xf8;" horiz-adv-x="435" 
d="M22 14l-9 10c-6 6 -4 19 3 26l26 25c-15 29 -24 63 -24 98c0 128 98 237 218 237c42 0 79 -18 107 -47l28 27c8 7 17 6 23 0l9 -10c6 -7 4 -18 -4 -26l-29 -28c16 -28 25 -62 25 -98c0 -129 -100 -238 -218 -238c-43 0 -80 18 -107 47l-25 -24c-7 -7 -17 -5 -23 1z
M130 159l130 125c-10 11 -24 18 -39 18c-49 0 -93 -53 -93 -117c0 -9 1 -18 2 -26zM151 116c11 -11 25 -18 41 -18c48 0 92 54 92 119c0 8 -1 16 -2 24z" />
    <glyph glyph-name="oslashacute" unicode="&#x1ff;" horiz-adv-x="435" 
d="M192 528c-14 -6 -19 -3 -23 6l-16 39c-3 8 0 15 8 19l164 97c9 6 19 6 24 -5l24 -52c6 -12 0 -23 -9 -27zM22 14l-9 10c-6 6 -4 19 3 26l26 25c-15 29 -24 63 -24 98c0 128 98 237 218 237c42 0 79 -18 107 -47l28 27c8 7 17 6 23 0l9 -10c6 -7 4 -18 -4 -26l-29 -28
c16 -28 25 -62 25 -98c0 -129 -100 -238 -218 -238c-43 0 -80 18 -107 47l-25 -24c-7 -7 -17 -5 -23 1zM130 159l130 125c-10 11 -24 18 -39 18c-49 0 -93 -53 -93 -117c0 -9 1 -18 2 -26zM151 116c11 -11 25 -18 41 -18c48 0 92 54 92 119c0 8 -1 16 -2 24z" />
    <glyph glyph-name="oe" unicode="&#x153;" horiz-adv-x="654" 
d="M19 174c0 128 88 236 215 236c48 0 91 -25 118 -63c34 38 91 63 147 63c84 0 133 -45 133 -106c0 -102 -149 -136 -251 -137c-3 -41 16 -73 66 -73c24 0 54 12 71 24c9 6 18 8 23 0l33 -47c5 -7 5 -18 -3 -26c-35 -32 -85 -55 -143 -55c-55 0 -91 25 -119 65
c-32 -38 -72 -65 -128 -65c-95 0 -162 85 -162 184zM398 245c48 1 123 15 123 47c0 14 -11 25 -34 25c-40 0 -78 -38 -89 -72zM193 98c49 0 94 55 94 120c0 47 -27 84 -65 84c-49 0 -94 -51 -94 -116c0 -48 27 -88 65 -88z" />
    <glyph glyph-name="racute" unicode="&#x155;" horiz-adv-x="324" 
d="M22 19l51 362c1 11 10 19 19 19h39c6 0 13 -6 15 -13l9 -39c15 21 57 62 108 62c29 0 53 -9 63 -16c7 -5 8 -13 2 -24l-37 -65c-5 -9 -12 -12 -21 -8s-25 6 -34 6c-37 0 -61 -42 -61 -42l-34 -242c-2 -14 -9 -19 -23 -19h-82c-9 0 -16 9 -14 19zM142 528
c-14 -6 -19 -3 -23 6l-16 39c-3 8 0 15 8 19l164 97c9 6 19 6 24 -5l24 -52c6 -12 0 -23 -9 -27z" />
    <glyph glyph-name="rcaron" unicode="&#x159;" horiz-adv-x="324" 
d="M22 19l51 362c1 11 10 19 19 19h39c6 0 13 -6 15 -13l9 -39c15 21 57 62 108 62c29 0 53 -9 63 -16c7 -5 8 -13 2 -24l-37 -65c-5 -9 -12 -12 -21 -8s-25 6 -34 6c-37 0 -61 -42 -61 -42l-34 -242c-2 -14 -9 -19 -23 -19h-82c-9 0 -16 9 -14 19zM196 525l-106 101
c-5 4 -8 12 -3 19l29 37c6 8 12 10 20 3l78 -62l100 62c11 7 15 4 20 -3l22 -33c7 -10 2 -18 -5 -23l-134 -101c-7 -5 -14 -6 -21 0z" />
    <glyph glyph-name="rcommaaccent" unicode="&#x157;" horiz-adv-x="324" 
d="M21 19l51 362c1 11 10 19 19 19h39c6 0 13 -6 15 -13l9 -39c15 21 57 62 108 62c29 0 53 -9 63 -16c7 -5 8 -13 2 -24l-37 -65c-5 -9 -12 -12 -21 -8s-25 6 -34 6c-37 0 -61 -42 -61 -42l-34 -242c-2 -14 -9 -19 -23 -19h-82c-9 0 -16 9 -14 19zM-11 -166
c0 40 35 75 78 75c29 0 65 -22 65 -86c0 -109 -78 -176 -107 -201c-7 -6 -13 -7 -20 1l-14 16c-6 6 -2 16 5 22c9 9 68 53 80 119c-1 0 -15 -5 -33 -5c-31 0 -54 26 -54 59z" />
    <glyph glyph-name="sacute" unicode="&#x15b;" horiz-adv-x="344" 
d="M11 29c-7 6 -6 16 -1 24l33 51c4 7 16 10 23 5c12 -8 40 -19 72 -19c18 0 32 9 32 23c0 20 -10 30 -54 56c-50 28 -81 59 -81 116c0 64 38 125 151 125c55 0 98 -20 115 -33c8 -6 12 -19 5 -29l-34 -50c-5 -7 -16 -11 -26 -4c-9 5 -36 15 -67 15c-21 0 -32 -8 -32 -23
s12 -24 40 -39c60 -33 105 -63 105 -127c0 -69 -53 -130 -158 -130c-65 0 -106 25 -123 39zM145 528c-14 -6 -19 -3 -23 6l-16 39c-3 8 0 15 8 19l164 97c9 6 19 6 24 -5l24 -52c6 -12 0 -23 -9 -27z" />
    <glyph glyph-name="scircumflex" unicode="&#x15d;" horiz-adv-x="344" 
d="M11 29c-7 6 -6 16 -1 24l33 51c4 7 16 10 23 5c12 -8 40 -19 72 -19c18 0 32 9 32 23c0 20 -10 30 -54 56c-50 28 -81 59 -81 116c0 64 38 125 151 125c55 0 98 -20 115 -33c8 -6 12 -19 5 -29l-34 -50c-5 -7 -16 -11 -26 -4c-9 5 -36 15 -67 15c-21 0 -32 -8 -32 -23
s12 -24 40 -39c60 -33 105 -63 105 -127c0 -69 -53 -130 -158 -130c-65 0 -106 25 -123 39zM94 529l-22 33c-7 10 -2 18 5 23l134 101c7 5 14 6 21 0l106 -101c5 -4 8 -12 3 -19l-29 -37c-6 -8 -12 -10 -20 -3l-78 62l-100 -62c-11 -7 -15 -4 -20 3z" />
    <glyph glyph-name="scaron" unicode="&#x161;" horiz-adv-x="344" 
d="M11 29c-7 6 -6 16 -1 24l33 51c4 7 16 10 23 5c12 -8 40 -19 72 -19c18 0 32 9 32 23c0 20 -10 30 -54 56c-50 28 -81 59 -81 116c0 64 38 125 151 125c55 0 98 -20 115 -33c8 -6 12 -19 5 -29l-34 -50c-5 -7 -16 -11 -26 -4c-9 5 -36 15 -67 15c-21 0 -32 -8 -32 -23
s12 -24 40 -39c60 -33 105 -63 105 -127c0 -69 -53 -130 -158 -130c-65 0 -106 25 -123 39zM195 525l-106 101c-5 4 -8 12 -3 19l29 37c6 8 12 10 20 3l78 -62l100 62c11 7 15 4 20 -3l22 -33c7 -10 2 -18 -5 -23l-134 -101c-7 -5 -14 -6 -21 0z" />
    <glyph glyph-name="scedilla" unicode="&#x15f;" horiz-adv-x="346" 
d="M12 29c-7 6 -6 16 -1 24l33 51c4 7 16 10 23 5c12 -8 40 -19 72 -19c18 0 32 9 32 23c0 20 -10 30 -54 56c-50 28 -81 59 -81 116c0 64 38 125 151 125c55 0 98 -20 115 -33c8 -6 12 -19 5 -29l-34 -50c-5 -7 -16 -11 -26 -4c-9 5 -36 15 -67 15c-21 0 -32 -8 -32 -23
s12 -24 40 -39c60 -33 105 -63 105 -127c0 -66 -49 -124 -145 -129l-6 -45c43 -6 72 -39 72 -90c0 -62 -42 -116 -106 -116c-30 0 -57 15 -69 35c-6 9 -3 20 7 28l18 17c6 6 14 5 19 -1s13 -12 26 -12c18 0 35 18 35 44c0 20 -12 38 -57 42c-13 2 -14 13 -13 18l12 84
c-37 8 -62 24 -74 34z" />
    <glyph glyph-name="scommaaccent" unicode="&#x219;" horiz-adv-x="344" 
d="M11 29c-7 6 -6 16 -1 24l33 51c4 7 16 10 23 5c12 -8 40 -19 72 -19c18 0 32 9 32 23c0 20 -10 30 -54 56c-50 28 -81 59 -81 116c0 64 38 125 151 125c55 0 98 -20 115 -33c8 -6 12 -19 5 -29l-34 -50c-5 -7 -16 -11 -26 -4c-9 5 -36 15 -67 15c-21 0 -32 -8 -32 -23
s12 -24 40 -39c60 -33 105 -63 105 -127c0 -69 -53 -130 -158 -130c-65 0 -106 25 -123 39zM46 -166c0 40 35 75 78 75c29 0 65 -22 65 -86c0 -109 -78 -176 -107 -201c-7 -6 -13 -7 -20 1l-14 16c-6 6 -2 16 5 22c9 9 68 53 80 119c-1 0 -15 -5 -33 -5c-31 0 -54 26 -54 59
z" />
    <glyph glyph-name="germandbls" unicode="&#xdf;" horiz-adv-x="485" 
d="M222 10l1 69c0 9 5 19 24 19c32 0 59 17 59 59c0 55 -62 108 -62 163c0 79 95 170 95 238c0 27 -12 44 -37 44c-42 0 -80 -45 -101 -192l-96 -691c-1 -10 -11 -19 -20 -19h-90c-10 0 -14 9 -14 19l96 693c28 200 113 298 250 298c66 0 141 -50 141 -129
c0 -123 -95 -185 -95 -241c0 -39 64 -102 64 -183c0 -117 -95 -167 -178 -167c-14 0 -37 0 -37 20z" />
    <glyph glyph-name="tcaron" unicode="&#x165;" horiz-adv-x="330" 
d="M59 119l25 176h-36c-9 0 -15 9 -14 19l9 67c2 11 10 19 19 19h37l15 111c2 10 11 19 20 19l87 1c9 0 15 -9 13 -19l-15 -112h72c10 0 16 -8 14 -19l-9 -67c-2 -10 -10 -19 -20 -19h-72l-23 -158c-4 -28 10 -32 22 -32c14 0 30 8 40 12s17 -1 19 -11l10 -66
c2 -10 -4 -18 -15 -24c-8 -5 -66 -26 -111 -26c-69 0 -98 48 -87 129zM389 424l-14 16c-6 6 -2 16 5 22c9 9 68 53 80 119c-1 0 -15 -5 -33 -5c-31 0 -54 26 -54 59c0 40 35 75 78 75c29 0 65 -22 65 -86c0 -109 -78 -176 -107 -201c-7 -6 -13 -7 -20 1z" />
    <glyph glyph-name="tcommaaccent" unicode="&#x163;" horiz-adv-x="331" 
d="M59 119l25 176h-36c-9 0 -15 9 -14 19l9 67c2 11 10 19 19 19h37l15 111c2 10 11 19 20 19l87 1c9 0 15 -9 13 -19l-15 -112h72c10 0 16 -8 14 -19l-9 -67c-2 -10 -10 -19 -20 -19h-72l-23 -158c-4 -28 10 -32 22 -32c14 0 30 8 40 12s17 -1 19 -11l10 -66
c2 -10 -4 -18 -15 -24c-8 -5 -66 -26 -111 -26c-69 0 -98 48 -87 129zM63 -166c0 40 35 75 78 75c29 0 65 -22 65 -86c0 -109 -78 -176 -107 -201c-7 -6 -13 -7 -20 1l-14 16c-6 6 -2 16 5 22c9 9 68 53 80 119c-1 0 -15 -5 -33 -5c-31 0 -54 26 -54 59z" />
    <glyph glyph-name="uni021B" unicode="&#x21b;" horiz-adv-x="331" 
d="M59 119l25 176h-36c-9 0 -15 9 -14 19l9 67c2 11 10 19 19 19h37l15 111c2 10 11 19 20 19l87 1c9 0 15 -9 13 -19l-15 -112h72c10 0 16 -8 14 -19l-9 -67c-2 -10 -10 -19 -20 -19h-72l-23 -158c-4 -28 10 -32 22 -32c14 0 30 8 40 12s17 -1 19 -11l10 -66
c2 -10 -4 -18 -15 -24c-8 -5 -66 -26 -111 -26c-69 0 -98 48 -87 129zM63 -166c0 40 35 75 78 75c29 0 65 -22 65 -86c0 -109 -78 -176 -107 -201c-7 -6 -13 -7 -20 1l-14 16c-6 6 -2 16 5 22c9 9 68 53 80 119c-1 0 -15 -5 -33 -5c-31 0 -54 26 -54 59z" />
    <glyph glyph-name="tbar" unicode="&#x167;" horiz-adv-x="330" 
d="M59 119l7 51h-25c-9 0 -14 9 -13 19l2 15c1 10 9 17 18 17h25l11 74h-36c-9 0 -15 9 -14 19l9 67c2 11 10 19 19 19h37l15 111c2 10 11 19 20 19l87 1c9 0 15 -9 13 -19l-15 -112h72c10 0 16 -8 14 -19l-9 -67c-2 -10 -10 -19 -20 -19h-72l-11 -74h70c10 0 15 -9 14 -19
l-2 -14c-1 -10 -9 -18 -19 -18h-70l-5 -33c-4 -28 10 -32 22 -32c14 0 30 8 40 12s17 -1 19 -11l10 -66c2 -10 -4 -18 -15 -24c-8 -5 -66 -26 -111 -26c-69 0 -98 48 -87 129z" />
    <glyph glyph-name="thorn" unicode="&#xfe;" horiz-adv-x="470" 
d="M145 12l-42 -294c-1 -10 -10 -19 -19 -19h-90c-9 0 -16 9 -14 19l135 963c1 10 11 19 20 19h89c9 0 16 -9 15 -19l-42 -297c15 13 50 26 85 26c88 0 147 -83 147 -188c0 -134 -93 -232 -217 -232c-23 0 -55 13 -67 22zM162 126c9 -13 27 -28 56 -28c50 0 94 53 94 118
c0 46 -25 86 -65 86c-46 0 -67 -45 -67 -45z" />
    <glyph glyph-name="ugrave" unicode="&#xf9;" horiz-adv-x="472" 
d="M167 -10c-109 0 -143 95 -128 197l28 194c1 11 10 19 19 19h87c9 0 16 -8 14 -19l-28 -197c-7 -53 10 -86 44 -86c49 0 76 57 76 57l31 226c3 15 11 19 22 19h82c9 0 16 -8 14 -19l-50 -362c-1 -10 -11 -19 -20 -19h-39c-8 0 -13 7 -15 15l-7 33
c-21 -23 -59 -58 -130 -58zM338 531l-150 77c-7 4 -11 14 -2 27l29 43c9 14 22 12 27 8l137 -97c5 -3 8 -11 3 -19l-20 -33c-6 -9 -13 -12 -24 -6z" />
    <glyph glyph-name="uacute" unicode="&#xfa;" horiz-adv-x="472" 
d="M167 -10c-109 0 -143 95 -128 197l28 194c1 11 10 19 19 19h87c9 0 16 -8 14 -19l-28 -197c-7 -53 10 -86 44 -86c49 0 76 57 76 57l31 226c3 15 11 19 22 19h82c9 0 16 -8 14 -19l-50 -362c-1 -10 -11 -19 -20 -19h-39c-8 0 -13 7 -15 15l-7 33
c-21 -23 -59 -58 -130 -58zM210 528c-14 -6 -19 -3 -23 6l-16 39c-3 8 0 15 8 19l164 97c9 6 19 6 24 -5l24 -52c6 -12 0 -23 -9 -27z" />
    <glyph glyph-name="ucircumflex" unicode="&#xfb;" horiz-adv-x="472" 
d="M167 -10c-109 0 -143 95 -128 197l28 194c1 11 10 19 19 19h87c9 0 16 -8 14 -19l-28 -197c-7 -53 10 -86 44 -86c49 0 76 57 76 57l31 226c3 15 11 19 22 19h82c9 0 16 -8 14 -19l-50 -362c-1 -10 -11 -19 -20 -19h-39c-8 0 -13 7 -15 15l-7 33
c-21 -23 -59 -58 -130 -58zM160 529l-22 33c-7 10 -2 18 5 23l134 101c7 5 14 6 21 0l106 -101c5 -4 8 -12 3 -19l-29 -37c-6 -8 -12 -10 -20 -3l-78 62l-100 -62c-11 -7 -15 -4 -20 3z" />
    <glyph glyph-name="utilde" unicode="&#x169;" horiz-adv-x="472" 
d="M167 -10c-109 0 -143 95 -128 197l28 194c1 11 10 19 19 19h87c9 0 16 -8 14 -19l-28 -197c-7 -53 10 -86 44 -86c49 0 76 57 76 57l31 226c3 15 11 19 22 19h82c9 0 16 -8 14 -19l-50 -362c-1 -10 -11 -19 -20 -19h-39c-8 0 -13 7 -15 15l-7 33
c-21 -23 -59 -58 -130 -58zM169 562l-27 21c-8 8 -6 16 -2 23c10 20 45 84 102 84c45 0 62 -55 94 -55c16 0 25 17 32 31c6 12 19 18 30 10l23 -18c11 -8 9 -19 2 -33c-9 -19 -43 -76 -96 -76c-47 0 -70 56 -96 56c-19 0 -30 -24 -38 -39c-4 -8 -16 -11 -24 -4z" />
    <glyph glyph-name="udieresis" unicode="&#xfc;" horiz-adv-x="472" 
d="M167 -10c-109 0 -143 95 -128 197l28 194c1 11 10 19 19 19h87c9 0 16 -8 14 -19l-28 -197c-7 -53 10 -86 44 -86c49 0 76 57 76 57l31 226c3 15 11 19 22 19h82c9 0 16 -8 14 -19l-50 -362c-1 -10 -11 -19 -20 -19h-39c-8 0 -13 7 -15 15l-7 33
c-21 -23 -59 -58 -130 -58zM364 551c-32 0 -53 29 -48 64c4 35 33 63 65 63c31 0 54 -28 50 -63c-5 -35 -36 -64 -67 -64zM183 551c-31 0 -53 29 -48 64c4 35 34 63 65 63c32 0 54 -28 50 -63c-5 -35 -35 -64 -67 -64z" />
    <glyph glyph-name="umacron" unicode="&#x16b;" horiz-adv-x="472" 
d="M167 -10c-109 0 -143 95 -128 197l28 194c1 11 10 19 19 19h87c9 0 16 -8 14 -19l-28 -197c-7 -53 10 -86 44 -86c49 0 76 57 76 57l31 226c3 15 11 19 22 19h82c9 0 16 -8 14 -19l-50 -362c-1 -10 -11 -19 -20 -19h-39c-8 0 -13 7 -15 15l-7 33
c-21 -23 -59 -58 -130 -58zM161 570c-10 0 -15 8 -14 18l4 34c1 11 10 19 20 19h231c9 0 16 -8 14 -19l-5 -34c-1 -10 -9 -18 -19 -18h-231z" />
    <glyph glyph-name="ubreve" unicode="&#x16d;" horiz-adv-x="472" 
d="M167 -10c-109 0 -143 95 -128 197l28 194c1 11 10 19 19 19h87c9 0 16 -8 14 -19l-28 -197c-7 -53 10 -86 44 -86c49 0 76 57 76 57l31 226c3 15 11 19 22 19h82c9 0 16 -8 14 -19l-50 -362c-1 -10 -11 -19 -20 -19h-39c-8 0 -13 7 -15 15l-7 33
c-21 -23 -59 -58 -130 -58zM277 528c-63 0 -111 51 -111 118c0 12 9 22 20 22h36c7 0 12 -7 13 -14c4 -31 20 -53 50 -53c28 0 52 25 63 53c3 8 11 14 18 14h41c11 0 16 -10 14 -22c-20 -67 -74 -118 -144 -118z" />
    <glyph glyph-name="uring" unicode="&#x16f;" horiz-adv-x="472" 
d="M167 -10c-109 0 -143 95 -128 197l28 194c1 11 10 19 19 19h87c9 0 16 -8 14 -19l-28 -197c-7 -53 10 -86 44 -86c49 0 76 57 76 57l31 226c3 15 11 19 22 19h82c9 0 16 -8 14 -19l-50 -362c-1 -10 -11 -19 -20 -19h-39c-8 0 -13 7 -15 15l-7 33
c-21 -23 -59 -58 -130 -58zM266 484c-52 0 -89 44 -89 98c0 71 53 128 120 128c51 0 88 -44 88 -98c0 -71 -54 -128 -119 -128zM274 547c24 0 48 27 48 56c0 23 -14 42 -34 42c-24 0 -48 -25 -48 -54c0 -23 15 -44 34 -44z" />
    <glyph glyph-name="uhungarumlaut" unicode="&#x171;" horiz-adv-x="472" 
d="M167 -10c-109 0 -143 95 -128 197l28 194c1 11 10 19 19 19h87c9 0 16 -8 14 -19l-28 -197c-7 -53 10 -86 44 -86c49 0 76 57 76 57l31 226c3 15 11 19 22 19h82c9 0 16 -8 14 -19l-50 -362c-1 -10 -11 -19 -20 -19h-39c-8 0 -13 7 -15 15l-7 33
c-21 -23 -59 -58 -130 -58zM324 521c-9 0 -18 9 -14 19l49 141c4 11 11 19 23 19h75c17 0 21 -12 12 -25l-89 -139c-5 -8 -11 -15 -22 -15h-34zM175 521c-9 0 -18 9 -14 19l49 141c4 11 11 19 23 19h75c17 0 21 -12 12 -25l-89 -139c-5 -8 -11 -15 -22 -15h-34z" />
    <glyph glyph-name="uogonek" unicode="&#x173;" horiz-adv-x="472" 
d="M167 -10c-109 0 -143 95 -128 197l28 194c1 11 10 19 19 19h87c9 0 16 -8 14 -19l-28 -197c-7 -53 10 -86 44 -86c49 0 76 57 76 57l31 226c3 15 11 19 22 19h82c9 0 16 -8 14 -19l-50 -362c-1 -10 -11 -19 -20 -19h-7c-21 -19 -55 -58 -55 -106c0 -30 16 -54 53 -54
c16 0 29 6 40 9s19 -5 17 -17l-4 -30c-1 -10 -9 -16 -16 -19c-5 -3 -34 -10 -60 -10c-54 0 -105 31 -105 93c0 87 74 140 83 147l-7 35c-21 -23 -59 -58 -130 -58z" />
    <glyph glyph-name="wacute" unicode="&#x1e83;" horiz-adv-x="568" 
d="M96 1l-64 378c-2 13 5 21 17 21h77c6 0 13 -5 14 -12l27 -169h1l115 182c4 6 7 9 16 9h8c7 0 11 -4 13 -9l59 -182h1l77 169c5 11 13 12 23 12h73c13 0 17 -10 11 -23l-170 -376c-3 -6 -9 -11 -18 -11h-4c-7 0 -11 4 -13 9l-81 226h-1l-147 -226c-3 -5 -9 -9 -16 -9h-4
c-8 0 -13 5 -14 11zM258 528c-14 -6 -19 -3 -23 6l-16 39c-3 8 0 15 8 19l164 97c9 6 19 6 24 -5l24 -52c6 -12 0 -23 -9 -27z" />
    <glyph glyph-name="wcircumflex" unicode="&#x175;" horiz-adv-x="568" 
d="M96 1l-64 378c-2 13 5 21 17 21h77c6 0 13 -5 14 -12l27 -169h1l115 182c4 6 7 9 16 9h8c7 0 11 -4 13 -9l59 -182h1l77 169c5 11 13 12 23 12h73c13 0 17 -10 11 -23l-170 -376c-3 -6 -9 -11 -18 -11h-4c-7 0 -11 4 -13 9l-81 226h-1l-147 -226c-3 -5 -9 -9 -16 -9h-4
c-8 0 -13 5 -14 11zM209 529l-22 33c-7 10 -2 18 5 23l134 101c7 5 14 6 21 0l106 -101c5 -4 8 -12 3 -19l-29 -37c-6 -8 -12 -10 -20 -3l-78 62l-100 -62c-11 -7 -15 -4 -20 3z" />
    <glyph glyph-name="wdieresis" unicode="&#x1e85;" horiz-adv-x="568" 
d="M96 1l-64 378c-2 13 5 21 17 21h77c6 0 13 -5 14 -12l27 -169h1l115 182c4 6 7 9 16 9h8c7 0 11 -4 13 -9l59 -182h1l77 169c5 11 13 12 23 12h73c13 0 17 -10 11 -23l-170 -376c-3 -6 -9 -11 -18 -11h-4c-7 0 -11 4 -13 9l-81 226h-1l-147 -226c-3 -5 -9 -9 -16 -9h-4
c-8 0 -13 5 -14 11zM412 551c-32 0 -53 29 -48 64c4 35 33 63 65 63c31 0 54 -28 50 -63c-5 -35 -36 -64 -67 -64zM231 551c-31 0 -53 29 -48 64c4 35 34 63 65 63c32 0 54 -28 50 -63c-5 -35 -35 -64 -67 -64z" />
    <glyph glyph-name="wgrave" unicode="&#x1e81;" horiz-adv-x="568" 
d="M96 1l-64 378c-2 13 5 21 17 21h77c6 0 13 -5 14 -12l27 -169h1l115 182c4 6 7 9 16 9h8c7 0 11 -4 13 -9l59 -182h1l77 169c5 11 13 12 23 12h73c13 0 17 -10 11 -23l-170 -376c-3 -6 -9 -11 -18 -11h-4c-7 0 -11 4 -13 9l-81 226h-1l-147 -226c-3 -5 -9 -9 -16 -9h-4
c-8 0 -13 5 -14 11zM387 531l-150 77c-7 4 -11 14 -2 27l29 43c9 14 22 12 27 8l137 -97c5 -3 8 -11 3 -19l-20 -33c-6 -9 -13 -12 -24 -6z" />
    <glyph glyph-name="yacute" unicode="&#xfd;" horiz-adv-x="425" 
d="M114 28l-91 346c-4 13 1 26 15 26h86c5 0 12 -5 14 -11l52 -237h1l117 237c4 9 12 11 20 11h89c14 0 19 -13 11 -26l-368 -662c-4 -6 -9 -12 -17 -12h-93c-13 0 -18 10 -9 24zM182 528c-14 -6 -19 -3 -23 6l-16 39c-3 8 0 15 8 19l164 97c9 6 19 6 24 -5l24 -52
c6 -12 0 -23 -9 -27z" />
    <glyph glyph-name="ycircumflex" unicode="&#x177;" horiz-adv-x="425" 
d="M114 28l-91 346c-4 13 1 26 15 26h86c5 0 12 -5 14 -11l52 -237h1l117 237c4 9 12 11 20 11h89c14 0 19 -13 11 -26l-368 -662c-4 -6 -9 -12 -17 -12h-93c-13 0 -18 10 -9 24zM132 529l-22 33c-7 10 -2 18 5 23l134 101c7 5 14 6 21 0l106 -101c5 -4 8 -12 3 -19l-29 -37
c-6 -8 -12 -10 -20 -3l-78 62l-100 -62c-11 -7 -15 -4 -20 3z" />
    <glyph glyph-name="ydieresis" unicode="&#xff;" horiz-adv-x="425" 
d="M114 28l-91 346c-4 13 1 26 15 26h86c5 0 12 -5 14 -11l52 -237h1l117 237c4 9 12 11 20 11h89c14 0 19 -13 11 -26l-368 -662c-4 -6 -9 -12 -17 -12h-93c-13 0 -18 10 -9 24zM337 551c-32 0 -53 29 -48 64c4 35 33 63 65 63c31 0 54 -28 50 -63c-5 -35 -36 -64 -67 -64z
M156 551c-31 0 -53 29 -48 64c4 35 34 63 65 63c32 0 54 -28 50 -63c-5 -35 -35 -64 -67 -64z" />
    <glyph glyph-name="ygrave" unicode="&#x1ef3;" horiz-adv-x="425" 
d="M114 28l-91 346c-4 13 1 26 15 26h86c5 0 12 -5 14 -11l52 -237h1l117 237c4 9 12 11 20 11h89c14 0 19 -13 11 -26l-368 -662c-4 -6 -9 -12 -17 -12h-93c-13 0 -18 10 -9 24zM310 531l-150 77c-7 4 -11 14 -2 27l29 43c9 14 22 12 27 8l137 -97c5 -3 8 -11 3 -19
l-20 -33c-6 -9 -13 -12 -24 -6z" />
    <glyph glyph-name="zacute" unicode="&#x17a;" horiz-adv-x="342" 
d="M10 0c-9 0 -17 9 -15 19l2 10l155 262v2h-93c-9 0 -14 9 -13 19l9 69c1 11 10 19 19 19h241c14 0 20 -14 12 -27l-160 -264v-3h89c10 0 15 -8 14 -19l-9 -68c-1 -10 -10 -19 -20 -19h-231zM143 528c-14 -6 -19 -3 -23 6l-16 39c-3 8 0 15 8 19l164 97c9 6 19 6 24 -5
l24 -52c6 -12 0 -23 -9 -27z" />
    <glyph glyph-name="zcaron" unicode="&#x17e;" horiz-adv-x="342" 
d="M10 0c-9 0 -17 9 -15 19l2 10l155 262v2h-93c-9 0 -14 9 -13 19l9 69c1 11 10 19 19 19h241c14 0 20 -14 12 -27l-160 -264v-3h89c10 0 15 -8 14 -19l-9 -68c-1 -10 -10 -19 -20 -19h-231zM197 525l-106 101c-5 4 -8 12 -3 19l29 37c6 8 12 10 20 3l78 -62l100 62
c11 7 15 4 20 -3l22 -33c7 -10 2 -18 -5 -23l-134 -101c-7 -5 -14 -6 -21 0z" />
    <glyph glyph-name="zdotaccent" unicode="&#x17c;" horiz-adv-x="342" 
d="M10 0c-9 0 -17 9 -15 19l2 10l155 262v2h-93c-9 0 -14 9 -13 19l9 69c1 11 10 19 19 19h241c14 0 20 -14 12 -27l-160 -264v-3h89c10 0 15 -8 14 -19l-9 -68c-1 -10 -10 -19 -20 -19h-231zM211 536c-34 0 -59 28 -59 63c0 45 38 81 80 81c34 0 59 -28 59 -63
c0 -45 -38 -81 -80 -81z" />
    <glyph glyph-name="IJ" unicode="&#x132;" horiz-adv-x="712" 
d="M53 19l93 662c1 10 10 19 19 19h98c9 0 16 -9 14 -19l-93 -662c-1 -10 -10 -19 -19 -19h-98c-9 0 -16 9 -14 19zM275 63c-5 8 -1 18 6 25l46 45c10 10 17 7 25 -1c11 -10 34 -24 59 -24c34 0 71 32 80 101l67 472c1 10 10 19 19 19h99c10 0 16 -9 15 -19l-67 -472
c-19 -139 -81 -219 -210 -219c-79 0 -125 50 -139 73z" />
    <glyph glyph-name="ij" unicode="&#x133;" horiz-adv-x="477" 
d="M156 542c-34 0 -58 27 -58 60c0 43 37 78 77 78c35 0 60 -27 60 -61c0 -42 -38 -77 -79 -77zM22 19l51 362c2 11 11 19 20 19h88c9 0 17 -8 15 -19l-51 -362c-1 -10 -11 -19 -20 -19h-88c-9 0 -16 9 -15 19zM394 542c-34 0 -58 27 -58 60c0 43 37 78 78 78
c34 0 59 -27 59 -61c0 -42 -38 -77 -79 -77zM242 -108l68 489c2 11 11 19 20 19h90c9 0 16 -8 14 -19l-71 -498c-17 -123 -87 -193 -191 -193c-49 0 -98 27 -111 39c-6 6 -6 17 0 26l31 55c7 11 18 12 25 8c11 -6 31 -16 53 -16c40 0 64 32 72 90z" />
    <glyph glyph-name="grave.cap" horiz-adv-x="272" 
d="M230 769l-150 77c-7 4 -11 14 -2 27l29 43c9 14 22 12 27 8l137 -97c5 -3 8 -11 3 -19l-20 -33c-6 -9 -13 -12 -24 -6z" />
    <glyph glyph-name="acute" unicode="&#xb4;" horiz-adv-x="272" 
d="M90 528c-14 -6 -19 -3 -23 6l-16 39c-3 8 0 15 8 19l164 97c9 6 19 6 24 -5l24 -52c6 -12 0 -23 -9 -27z" />
    <glyph glyph-name="acute.cap" horiz-adv-x="272" 
d="M105 768c-14 -6 -19 -3 -23 6l-16 39c-3 8 0 15 8 19l164 97c9 6 19 6 24 -5l24 -52c6 -12 0 -23 -9 -27z" />
    <glyph glyph-name="circumflex" unicode="&#x2c6;" horiz-adv-x="336" 
d="M75 529l-22 33c-7 10 -2 18 5 23l134 101c7 5 14 6 21 0l106 -101c5 -4 8 -12 3 -19l-29 -37c-6 -8 -12 -10 -20 -3l-78 62l-100 -62c-11 -7 -15 -4 -20 3z" />
    <glyph glyph-name="circumflex.cap" horiz-adv-x="336" 
d="M109 765c-11 -7 -15 -4 -20 3l-22 33c-7 10 -2 18 5 23l134 101c7 5 14 6 21 0l106 -101c5 -4 8 -12 3 -19l-29 -37c-6 -8 -12 -10 -20 -3l-78 62z" />
    <glyph glyph-name="caron" unicode="&#x2c7;" horiz-adv-x="336" 
d="M171 525l-106 101c-5 4 -8 12 -3 19l29 37c6 8 12 10 20 3l78 -62l100 62c11 7 15 4 20 -3l22 -33c7 -10 2 -18 -5 -23l-134 -101c-7 -5 -14 -6 -21 0z" />
    <glyph glyph-name="caron.cap" horiz-adv-x="336" 
d="M184 764l-106 101c-5 4 -8 12 -3 19l29 37c6 8 12 10 20 3l78 -62l100 62c11 7 15 4 20 -3l22 -33c7 -10 2 -18 -5 -23l-134 -101c-7 -5 -14 -6 -21 0z" />
    <glyph glyph-name="caron.alt" horiz-adv-x="336" 
d="M117 635c0 40 35 75 78 75c29 0 65 -22 65 -86c0 -109 -78 -176 -107 -201c-7 -6 -13 -7 -20 1l-14 16c-6 6 -2 16 5 22c9 9 68 53 80 119c-1 0 -15 -5 -33 -5c-31 0 -54 26 -54 59z" />
    <glyph glyph-name="tilde" unicode="&#x2dc;" horiz-adv-x="342" 
d="M84 562l-27 21c-8 8 -6 16 -2 23c10 20 45 84 102 84c45 0 62 -55 94 -55c16 0 25 17 32 31c6 12 19 18 30 10l23 -18c11 -8 9 -19 2 -33c-9 -19 -43 -76 -96 -76c-47 0 -70 56 -96 56c-19 0 -30 -24 -38 -39c-4 -8 -16 -11 -24 -4z" />
    <glyph glyph-name="tilde.cap" horiz-adv-x="342" 
d="M95 789l-27 21c-8 8 -6 16 -2 23c10 20 45 84 102 84c45 0 62 -55 94 -55c16 0 25 17 32 31c6 12 19 18 30 10l23 -18c11 -8 9 -19 2 -33c-9 -19 -43 -76 -96 -76c-47 0 -70 56 -96 56c-19 0 -30 -24 -38 -39c-4 -8 -16 -11 -24 -4z" />
    <glyph glyph-name="dieresis" unicode="&#xa8;" horiz-adv-x="373" 
d="M295 551c-32 0 -53 29 -48 64c4 35 33 63 65 63c31 0 54 -28 50 -63c-5 -35 -36 -64 -67 -64zM114 551c-31 0 -53 29 -48 64c4 35 34 63 65 63c32 0 54 -28 50 -63c-5 -35 -35 -64 -67 -64z" />
    <glyph glyph-name="dieresis.cap" horiz-adv-x="427" 
d="M352 775c-32 0 -53 29 -48 64c4 35 33 63 65 63c31 0 53 -28 49 -63c-5 -35 -35 -64 -66 -64zM129 775c-31 0 -52 29 -47 64c4 35 33 63 64 63c32 0 54 -28 50 -63c-5 -35 -35 -64 -67 -64z" />
    <glyph glyph-name="macron" unicode="&#xaf;" horiz-adv-x="373" 
d="M52 570c-10 0 -15 8 -14 18l4 34c1 11 10 19 20 19h231c9 0 16 -8 14 -19l-5 -34c-1 -10 -9 -18 -19 -18h-231z" />
    <glyph glyph-name="macron.cap" horiz-adv-x="373" 
d="M105 808c-10 0 -16 8 -15 18l5 34c2 11 10 19 20 19h231c10 0 16 -8 14 -19l-5 -34c-1 -10 -10 -18 -20 -18h-230z" />
    <glyph glyph-name="uni02C9" unicode="&#x2c9;" horiz-adv-x="373" 
d="M91 570c-10 0 -15 8 -14 18l4 34c1 11 10 19 20 19h231c9 0 16 -8 14 -19l-5 -34c-1 -10 -9 -18 -19 -18h-231z" />
    <glyph glyph-name="breve" unicode="&#x2d8;" horiz-adv-x="311" 
d="M170 528c-63 0 -111 51 -111 118c0 12 9 22 20 22h36c7 0 12 -7 13 -14c4 -31 20 -53 50 -53c28 0 52 25 63 53c3 8 11 14 18 14h41c11 0 16 -10 14 -22c-20 -67 -74 -118 -144 -118z" />
    <glyph glyph-name="breve.cap" horiz-adv-x="311" 
d="M183 766c-61 0 -110 51 -110 118c0 11 8 21 20 21h37c8 0 10 -7 11 -14c5 -30 21 -53 50 -53c28 0 53 25 64 53c4 9 11 14 17 14h41c11 0 16 -10 14 -21c-19 -67 -73 -118 -144 -118z" />
    <glyph glyph-name="ring" unicode="&#x2da;" horiz-adv-x="261" 
d="M139 484c-52 0 -89 44 -89 98c0 71 53 128 120 128c51 0 88 -44 88 -98c0 -71 -54 -128 -119 -128zM147 547c24 0 48 27 48 56c0 23 -14 42 -34 42c-24 0 -48 -25 -48 -54c0 -23 15 -44 34 -44z" />
    <glyph glyph-name="ring.cap" horiz-adv-x="261" 
d="M156 754c-52 0 -89 44 -89 98c0 71 53 128 120 128c51 0 88 -44 88 -98c0 -71 -54 -128 -119 -128zM164 817c24 0 48 27 48 56c0 23 -14 42 -34 42c-24 0 -48 -25 -48 -54c0 -23 15 -44 34 -44z" />
    <glyph glyph-name="hungarumlaut" unicode="&#x2dd;" horiz-adv-x="353" 
d="M210 521c-9 0 -18 9 -14 19l49 141c4 11 11 19 23 19h75c17 0 21 -12 12 -25l-89 -139c-5 -8 -11 -15 -22 -15h-34zM61 521c-9 0 -18 9 -14 19l49 141c4 11 11 19 23 19h75c17 0 21 -12 12 -25l-89 -139c-5 -8 -11 -15 -22 -15h-34z" />
    <glyph glyph-name="hungarumlaut.cap" horiz-adv-x="353" 
d="M223 768c-9 0 -18 9 -14 19l49 141c4 11 11 19 23 19h75c17 0 21 -12 12 -25l-89 -139c-5 -8 -11 -15 -22 -15h-34zM74 768c-9 0 -18 9 -14 19l49 141c4 11 11 19 23 19h75c17 0 21 -12 12 -25l-89 -139c-5 -8 -11 -15 -22 -15h-34z" />
    <glyph glyph-name="dotaccent" unicode="&#x2d9;" horiz-adv-x="197" 
d="M113 536c-34 0 -59 28 -59 63c0 45 38 81 80 81c34 0 59 -28 59 -63c0 -45 -38 -81 -80 -81z" />
    <glyph glyph-name="dotaccent.cap" horiz-adv-x="197" 
d="M128 781c-35 0 -59 28 -59 63c0 45 38 81 79 81c35 0 60 -28 60 -63c0 -45 -39 -81 -80 -81z" />
    <glyph glyph-name="cedilla" unicode="&#xb8;" horiz-adv-x="222" 
d="M73 0h63l-8 -54c43 -6 72 -39 72 -90c0 -62 -42 -116 -106 -116c-30 0 -57 15 -69 35c-6 9 -3 20 7 28l18 17c6 6 14 5 19 -1s13 -12 26 -12c18 0 35 18 35 44c0 20 -12 38 -57 42c-13 2 -14 13 -13 18z" />
    <glyph glyph-name="cedilla.cap" horiz-adv-x="222" 
d="M73 0h63l-8 -54c43 -6 72 -39 72 -90c0 -62 -42 -116 -106 -116c-30 0 -57 15 -69 35c-6 9 -3 20 7 28l18 17c6 6 14 5 19 -1s13 -12 26 -12c18 0 35 18 35 44c0 20 -12 38 -57 42c-13 2 -14 13 -13 18z" />
    <glyph glyph-name="ogonek" unicode="&#x2db;" horiz-adv-x="250" 
d="M122 14h61s-71 -53 -71 -120c0 -30 16 -54 53 -54c16 0 29 6 40 9s19 -5 17 -17l-4 -30c-1 -10 -9 -16 -16 -19c-5 -3 -34 -10 -60 -10c-54 0 -105 31 -105 93c0 92 85 148 85 148z" />
    <glyph glyph-name="ogonek.cap" horiz-adv-x="250" 
d="M122 14h61s-71 -53 -71 -120c0 -30 16 -54 53 -54c16 0 29 6 40 9s19 -5 17 -17l-4 -30c-1 -10 -9 -16 -16 -19c-5 -3 -34 -10 -60 -10c-54 0 -105 31 -105 93c0 92 85 148 85 148z" />
    <glyph glyph-name="commaaccent" horiz-adv-x="262" 
d="M107 -166c0 40 35 75 78 75c29 0 65 -22 65 -86c0 -109 -78 -176 -107 -201c-7 -6 -13 -7 -20 1l-14 16c-6 6 -2 16 5 22c9 9 68 53 80 119c-1 0 -15 -5 -33 -5c-31 0 -54 26 -54 59z" />
    <glyph glyph-name="commaaccent.alt" horiz-adv-x="262" 
d="M107 -166c0 40 35 75 78 75c29 0 65 -22 65 -86c0 -109 -78 -176 -107 -201c-7 -6 -13 -7 -20 1l-14 16c-6 6 -2 16 5 22c9 9 68 53 80 119c-1 0 -15 -5 -33 -5c-31 0 -54 26 -54 59z" />
    <glyph glyph-name="commaaccent.cap" horiz-adv-x="262" 
d="M107 -166c0 40 35 75 78 75c29 0 65 -22 65 -86c0 -109 -78 -176 -107 -201c-7 -6 -13 -7 -20 1l-14 16c-6 6 -2 16 5 22c9 9 68 53 80 119c-1 0 -15 -5 -33 -5c-31 0 -54 26 -54 59z" />
    <glyph glyph-name="ellipsis" unicode="&#x2026;" horiz-adv-x="612" 
d="M405 53c0 45 38 81 80 81c34 0 59 -28 59 -63c0 -44 -38 -81 -80 -81c-34 0 -59 29 -59 63zM209 53c0 45 38 81 79 81c35 0 60 -28 60 -63c0 -44 -39 -81 -80 -81c-35 0 -59 29 -59 63zM8 53c0 45 37 81 79 81c34 0 59 -28 59 -63c0 -44 -38 -81 -80 -81
c-34 0 -58 29 -58 63z" />
    <glyph glyph-name="uni00AD" unicode="&#xad;" horiz-adv-x="312" 
d="M81 192c-10 0 -15 8 -14 18l9 67c1 11 10 19 20 19h204c10 0 15 -8 14 -19l-9 -67c-1 -10 -10 -18 -20 -18h-204z" />
    <glyph glyph-name="exclamdown" unicode="&#xa1;" horiz-adv-x="260" 
d="M126 245c-41 0 -71 34 -71 73c0 50 46 92 94 92c39 0 69 -33 69 -72c0 -50 -45 -93 -92 -93zM72 112c2 8 12 16 20 16h33c9 0 16 -8 15 -16l1 -279l-16 -114c-1 -10 -10 -19 -19 -19h-115c-9 0 -15 9 -14 19l16 112z" />
    <glyph glyph-name="questiondown" unicode="&#xbf;" horiz-adv-x="402" 
d="M212 245c-40 0 -70 34 -70 73c0 50 46 92 93 92c40 0 70 -33 70 -72c0 -50 -45 -93 -93 -93zM125 74l8 38c2 10 8 16 19 16h86c9 0 16 -8 15 -19l-6 -42c-14 -99 -154 -133 -154 -211c0 -30 19 -51 53 -51c40 0 76 38 91 52c10 9 22 6 29 -1l46 -51c6 -7 3 -18 -4 -26
c-13 -14 -70 -89 -183 -89c-92 0 -166 65 -166 151c0 137 152 166 166 233z" />
    <glyph glyph-name="quoteleft" unicode="&#x2018;" horiz-adv-x="193" 
d="M123 416c-29 0 -65 22 -65 86c0 109 78 176 107 201c7 6 13 7 20 -1l14 -16c6 -6 2 -16 -5 -22c-9 -9 -68 -53 -80 -119c1 0 15 5 33 5c31 0 54 -26 54 -59c0 -40 -35 -75 -78 -75z" />
    <glyph glyph-name="quoteright" unicode="&#x2019;" horiz-adv-x="190" 
d="M85 424l-14 16c-6 6 -2 16 5 22c9 9 68 53 80 119c-1 0 -15 -5 -33 -5c-31 0 -54 26 -54 59c0 40 35 75 78 75c29 0 65 -22 65 -86c0 -109 -78 -176 -107 -201c-7 -6 -13 -7 -20 1z" />
    <glyph glyph-name="quotedblleft" unicode="&#x201c;" horiz-adv-x="370" 
d="M300 416c-29 0 -65 22 -65 86c0 109 78 176 107 201c7 6 13 7 20 -1l14 -16c6 -6 2 -16 -5 -22c-9 -9 -68 -53 -80 -119c1 0 15 5 33 5c31 0 54 -26 54 -59c0 -40 -35 -75 -78 -75zM123 416c-29 0 -65 22 -65 86c0 109 78 176 107 201c7 6 13 7 20 -1l14 -16
c6 -6 2 -16 -5 -22c-9 -9 -68 -53 -80 -119c1 0 15 5 33 5c31 0 54 -26 54 -59c0 -40 -35 -75 -78 -75z" />
    <glyph glyph-name="quotedblright" unicode="&#x201d;" horiz-adv-x="366" 
d="M261 424l-14 16c-6 6 -2 16 5 22c9 9 68 53 80 119c-1 0 -15 -5 -33 -5c-31 0 -54 26 -54 59c0 40 35 75 78 75c29 0 65 -22 65 -86c0 -109 -78 -176 -107 -201c-7 -6 -13 -7 -20 1zM85 424l-14 16c-6 6 -2 16 5 22c9 9 68 53 80 119c-1 0 -15 -5 -33 -5
c-31 0 -54 26 -54 59c0 40 35 75 78 75c29 0 65 -22 65 -86c0 -109 -78 -176 -107 -201c-7 -6 -13 -7 -20 1z" />
    <glyph glyph-name="quotesinglbase" unicode="&#x201a;" horiz-adv-x="220" 
d="M7 49c0 40 35 75 78 75c29 0 65 -22 65 -86c0 -109 -78 -176 -107 -201c-7 -6 -13 -7 -20 1l-14 16c-6 6 -2 16 5 22c9 9 68 53 80 119c-1 0 -15 -5 -33 -5c-31 0 -54 26 -54 59z" />
    <glyph glyph-name="quotedblbase" unicode="&#x201e;" horiz-adv-x="396" 
d="M183 49c0 40 35 75 78 75c29 0 65 -22 65 -86c0 -109 -78 -176 -107 -201c-7 -6 -13 -7 -20 1l-14 16c-6 6 -2 16 5 22c9 9 68 53 80 119c-1 0 -15 -5 -33 -5c-31 0 -54 26 -54 59zM7 49c0 40 35 75 78 75c29 0 65 -22 65 -86c0 -109 -78 -176 -107 -201
c-7 -6 -13 -7 -20 1l-14 16c-6 6 -2 16 5 22c9 9 68 53 80 119c-1 0 -15 -5 -33 -5c-31 0 -54 26 -54 59z" />
    <glyph glyph-name="guilsinglleft" unicode="&#x2039;" horiz-adv-x="262" 
d="M90 39l-72 155c-4 8 -2 18 3 24l114 148c4 5 11 12 21 12h64c16 0 19 -15 10 -31l-80 -149l32 -137c4 -16 -3 -30 -18 -30h-62c-6 0 -10 4 -12 8z" />
    <glyph glyph-name="guilsinglright" unicode="&#x203a;" horiz-adv-x="261" 
d="M21 31c-16 0 -19 15 -10 31l80 149l-32 137c-4 16 3 30 18 30h62c6 0 10 -4 12 -8l72 -155c4 -8 2 -18 -3 -24l-114 -148c-4 -5 -11 -12 -21 -12h-64z" />
    <glyph glyph-name="guillemotleft" unicode="&#xab;" horiz-adv-x="450" 
d="M278 39l-72 155c-4 8 -2 18 3 24l114 148c4 5 11 12 21 12h64c16 0 19 -15 10 -31l-80 -149l32 -137c4 -16 -3 -30 -18 -30h-62c-6 0 -10 4 -12 8zM90 39l-72 155c-4 8 -2 18 3 24l114 148c4 5 11 12 21 12h64c16 0 19 -15 10 -31l-80 -149l32 -137c4 -16 -3 -30 -18 -30
h-62c-6 0 -10 4 -12 8z" />
    <glyph glyph-name="guillemotright" unicode="&#xbb;" horiz-adv-x="450" 
d="M200 62l80 149l-32 137c-4 16 3 30 18 30h62c6 0 10 -4 12 -8l72 -155c4 -8 2 -18 -3 -24l-114 -148c-4 -5 -11 -12 -21 -12h-64c-16 0 -19 15 -10 31zM22 31c-16 0 -19 15 -10 31l80 149l-32 137c-4 16 3 30 18 30h62c6 0 10 -4 12 -8l72 -155c4 -8 2 -18 -3 -24
l-114 -148c-4 -5 -11 -12 -21 -12h-64z" />
    <glyph glyph-name="endash" unicode="&#x2013;" horiz-adv-x="504" 
d="M68 210c-10 0 -16 8 -15 18l5 37c1 11 10 19 20 19h363c10 0 15 -8 14 -19l-5 -37c-1 -10 -10 -18 -20 -18h-362z" />
    <glyph glyph-name="emdash" unicode="&#x2014;" horiz-adv-x="702" 
d="M68 210c-10 0 -16 8 -15 18l5 37c1 11 10 19 20 19h561c10 0 15 -8 14 -19l-5 -37c-1 -10 -10 -18 -20 -18h-560z" />
    <glyph glyph-name="bullet" unicode="&#x2022;" horiz-adv-x="358" 
d="M160 95c-60 0 -105 52 -105 114c0 80 70 148 142 148c63 0 108 -53 108 -117c0 -79 -70 -145 -145 -145z" />
    <glyph glyph-name="periodcentered" unicode="&#xb7;" horiz-adv-x="258" 
d="M119 167c-44 0 -77 36 -77 79c0 56 50 102 102 102c46 0 80 -36 80 -81c0 -54 -51 -100 -105 -100z" />
    <glyph glyph-name="uni2219" unicode="&#x2219;" horiz-adv-x="359" 
d="M210 167c-44 0 -77 36 -77 79c0 56 50 102 102 102c46 0 80 -36 80 -81c0 -54 -51 -100 -105 -100z" />
    <glyph glyph-name="dagger" unicode="&#x2020;" horiz-adv-x="556" 
d="M63 286c-9 0 -15 9 -14 19l11 76c1 10 10 19 19 19h147l39 281c2 10 11 19 20 19h99c9 0 15 -9 14 -19l-39 -281h153c9 0 15 -9 14 -19l-11 -76c-1 -10 -10 -19 -19 -19h-161l-113 -570c-2 -8 -11 -16 -19 -16h-18c-8 0 -16 8 -15 16l48 570h-155z" />
    <glyph glyph-name="daggerdbl" unicode="&#x2021;" horiz-adv-x="556" 
d="M36 20l10 75c1 10 11 19 20 19h135l24 284l1 1h-147c-9 0 -15 9 -14 19l10 76c1 10 11 19 20 19h147l23 168c2 10 11 19 20 19h99c9 0 15 -9 14 -19l-24 -168h154c9 0 15 -9 14 -19l-11 -76c-1 -10 -10 -19 -19 -19h-154l-55 -285h142c9 0 15 -9 14 -19l-11 -75
c-1 -10 -10 -19 -19 -19h-150l-57 -285c-2 -8 -11 -16 -19 -16h-18c-8 0 -16 8 -15 16l22 285h-142c-9 0 -15 9 -14 19z" />
    <glyph glyph-name="section" unicode="&#xa7;" horiz-adv-x="475" 
d="M19 -93c9 13 21 19 34 8c7 -6 66 -50 120 -50c40 0 76 27 76 70c0 48 -29 82 -80 112c-63 37 -136 91 -136 182c0 76 38 130 84 161c-23 20 -45 62 -45 116c0 99 66 204 216 204c94 0 149 -49 169 -64c8 -6 9 -21 1 -31l-41 -54c-9 -12 -19 -15 -31 -5
c-17 15 -66 42 -113 42c-44 0 -74 -34 -74 -72c0 -36 26 -65 82 -94c65 -34 149 -86 149 -187c0 -75 -44 -136 -84 -165c21 -19 44 -61 44 -118c0 -115 -82 -211 -228 -211c-93 0 -163 58 -177 74c-8 10 -10 18 1 34zM254 138c0 0 42 30 42 90c0 47 -44 77 -104 107
c-8 -7 -38 -35 -38 -87c0 -51 43 -73 100 -110z" />
    <glyph glyph-name="paragraph" unicode="&#xb6;" horiz-adv-x="639" 
d="M168 -281l79 562h-39c-92 0 -160 80 -160 182c0 127 98 237 206 237h413c9 0 17 -9 15 -19l-7 -46c-2 -11 -10 -19 -19 -19h-62l-126 -897c-1 -10 -10 -19 -20 -19h-57c-9 0 -15 9 -14 19l126 896h-118l-126 -896c-1 -10 -10 -19 -19 -19h-57c-9 0 -16 9 -15 19z" />
    <glyph glyph-name="brokenbar.case" horiz-adv-x="316" 
d="M190 512c-9 0 -16 8 -15 18l47 331c1 11 10 19 19 19h14c9 0 15 -8 14 -19l-47 -331c-1 -10 -10 -18 -19 -18h-13zM124 169c2 11 11 19 20 19h14c9 0 15 -8 14 -19l-47 -331c-1 -10 -11 -18 -20 -18h-12c-9 0 -16 8 -15 18z" />
    <glyph glyph-name="copyright" unicode="&#xa9;" horiz-adv-x="730" 
d="M47 303c0 222 172 407 378 407c161 0 277 -141 277 -313c0 -223 -174 -406 -378 -406c-161 0 -277 140 -277 312zM123 312c0 -133 88 -243 212 -243c151 0 291 144 291 319c0 134 -88 243 -212 243c-151 0 -291 -143 -291 -319zM212 328c0 120 89 208 195 208
c36 0 75 -10 100 -38c7 -8 7 -21 -3 -29l-41 -36c-8 -7 -16 -7 -22 -2c-15 11 -29 14 -45 14c-48 0 -90 -50 -90 -109c0 -44 25 -79 64 -79c16 0 32 8 47 19c8 6 17 5 22 -2l33 -43c5 -8 3 -20 -5 -28c-36 -30 -69 -42 -108 -42c-84 0 -147 73 -147 167z" />
    <glyph glyph-name="registered" unicode="&#xae;" horiz-adv-x="730" 
d="M47 303c0 222 172 407 378 407c161 0 277 -141 277 -313c0 -223 -174 -406 -378 -406c-161 0 -277 140 -277 312zM123 312c0 -133 88 -243 212 -243c151 0 291 144 291 319c0 134 -88 243 -212 243c-151 0 -291 -143 -291 -319zM244 168c-10 0 -16 9 -14 19l46 328
c1 10 10 19 19 19h143c51 0 95 -40 95 -106c0 -77 -43 -110 -80 -124l25 -109c3 -14 -6 -27 -19 -27h-54c-7 0 -13 7 -14 14l-20 112h-43l-15 -107c-1 -10 -9 -19 -19 -19h-50zM336 368h66c20 0 39 21 39 48c0 20 -11 34 -27 34h-66z" />
    <glyph glyph-name="trademark" unicode="&#x2122;" horiz-adv-x="649" 
d="M322 385c-12 0 -18 11 -14 23l86 282c2 8 7 15 20 15h3c8 0 12 -5 14 -11l54 -185l108 185c3 5 8 11 17 11h3c8 0 15 -7 15 -15l8 -283c0 -12 -9 -22 -20 -22h-40c-8 0 -14 8 -14 17v125l-74 -136c-3 -5 -8 -9 -16 -9h-5c-7 0 -12 3 -14 10l-37 135l-35 -126
c-2 -8 -10 -16 -20 -16h-39zM142 385c-10 0 -16 9 -14 19l31 222h-56c-9 0 -16 8 -14 19l5 36c1 10 11 19 20 19h187c10 0 16 -9 15 -19l-5 -36c-2 -11 -10 -19 -20 -19h-56l-31 -222c-1 -10 -11 -19 -20 -19h-42z" />
    <glyph glyph-name="currency" unicode="&#xa4;" horiz-adv-x="429" 
d="M82 161l-35 40c-6 6 -3 20 4 27l52 48c-7 36 -2 77 16 112l-39 48c-5 7 -4 21 4 27l46 39c8 7 19 7 24 0l38 -47c32 17 67 17 95 0l51 47c7 7 18 6 24 0l35 -40c6 -6 4 -19 -3 -26l-51 -47c8 -36 3 -78 -16 -114l38 -47c5 -7 4 -20 -4 -27l-47 -39c-8 -6 -18 -8 -23 -1
l-39 48c-32 -17 -67 -17 -94 0l-52 -48c-7 -7 -18 -6 -24 0zM215 281c24 0 45 22 48 51c5 30 -10 52 -35 52c-23 0 -44 -22 -48 -52c-4 -29 11 -51 35 -51z" />
    <glyph glyph-name="Euro" unicode="&#x20ac;" horiz-adv-x="664" 
d="M45 250c-9 0 -15 9 -13 19l2 13c2 10 10 19 19 19h36c0 23 2 46 5 69h-32c-9 0 -15 9 -13 19l2 13c2 10 9 19 18 19h35c46 172 188 289 358 289c90 0 161 -40 208 -95c6 -8 5 -20 -4 -28l-54 -52c-11 -10 -24 -9 -33 0c-26 25 -69 50 -124 50c-90 0 -171 -70 -206 -164
h202c10 0 15 -9 14 -19l-2 -15c-1 -10 -9 -18 -19 -18h-209c-3 -17 -4 -34 -4 -51v-17h167c10 0 16 -9 15 -19l-2 -14c-2 -10 -10 -18 -20 -18h-152c19 -74 70 -129 145 -129c58 0 103 29 137 59c13 11 25 9 32 -1l52 -65c5 -7 2 -20 -5 -27c-70 -67 -146 -97 -226 -97
c-156 0 -262 112 -282 260h-47z" />
    <glyph glyph-name="cent" unicode="&#xa2;" horiz-adv-x="380" 
d="M106 6c-60 29 -98 92 -98 170c0 137 98 234 213 234c13 0 26 -2 38 -5l17 44c4 10 14 15 22 13l13 -3c9 -2 13 -12 9 -23l-18 -47c23 -13 42 -31 55 -50c6 -9 1 -20 -8 -28l-40 -37c-9 -8 -20 -4 -25 1c-5 4 -12 11 -20 16l-75 -193h2c35 0 59 25 71 38c6 7 16 10 25 1
l39 -38c8 -8 10 -18 3 -28c-35 -46 -87 -81 -150 -81c-10 0 -21 1 -30 3l-37 -97c-4 -10 -13 -15 -22 -13l-12 3c-9 2 -14 12 -10 22zM149 118l70 184c-46 -3 -92 -51 -92 -118c0 -27 8 -51 22 -66z" />
    <glyph glyph-name="sterling" unicode="&#xa3;" horiz-adv-x="453" 
d="M32 19l3 18c58 94 70 179 68 254h-38c-9 0 -16 9 -14 19l2 13c2 10 10 19 19 19h28c-4 31 -8 76 -8 123c0 153 94 245 225 245c77 0 125 -49 145 -71c6 -6 5 -18 -2 -26l-57 -56c-9 -9 -18 -9 -24 -3c-9 10 -36 43 -73 43c-41 0 -86 -38 -86 -117c0 -41 12 -94 15 -138
h92c10 0 18 -9 16 -19l-3 -14c-2 -10 -10 -18 -20 -18h-84c-2 -48 -12 -119 -35 -180h163c9 0 15 -8 13 -19l-10 -73c-1 -10 -10 -19 -19 -19h-301c-9 0 -16 9 -15 19z" />
    <glyph glyph-name="florin" unicode="&#x192;" horiz-adv-x="352" 
d="M49 -108l56 404h-70c-10 0 -16 9 -15 19l10 66c1 11 9 19 19 19h71l15 109c19 130 87 201 207 201c52 0 88 -28 100 -39c6 -6 6 -17 1 -24l-43 -58c-6 -8 -15 -10 -22 -5c-10 7 -24 13 -45 13c-29 0 -62 -27 -71 -89l-15 -108h86c9 0 16 -8 14 -19l-9 -66
c-2 -10 -10 -19 -20 -19h-86l-57 -405c-18 -130 -96 -201 -206 -201c-52 0 -88 25 -101 39c-5 6 -5 16 0 24l41 60c5 8 14 10 21 5c8 -6 26 -15 47 -15c30 0 63 27 72 89z" />
    <glyph glyph-name="yen" unicode="&#xa5;" horiz-adv-x="583" 
d="M107 120c-9 0 -14 9 -13 19l2 13c1 10 10 19 19 19h94l10 69h-95c-9 0 -15 9 -13 19l2 13c1 10 9 19 18 19h95l7 46l-156 339c-6 13 3 24 17 24h94c11 0 15 -4 19 -14l105 -230l168 235c3 4 8 9 16 9h110c15 0 18 -13 9 -26l-252 -336l-7 -47h94c10 0 16 -9 14 -19
l-1 -14c-2 -10 -10 -18 -20 -18h-94l-9 -69h93c10 0 16 -9 15 -19l-2 -14c-2 -10 -10 -18 -20 -18h-93l-14 -101c-1 -10 -11 -19 -20 -19h-97c-10 0 -15 9 -14 19l14 101h-95z" />
    <glyph glyph-name="ordfeminine" unicode="&#xaa;" horiz-adv-x="294" 
d="M130 398c-48 0 -79 34 -79 86c0 63 47 110 121 110c23 0 44 -8 44 -8c7 37 2 53 -28 53c-20 0 -53 -7 -69 -11c-10 -2 -15 3 -14 15l-1 33c0 7 4 14 14 20c15 8 44 14 90 14c82 0 102 -44 90 -129l-22 -161c-1 -8 -8 -14 -15 -14h-27c-10 0 -14 15 -17 31
c-18 -17 -44 -39 -87 -39zM161 466c18 0 35 14 40 27l4 39c-5 4 -19 8 -31 8c-21 0 -40 -17 -40 -44c0 -18 11 -30 27 -30z" />
    <glyph glyph-name="ordmasculine" unicode="&#xba;" horiz-adv-x="287" 
d="M159 394c-60 0 -98 49 -98 123c0 117 53 193 142 193c61 0 98 -48 98 -123c0 -116 -54 -193 -142 -193zM169 468c28 0 48 52 48 116c0 32 -10 52 -24 52c-29 0 -48 -54 -48 -116c0 -32 10 -52 24 -52z" />
    <glyph glyph-name="onesuperior" unicode="&#xb9;" horiz-adv-x="192" 
d="M116 504c-5 0 -8 4 -8 9l27 193l-47 -4c-4 0 -7 3 -6 9l3 30c1 8 4 11 9 14l74 45h52c5 0 8 -4 7 -9l-39 -278c-1 -5 -5 -9 -10 -9h-62z" />
    <glyph glyph-name="twosuperior" unicode="&#xb2;" horiz-adv-x="258" 
d="M74 504c-5 0 -9 3 -8 9l3 17l112 126c19 22 29 40 29 57c0 15 -8 28 -24 28c-15 0 -30 -9 -44 -19c-6 -4 -11 -4 -16 5l-18 33c-4 8 -6 12 7 21c7 5 39 29 88 29s88 -32 88 -79c0 -36 -14 -67 -42 -99l-57 -64h66c5 0 9 -4 8 -9l-7 -46c0 -5 -5 -9 -9 -9h-176z" />
    <glyph glyph-name="threesuperior" unicode="&#xb3;" horiz-adv-x="246" 
d="M152 494c-47 0 -74 25 -81 33c-6 6 -6 11 0 18l22 26c6 6 11 8 17 2s18 -13 37 -13c26 0 38 14 38 36c0 16 -10 28 -31 28h-28c-8 0 -12 3 -10 14l4 31c1 10 8 14 17 14h26c19 0 35 15 35 36c0 15 -10 25 -26 25c-12 0 -24 -8 -33 -16c-6 -3 -9 -5 -14 3l-21 31
c-4 5 -2 14 4 18c0 0 32 30 80 30c54 0 93 -28 93 -72c0 -43 -32 -70 -57 -81c17 -8 44 -29 44 -67c0 -61 -53 -96 -116 -96z" />
    <glyph glyph-name="fraction" unicode="&#x2044;" horiz-adv-x="120" 
d="M-55 10c-3 -4 -9 -10 -16 -10h-51c-14 0 -20 14 -12 27l403 663c4 6 9 10 17 10h52c13 0 19 -14 11 -27z" />
    <glyph glyph-name="uni2215" unicode="&#x2215;" horiz-adv-x="569" 
d="M16 0c-14 0 -20 14 -12 27l403 663c4 6 9 10 17 10h52c13 0 19 -14 11 -27l-404 -663c-3 -4 -9 -10 -16 -10h-51z" />
    <glyph glyph-name="onehalf" unicode="&#xbd;" horiz-adv-x="597" 
d="M41 27l403 663c4 6 9 10 17 10h52c13 0 19 -14 11 -27l-404 -663c-3 -4 -9 -10 -16 -10h-51c-14 0 -20 14 -12 27zM107 404c-5 0 -8 4 -8 9l27 193l-47 -4c-4 0 -7 3 -6 9l3 30c1 8 4 11 9 14l74 45h52c5 0 8 -4 7 -9l-39 -278c-1 -5 -5 -9 -10 -9h-62zM311 9l3 17
l112 126c19 22 29 40 29 57c0 15 -8 28 -24 28c-15 0 -30 -9 -44 -19c-6 -4 -11 -4 -16 5l-18 33c-4 8 -6 12 7 21c7 5 39 29 88 29s88 -32 88 -79c0 -36 -14 -67 -42 -99l-57 -64h66c5 0 9 -4 8 -9l-7 -46c0 -5 -5 -9 -9 -9h-176c-5 0 -9 3 -8 9z" />
    <glyph glyph-name="onethird" unicode="&#x2153;" horiz-adv-x="608" 
d="M61 27l403 663c4 6 9 10 17 10h52c13 0 19 -14 11 -27l-404 -663c-3 -4 -9 -10 -16 -10h-51c-14 0 -20 14 -12 27zM127 404c-5 0 -8 4 -8 9l27 193l-47 -4c-4 0 -7 3 -6 9l3 30c1 8 4 11 9 14l74 45h52c5 0 8 -4 7 -9l-39 -278c-1 -5 -5 -9 -10 -9h-62zM347 23
c-6 6 -6 11 0 18l22 26c6 6 11 8 17 2s18 -13 37 -13c26 0 38 14 38 36c0 16 -10 28 -31 28h-28c-8 0 -12 3 -10 14l4 31c1 10 8 14 17 14h26c19 0 35 15 35 36c0 15 -10 25 -26 25c-12 0 -24 -8 -33 -16c-6 -3 -9 -5 -14 3l-21 31c-4 5 -2 14 4 18c0 0 32 30 80 30
c54 0 93 -28 93 -72c0 -43 -32 -70 -57 -81c17 -8 44 -29 44 -67c0 -61 -53 -96 -116 -96c-47 0 -74 25 -81 33z" />
    <glyph glyph-name="onequarter" unicode="&#xbc;" horiz-adv-x="603" 
d="M41 27l403 663c4 6 9 10 17 10h52c13 0 19 -14 11 -27l-404 -663c-3 -4 -9 -10 -16 -10h-51c-14 0 -20 14 -12 27zM107 404c-5 0 -8 4 -8 9l27 193l-47 -4c-4 0 -7 3 -6 9l3 30c1 8 4 11 9 14l74 45h52c5 0 8 -4 7 -9l-39 -278c-1 -5 -5 -9 -10 -9h-62zM287 65l7 51
l167 175c5 5 8 5 13 5h39c4 0 8 -4 7 -9l-24 -170h35c5 0 8 -4 7 -8l-6 -43c0 -5 -5 -9 -9 -9h-36l-6 -48c-1 -5 -5 -9 -10 -9h-56c-5 0 -9 4 -8 9l7 48h-120c-4 0 -7 4 -7 8zM364 116h59l12 72z" />
    <glyph glyph-name="oneeighth" unicode="&#x215b;" horiz-adv-x="608" 
d="M61 27l403 663c4 6 9 10 17 10h52c13 0 19 -14 11 -27l-404 -663c-3 -4 -9 -10 -16 -10h-51c-14 0 -20 14 -12 27zM127 404c-5 0 -8 4 -8 9l27 193l-47 -4c-4 0 -7 3 -6 9l3 30c1 8 4 11 9 14l74 45h52c5 0 8 -4 7 -9l-39 -278c-1 -5 -5 -9 -10 -9h-62zM347 67
c0 54 60 82 66 85v1c-15 7 -37 28 -37 61c0 56 51 92 115 92c53 0 93 -29 93 -74c0 -44 -37 -70 -58 -79v-1c20 -6 46 -28 46 -66c0 -55 -49 -96 -126 -96c-61 0 -99 33 -99 77zM454 209c0 -15 9 -23 20 -26c15 3 28 17 28 35c0 14 -9 21 -20 21c-14 0 -28 -12 -28 -30z
M432 79c0 -15 11 -25 25 -25c15 0 33 12 33 35c0 14 -9 28 -25 30c-17 -2 -33 -20 -33 -40z" />
    <glyph glyph-name="twothirds" unicode="&#x2154;" horiz-adv-x="608" 
d="M25 404c-5 0 -9 3 -8 9l3 17l112 126c19 22 29 40 29 57c0 15 -8 28 -24 28c-15 0 -30 -9 -44 -19c-6 -4 -11 -4 -16 5l-18 33c-4 8 -6 12 7 21c7 5 39 29 88 29s88 -32 88 -79c0 -36 -14 -67 -42 -99l-57 -64h66c5 0 9 -4 8 -9l-7 -46c0 -5 -5 -9 -9 -9h-176zM61 27
l403 663c4 6 9 10 17 10h52c13 0 19 -14 11 -27l-404 -663c-3 -4 -9 -10 -16 -10h-51c-14 0 -20 14 -12 27zM347 23c-6 6 -6 11 0 18l22 26c6 6 11 8 17 2s18 -13 37 -13c26 0 38 14 38 36c0 16 -10 28 -31 28h-28c-8 0 -12 3 -10 14l4 31c1 10 8 14 17 14h26
c19 0 35 15 35 36c0 15 -10 25 -26 25c-12 0 -24 -8 -33 -16c-6 -3 -9 -5 -14 3l-21 31c-4 5 -2 14 4 18c0 0 32 30 80 30c54 0 93 -28 93 -72c0 -43 -32 -70 -57 -81c17 -8 44 -29 44 -67c0 -61 -53 -96 -116 -96c-47 0 -74 25 -81 33z" />
    <glyph glyph-name="threequarters" unicode="&#xbe;" horiz-adv-x="653" 
d="M137 394c-47 0 -74 25 -81 33c-6 6 -6 11 0 18l22 26c6 6 11 8 17 2s18 -13 37 -13c26 0 38 14 38 36c0 16 -10 28 -31 28h-28c-8 0 -12 3 -10 14l4 31c1 10 8 14 17 14h26c19 0 35 15 35 36c0 15 -10 25 -26 25c-12 0 -24 -8 -33 -16c-6 -3 -9 -5 -14 3l-21 31
c-4 5 -2 14 4 18c0 0 32 30 80 30c54 0 93 -28 93 -72c0 -43 -32 -70 -57 -81c17 -8 44 -29 44 -67c0 -61 -53 -96 -116 -96zM92 27l403 663c4 6 9 10 17 10h52c13 0 19 -14 11 -27l-404 -663c-3 -4 -9 -10 -16 -10h-51c-14 0 -20 14 -12 27zM338 65l7 51l167 175
c5 5 8 5 13 5h39c4 0 8 -4 7 -9l-24 -170h35c5 0 8 -4 7 -8l-6 -43c0 -5 -5 -9 -9 -9h-36l-6 -48c-1 -5 -5 -9 -10 -9h-56c-5 0 -9 4 -8 9l7 48h-120c-4 0 -7 4 -7 8zM415 116h59l12 72z" />
    <glyph glyph-name="threeeighths" unicode="&#x215c;" horiz-adv-x="608" 
d="M107 394c-47 0 -74 25 -81 33c-6 6 -6 11 0 18l22 26c6 6 11 8 17 2s18 -13 37 -13c26 0 38 14 38 36c0 16 -10 28 -31 28h-28c-8 0 -12 3 -10 14l4 31c1 10 8 14 17 14h26c19 0 35 15 35 36c0 15 -10 25 -26 25c-12 0 -24 -8 -33 -16c-6 -3 -9 -5 -14 3l-21 31
c-4 5 -2 14 4 18c0 0 32 30 80 30c54 0 93 -28 93 -72c0 -43 -32 -70 -57 -81c17 -8 44 -29 44 -67c0 -61 -53 -96 -116 -96zM62 27l403 663c4 6 9 10 17 10h52c13 0 19 -14 11 -27l-404 -663c-3 -4 -9 -10 -16 -10h-51c-14 0 -20 14 -12 27zM348 67c0 54 60 82 66 85v1
c-15 7 -37 28 -37 61c0 56 51 92 115 92c53 0 93 -29 93 -74c0 -44 -37 -70 -58 -79v-1c20 -6 46 -28 46 -66c0 -55 -49 -96 -126 -96c-61 0 -99 33 -99 77zM455 209c0 -15 9 -23 20 -26c15 3 28 17 28 35c0 14 -9 21 -20 21c-14 0 -28 -12 -28 -30zM433 79
c0 -15 11 -25 25 -25c15 0 33 12 33 35c0 14 -9 28 -25 30c-17 -2 -33 -20 -33 -40z" />
    <glyph glyph-name="fiveeighths" unicode="&#x215d;" horiz-adv-x="608" 
d="M61 27l403 663c4 6 9 10 17 10h52c13 0 19 -14 11 -27l-404 -663c-3 -4 -9 -10 -16 -10h-51c-14 0 -20 14 -12 27zM102 394c-39 0 -76 24 -85 38c-3 5 -4 9 1 15l27 32c6 7 10 6 14 2c9 -9 22 -20 48 -20c22 0 43 18 43 43c0 19 -13 32 -33 32h-66c-9 0 -13 8 -12 16
l20 139c1 5 5 9 10 9h144c5 0 8 -4 7 -9l-6 -44c0 -5 -5 -9 -10 -9h-89l-5 -39h28c58 0 90 -36 90 -87c0 -66 -43 -118 -126 -118zM347 67c0 54 60 82 66 85v1c-15 7 -37 28 -37 61c0 56 51 92 115 92c53 0 93 -29 93 -74c0 -44 -37 -70 -58 -79v-1c20 -6 46 -28 46 -66
c0 -55 -49 -96 -126 -96c-61 0 -99 33 -99 77zM454 209c0 -15 9 -23 20 -26c15 3 28 17 28 35c0 14 -9 21 -20 21c-14 0 -28 -12 -28 -30zM432 79c0 -15 11 -25 25 -25c15 0 33 12 33 35c0 14 -9 28 -25 30c-17 -2 -33 -20 -33 -40z" />
    <glyph glyph-name="seveneighths" unicode="&#x215e;" horiz-adv-x="608" 
d="M61 27l403 663c4 6 9 10 17 10h52c13 0 19 -14 11 -27l-404 -663c-3 -4 -9 -10 -16 -10h-51c-14 0 -20 14 -12 27zM52 404c-7 0 -11 2 -10 8l1 6l131 218h-90c-4 0 -9 4 -8 8l7 47c1 5 6 9 10 9h179c4 0 8 -4 7 -9l-2 -14l-153 -264c-5 -7 -9 -9 -15 -9h-57zM347 67
c0 54 60 82 66 85v1c-15 7 -37 28 -37 61c0 56 51 92 115 92c53 0 93 -29 93 -74c0 -44 -37 -70 -58 -79v-1c20 -6 46 -28 46 -66c0 -55 -49 -96 -126 -96c-61 0 -99 33 -99 77zM454 209c0 -15 9 -23 20 -26c15 3 28 17 28 35c0 14 -9 21 -20 21c-14 0 -28 -12 -28 -30z
M432 79c0 -15 11 -25 25 -25c15 0 33 12 33 35c0 14 -9 28 -25 30c-17 -2 -33 -20 -33 -40z" />
    <glyph glyph-name="perthousand" unicode="&#x2030;" horiz-adv-x="887" 
d="M188 440c-63 0 -110 52 -110 117c0 84 55 153 137 153c62 0 109 -52 109 -117c0 -85 -61 -153 -136 -153zM74 27l403 663c4 6 9 10 17 10h52c13 0 19 -14 11 -27l-404 -663c-3 -4 -9 -10 -16 -10h-51c-14 0 -20 14 -12 27zM194 526c21 0 42 26 42 56c0 22 -11 41 -29 41
c-22 0 -43 -25 -43 -56c0 -22 12 -41 30 -41zM585 107c0 84 55 153 137 153c62 0 109 -52 109 -117c0 -85 -61 -153 -136 -153c-63 0 -110 52 -110 117zM314 107c0 84 55 153 137 153c62 0 109 -52 109 -117c0 -85 -61 -153 -136 -153c-63 0 -110 52 -110 117zM671 117
c0 -22 12 -41 30 -41c21 0 42 26 42 56c0 22 -11 41 -29 41c-22 0 -43 -25 -43 -56zM400 117c0 -22 12 -41 30 -41c21 0 42 26 42 56c0 22 -11 41 -29 41c-22 0 -43 -25 -43 -56z" />
    <glyph glyph-name="minus" unicode="&#x2212;" horiz-adv-x="482" 
d="M65 300c-9 0 -15 9 -14 19l8 56c1 10 10 19 19 19h359c9 0 14 -9 13 -19l-8 -56c-1 -10 -10 -19 -19 -19h-358z" />
    <glyph glyph-name="plusminus" unicode="&#xb1;" horiz-adv-x="521" 
d="M233 242c-9 0 -16 8 -14 18l13 103h-131c-9 0 -15 9 -14 19l8 56c1 10 10 19 19 19h131l21 148c1 10 11 18 20 18h61c9 0 16 -8 15 -18l-21 -148h131c9 0 15 -9 14 -19l-8 -56c-1 -10 -10 -19 -19 -19h-131l-13 -103c-2 -10 -11 -18 -20 -18h-62zM48 47
c-12 0 -18 9 -17 19l7 56c1 10 11 19 20 19h358c9 0 15 -9 14 -19l-8 -56c-1 -10 -10 -19 -19 -19h-355z" />
    <glyph glyph-name="multiply" unicode="&#xd7;" horiz-adv-x="437" 
d="M87 174l-37 42c-6 7 -4 19 3 26l111 108l-78 105c-5 7 -4 21 4 27l42 36c8 6 19 7 24 0l78 -105l111 109c8 7 18 6 24 -1l37 -42c6 -6 5 -19 -3 -26l-111 -109l78 -105c6 -8 4 -21 -4 -27l-43 -35c-8 -6 -18 -8 -23 -1l-79 106l-111 -108c-7 -7 -17 -6 -23 0z" />
    <glyph glyph-name="divide" unicode="&#xf7;" horiz-adv-x="465" 
d="M257 471c-32 0 -55 28 -55 61c0 42 36 77 75 77c32 0 56 -27 56 -60c0 -42 -37 -78 -76 -78zM57 299c-9 0 -15 9 -14 19l8 56c1 10 10 19 19 19h358c9 0 15 -9 14 -19l-8 -56c-1 -10 -10 -19 -19 -19h-358zM148 151c0 43 35 77 74 77c33 0 57 -26 57 -59
c0 -43 -37 -78 -76 -78c-32 0 -55 27 -55 60z" />
    <glyph glyph-name="notequal" unicode="&#x2260;" horiz-adv-x="424" 
d="M118 51c-9 5 -10 15 -5 24l28 52h-61c-10 0 -15 9 -14 19l8 57c1 10 9 19 19 19h105l60 116h-148c-10 0 -16 9 -15 19l8 56c1 10 10 19 20 19h191l42 75c5 10 17 13 24 9l12 -6c8 -4 9 -14 4 -24l-29 -54h56c10 0 15 -9 14 -19l-8 -56c-1 -10 -9 -19 -19 -19h-99
l-61 -116h143c10 0 16 -9 15 -19l-8 -57c-1 -10 -10 -19 -20 -19h-186l-41 -74c-5 -9 -16 -12 -23 -8z" />
    <glyph glyph-name="approxequal" unicode="&#x2248;" horiz-adv-x="463" 
d="M102 314l-31 33c-5 5 -3 14 1 20c10 16 54 83 120 83c32 0 51 -21 67 -35c11 -10 25 -26 45 -26c24 0 49 30 61 47c7 8 15 8 21 2l29 -32c4 -5 2 -14 -2 -21c-10 -17 -49 -82 -119 -82c-34 0 -52 23 -69 38c-12 10 -21 22 -40 22c-25 0 -53 -30 -64 -46
c-5 -9 -15 -9 -19 -3zM75 115l-31 33c-5 5 -3 14 1 20c10 16 54 83 120 83c32 0 51 -21 67 -35c11 -10 25 -26 45 -26c24 0 49 30 61 47c7 8 15 8 21 2l29 -32c4 -5 2 -14 -2 -21c-10 -17 -49 -82 -119 -82c-34 0 -52 23 -69 38c-12 10 -21 22 -40 22c-25 0 -53 -30 -64 -46
c-5 -9 -15 -9 -19 -3z" />
    <glyph glyph-name="lessequal" unicode="&#x2264;" horiz-adv-x="456" 
d="M49 381c-4 2 -7 7 -6 17l1 12c1 8 6 13 12 16l382 188c13 6 22 0 20 -15l-11 -77c-1 -7 -4 -12 -9 -14l-240 -106l210 -102c5 -3 6 -8 6 -14l-10 -68c-2 -15 -14 -22 -24 -15zM9 47c-9 0 -14 9 -13 19l7 56c1 10 10 19 19 19h354c9 0 15 -9 14 -19l-8 -56
c-1 -10 -10 -19 -19 -19h-354z" />
    <glyph glyph-name="greaterequal" unicode="&#x2265;" horiz-adv-x="456" 
d="M36 203c-12 -7 -22 0 -20 15l12 78c0 6 3 11 8 14l240 102l-210 106c-5 2 -6 7 -5 14l9 67c2 15 13 21 24 15l330 -188c4 -3 7 -8 6 -16l-2 -12c-2 -10 -5 -14 -11 -17zM9 47c-9 0 -14 9 -13 19l7 56c1 10 10 19 19 19h354c9 0 16 -9 15 -19l-8 -56
c-1 -10 -11 -19 -20 -19h-354z" />
    <glyph glyph-name="logicalnot" unicode="&#xac;" horiz-adv-x="463" 
d="M41 300c-9 0 -15 9 -14 19l8 56c1 10 10 19 19 19h358c10 0 15 -10 14 -19l-32 -226c-1 -10 -10 -18 -19 -18h-58c-9 0 -16 8 -14 18l21 151h-283z" />
    <glyph glyph-name="Delta" unicode="&#x2206;" horiz-adv-x="703" 
d="M-5 0c-23 0 -33 14 -17 43l365 658c3 6 10 10 15 10h8c6 0 12 -4 14 -10l178 -660c6 -20 0 -41 -23 -41h-540zM154 119h254l-80 330h-1z" />
    <glyph glyph-name="uni0394" unicode="&#x394;" horiz-adv-x="703" 
d="M-5 0c-23 0 -33 14 -17 43l365 658c3 6 10 10 15 10h8c6 0 12 -4 14 -10l178 -660c6 -20 0 -41 -23 -41h-540zM154 119h254l-80 330h-1z" />
    <glyph glyph-name="Omega" unicode="&#x2126;" horiz-adv-x="781" 
d="M-4 0c-10 0 -15 8 -14 18l13 88c1 9 9 18 18 18h82c-43 36 -71 113 -71 189c0 220 177 397 376 397c157 0 279 -126 279 -298c0 -103 -52 -234 -132 -288h76c9 0 15 -9 14 -18l-13 -88c-1 -10 -9 -18 -18 -18h-248c-9 0 -15 7 -13 18l8 54c4 25 10 30 26 38
c105 54 166 172 166 276c0 108 -63 193 -163 193c-127 0 -229 -131 -229 -272c0 -81 32 -157 99 -197c17 -10 20 -19 17 -38l-8 -54c-1 -10 -8 -18 -18 -18h-247z" />
    <glyph glyph-name="uni03A9" unicode="&#x3a9;" horiz-adv-x="781" 
d="M-4 0c-10 0 -15 8 -14 18l13 88c1 9 9 18 18 18h82c-43 36 -71 113 -71 189c0 220 177 397 376 397c157 0 279 -126 279 -298c0 -103 -52 -234 -132 -288h76c9 0 15 -9 14 -18l-13 -88c-1 -10 -9 -18 -18 -18h-248c-9 0 -15 7 -13 18l8 54c4 25 10 30 26 38
c105 54 166 172 166 276c0 108 -63 193 -163 193c-127 0 -229 -131 -229 -272c0 -81 32 -157 99 -197c17 -10 20 -19 17 -38l-8 -54c-1 -10 -8 -18 -18 -18h-247z" />
    <glyph glyph-name="mu" unicode="&#xb5;" horiz-adv-x="490" 
d="M139 -6l-38 -275c-1 -10 -11 -19 -20 -19h-86c-9 0 -16 9 -15 19l94 662c1 11 10 19 19 19h87c9 0 16 -8 14 -19l-29 -206c-4 -48 13 -77 45 -77c49 0 76 57 76 57l31 226c3 15 11 19 22 19h82c9 0 16 -8 14 -19l-50 -362c-1 -10 -11 -19 -20 -19h-39c-8 0 -13 7 -15 15
l-7 33c-21 -23 -59 -58 -130 -58c-13 0 -24 2 -35 4z" />
    <glyph glyph-name="uni03BC" unicode="&#x3bc;" horiz-adv-x="490" 
d="M139 -6l-38 -275c-1 -10 -11 -19 -20 -19h-86c-9 0 -16 9 -15 19l94 662c1 11 10 19 19 19h87c9 0 16 -8 14 -19l-29 -206c-4 -48 13 -77 45 -77c49 0 76 57 76 57l31 226c3 15 11 19 22 19h82c9 0 16 -8 14 -19l-50 -362c-1 -10 -11 -19 -20 -19h-39c-8 0 -13 7 -15 15
l-7 33c-21 -23 -59 -58 -130 -58c-13 0 -24 2 -35 4z" />
    <glyph glyph-name="pi" unicode="&#x3c0;" horiz-adv-x="681" 
d="M110 18l39 277h-63c-9 0 -16 9 -15 18l10 69c1 10 11 18 20 18h515c9 0 15 -7 13 -17l-10 -70c-1 -10 -9 -18 -18 -18h-68l-39 -277c-1 -10 -11 -18 -20 -18h-92c-8 0 -14 8 -13 18l39 277h-135l-39 -277c-1 -10 -11 -18 -19 -18h-92c-9 0 -14 8 -13 18z" />
    <glyph glyph-name="degree" unicode="&#xb0;" horiz-adv-x="286" 
d="M171 440c-63 0 -110 52 -110 117c0 84 55 153 137 153c62 0 109 -52 109 -117c0 -85 -61 -153 -136 -153zM177 526c21 0 42 26 42 56c0 22 -11 41 -29 41c-22 0 -43 -25 -43 -56c0 -22 12 -41 30 -41z" />
    <glyph glyph-name="afii61289" unicode="&#x2113;" horiz-adv-x="505" 
d="M147 -10c-92 0 -118 80 -105 164c3 19 7 42 11 61c-13 -4 -30 -9 -41 -11c-8 -1 -12 2 -12 11l1 33c0 8 1 17 16 20c21 4 40 8 59 15c8 29 15 56 24 85c70 218 137 342 238 342c64 0 98 -55 86 -139c-24 -164 -151 -282 -301 -341c-7 -25 -12 -47 -16 -74
c-7 -50 -1 -98 49 -98c53 0 100 20 139 44c14 9 18 3 22 -5l10 -21c6 -13 7 -16 -6 -27c-11 -9 -87 -59 -174 -59zM146 304c102 46 193 147 211 267c6 43 -2 70 -29 70c-58 0 -112 -107 -166 -284z" />
    <glyph glyph-name="estimated" unicode="&#x212e;" horiz-adv-x="823" 
d="M116 168c35 -71 105 -113 189 -113c63 0 133 30 193 81c10 9 18 13 26 2l16 -22c6 -8 2 -19 -9 -29c-69 -69 -154 -97 -235 -97c-183 0 -305 157 -277 359c29 203 195 361 378 361c182 0 303 -161 277 -364c-3 -22 -11 -29 -26 -29h-511zM146 380h412l21 150
c-38 70 -103 114 -191 114c-89 0 -163 -41 -221 -112z" />
    <glyph glyph-name="eng" unicode="&#x14b;" horiz-adv-x="486" 
d="M22 19l51 362c1 11 10 19 19 19h39c6 0 13 -5 14 -12l9 -37c19 17 68 59 135 59c110 0 153 -95 138 -199l-45 -319c-18 -132 -101 -202 -204 -202c-47 0 -90 23 -103 39c-5 5 -5 16 0 23l38 62c4 8 15 10 22 5c10 -8 33 -18 52 -18c40 0 68 33 76 91l46 325
c7 52 -11 85 -51 85c-52 0 -86 -56 -86 -56l-32 -227c-2 -14 -7 -19 -21 -19h-83c-9 0 -16 9 -14 19z" />
    <glyph glyph-name="Eng" unicode="&#x14a;" horiz-adv-x="716" 
d="M53 17l94 675c1 10 10 18 19 18h26l305 -432h1l54 403c1 10 9 19 19 19h97c9 0 16 -9 15 -19l-111 -789c-18 -132 -93 -202 -204 -202c-47 0 -90 23 -103 39c-5 5 -5 16 0 23l38 62c4 8 15 10 22 5c10 -8 31 -18 52 -18c40 0 60 33 68 91l27 194l-234 349h-1l-54 -416
c-1 -10 -10 -19 -20 -19h-96c-8 0 -15 8 -14 17z" />
    <glyph glyph-name="infinity" unicode="&#x221e;" horiz-adv-x="593" 
d="M181 156c-68 0 -117 63 -106 140c10 78 70 140 145 140c37 0 70 -25 86 -55c26 31 67 55 104 55c68 0 118 -62 108 -140c-11 -77 -69 -140 -147 -140c-37 0 -69 24 -88 55c-26 -31 -61 -55 -102 -55zM341 296c-5 -29 13 -52 39 -52s51 23 56 52c4 29 -15 52 -41 52
s-50 -23 -54 -52zM195 244c26 0 51 23 56 52c4 29 -15 52 -41 52c-25 0 -49 -23 -53 -52c-5 -29 13 -52 38 -52z" />
    <glyph glyph-name="partialdiff" unicode="&#x2202;" horiz-adv-x="570" 
d="M57 219c20 143 125 217 215 217c42 0 79 -18 93 -28c-13 110 -124 179 -165 194c-16 6 -18 17 -12 29l28 57c6 13 15 18 27 14c73 -28 280 -144 239 -436c-21 -150 -112 -276 -253 -276c-111 0 -189 103 -172 229zM245 104c73 0 110 79 120 147c-5 36 -26 87 -86 87
c-57 0 -103 -53 -112 -117c-9 -63 22 -117 78 -117z" />
    <glyph glyph-name="integral" unicode="&#x222b;" horiz-adv-x="354" 
d="M88 -108l86 617c19 130 87 201 207 201c52 0 88 -28 100 -39c6 -6 6 -17 1 -24l-43 -58c-6 -8 -15 -10 -22 -5c-10 7 -24 13 -45 13c-29 0 -62 -27 -71 -89l-87 -617c-18 -130 -96 -201 -206 -201c-52 0 -88 25 -101 39c-5 6 -5 16 0 24l41 60c5 8 14 10 21 5
c8 -6 26 -15 47 -15c30 0 63 27 72 89z" />
    <glyph glyph-name="radical" unicode="&#x221a;" horiz-adv-x="687" 
d="M197 1l-102 376c-4 12 4 23 16 23h79c6 0 11 -6 12 -10l39 -153h4l248 452c3 5 7 11 16 11h175c9 0 15 -8 14 -18l-10 -72c-2 -10 -10 -18 -19 -18h-107l-329 -591c-3 -6 -9 -11 -15 -11h-8c-7 0 -12 5 -13 11z" />
    <glyph glyph-name="summation" unicode="&#x2211;" horiz-adv-x="546" 
d="M25 18l5 40l282 308l-199 282l5 34c2 10 10 18 19 18h369c9 0 16 -8 14 -18l-12 -88c-2 -10 -11 -18 -20 -18h-181l115 -157c5 -7 15 -20 12 -39l-7 -45c-4 -25 -16 -34 -23 -42l-160 -169h181c9 0 16 -8 14 -18l-12 -88c-2 -10 -11 -18 -20 -18h-369c-9 0 -15 8 -13 18z
" />
    <glyph glyph-name="product" unicode="&#x220f;" horiz-adv-x="686" 
d="M31 18l93 664c2 10 11 18 20 18h496c8 0 15 -8 13 -18l-93 -664c-2 -10 -11 -18 -19 -18h-100c-9 0 -14 8 -12 18l78 558h-266l-78 -558c-2 -10 -10 -18 -19 -18h-99c-9 0 -16 8 -14 18z" />
    <glyph glyph-name="lozenge" unicode="&#x25ca;" horiz-adv-x="703" 
d="M285 10l-174 302c-10 18 -11 35 -4 55c4 11 10 21 22 35l253 299c4 6 10 10 15 10h9c5 0 11 -4 13 -10l169 -298c12 -21 15 -37 9 -58c-4 -13 -11 -23 -22 -38l-253 -297c-4 -6 -10 -10 -15 -10h-9c-5 0 -11 5 -13 10zM324 178h2l146 184l-93 173h-2l-149 -187z" />
    <glyph glyph-name="uniF8FF" unicode="&#xf8ff;" horiz-adv-x="599" 
d="M50 30v640c0 21 9 30 30 30h439c21 0 30 -9 30 -30v-640c0 -21 -9 -30 -30 -30h-439c-21 0 -30 9 -30 30zM262 314c0 -7 7 -12 14 -12h36c9 0 15 4 15 13v26c0 48 105 63 105 150c0 65 -54 111 -125 111c-87 0 -130 -61 -130 -61c-4 -6 -6 -13 0 -18l22 -22
c6 -4 11 -4 17 0c13 12 36 41 84 41c40 0 61 -25 61 -52c0 -63 -99 -72 -99 -147v-29zM245 156c0 -26 22 -48 48 -48c27 0 49 22 49 48s-22 48 -49 48c-26 0 -48 -22 -48 -48z" />
    <glyph glyph-name="zero.tf" horiz-adv-x="580" 
d="M246 -10c-116 0 -187 105 -187 266c0 262 110 435 286 435c116 0 187 -104 187 -265c0 -262 -102 -436 -286 -436zM263 108c84 0 136 137 136 315c0 91 -25 150 -71 150c-84 0 -136 -137 -136 -314c0 -92 24 -151 71 -151z" />
    <glyph glyph-name="one.tf" horiz-adv-x="580" 
d="M99 0c-10 0 -15 8 -14 18l11 71c1 11 10 19 20 19h107l55 390l-86 -19c-9 -2 -17 4 -16 13l5 55c1 10 3 15 13 23l142 110h74c9 0 15 -9 14 -19l-77 -553h90c10 0 15 -8 14 -19l-11 -71c-1 -10 -10 -18 -20 -18h-321z" />
    <glyph glyph-name="two.tf" horiz-adv-x="580" 
d="M64 19l3 23l283 333c26 31 57 73 57 120c0 42 -23 79 -71 79c-42 0 -82 -39 -105 -63c-8 -8 -18 -7 -25 0l-50 55c-5 6 -5 18 3 26c15 16 85 98 192 98c116 0 180 -79 180 -187c0 -57 -24 -115 -74 -174l-189 -222h183c9 0 15 -9 14 -19l-9 -69c-1 -10 -11 -19 -20 -19
h-358c-10 0 -15 9 -14 19z" />
    <glyph glyph-name="three.tf" horiz-adv-x="580" 
d="M74 79c-5 7 -3 19 4 25l53 48c8 8 20 8 29 -5c15 -20 48 -47 96 -47c56 0 100 42 100 103c0 46 -35 89 -101 89h-51c-9 0 -16 8 -14 20l9 63c2 13 10 20 20 20h50c75 0 121 51 121 109c0 40 -28 66 -66 66c-44 0 -72 -32 -90 -49c-8 -8 -18 -9 -25 -1l-48 56
c-6 7 -4 19 3 26c19 20 82 88 181 88c98 0 172 -63 172 -159c0 -92 -70 -162 -118 -185v-3c36 -18 88 -68 88 -142c0 -118 -89 -211 -231 -211c-113 0 -165 64 -182 89z" />
    <glyph glyph-name="four.tf" horiz-adv-x="580" 
d="M46 145c-10 0 -16 9 -14 19l11 83l380 438c3 4 7 6 15 6h58c9 0 16 -8 14 -19l-59 -426h71c10 0 16 -8 15 -18l-9 -62c-1 -10 -10 -19 -20 -19h-71l-17 -128c-2 -10 -11 -19 -20 -19h-87c-9 0 -16 9 -15 19l18 126h-270zM178 249h156l35 221z" />
    <glyph glyph-name="five.tf" horiz-adv-x="580" 
d="M71 79c-5 7 -3 19 4 25l51 48c8 8 19 7 29 -5c11 -13 48 -47 98 -47c68 0 121 65 121 137c0 52 -29 94 -86 94h-139c-18 0 -25 19 -23 35l42 295c1 10 10 19 20 19h287c10 0 16 -9 15 -19l-10 -68c-1 -10 -10 -19 -20 -19h-191l-19 -133h70c112 0 177 -84 177 -197
c0 -150 -98 -254 -244 -254c-107 0 -165 64 -182 89z" />
    <glyph glyph-name="six.tf" horiz-adv-x="580" 
d="M69 224c0 326 283 452 367 478c14 4 23 -1 25 -14l16 -61c3 -12 -2 -22 -21 -29c-44 -16 -186 -79 -226 -180c0 0 36 18 90 18c95 0 171 -71 171 -189c0 -147 -105 -257 -233 -257c-116 0 -189 109 -189 234zM265 104c62 0 111 62 111 134c0 55 -34 98 -88 98
c-50 0 -89 -43 -102 -62c-15 -66 9 -170 79 -170z" />
    <glyph glyph-name="seven.tf" horiz-adv-x="580" 
d="M65 19l2 11l312 542h-228c-9 0 -16 9 -15 19l10 70c1 10 11 19 20 19h374c9 0 17 -9 15 -19l-3 -15l-352 -619c-10 -17 -21 -27 -35 -27h-82c-11 0 -21 3 -18 19z" />
    <glyph glyph-name="eight.tf" horiz-adv-x="580" 
d="M59 158c0 105 111 176 135 191v3c-29 20 -72 70 -72 136c0 120 97 202 223 202c100 0 180 -64 180 -160c0 -92 -73 -151 -116 -177l-1 -4c34 -21 88 -74 88 -148c0 -117 -89 -211 -246 -211c-122 0 -191 73 -191 168zM309 407c57 16 88 59 88 107c0 41 -28 68 -64 68
c-41 0 -85 -38 -85 -94c0 -37 20 -68 61 -81zM193 171c0 -47 34 -74 72 -74c46 0 98 37 98 100c0 39 -25 80 -71 93c-60 -17 -99 -68 -99 -119z" />
    <glyph glyph-name="nine.tf" horiz-adv-x="580" 
d="M103 59c-3 12 2 22 21 29c44 16 186 79 226 180c0 0 -36 -18 -90 -18c-95 0 -171 71 -171 189c0 147 105 257 233 257c116 0 189 -109 189 -234c0 -326 -283 -452 -367 -478c-14 -4 -23 1 -25 14zM292 350c50 0 89 43 102 62c15 66 -9 170 -79 170
c-62 0 -111 -62 -111 -134c0 -55 34 -98 88 -98z" />
    <glyph glyph-name="zerosuperior" unicode="&#x2070;" horiz-adv-x="324" 
d="M231 494c-60 0 -98 49 -98 123c0 117 53 193 142 193c61 0 98 -48 98 -123c0 -116 -54 -193 -142 -193zM241 568c28 0 48 52 48 116c0 32 -10 52 -24 52c-29 0 -48 -54 -48 -116c0 -32 10 -52 24 -52z" />
    <glyph glyph-name="foursuperior" unicode="&#x2074;" horiz-adv-x="336" 
d="M252 504c-5 0 -9 4 -8 9l7 48h-120c-4 0 -7 4 -7 8l7 51l167 175c5 5 8 5 13 5h39c4 0 8 -4 7 -9l-24 -170h35c5 0 8 -4 7 -8l-6 -43c0 -5 -5 -9 -9 -9h-36l-6 -48c-1 -5 -5 -9 -10 -9h-56zM201 620h59l12 72z" />
    <glyph glyph-name="fivesuperior" unicode="&#x2075;" horiz-adv-x="294" 
d="M208 494c-39 0 -76 24 -85 38c-3 5 -4 9 1 15l27 32c6 7 10 6 14 2c9 -9 22 -20 48 -20c22 0 43 18 43 43c0 19 -13 32 -33 32h-66c-9 0 -13 8 -12 16l20 139c1 5 5 9 10 9h144c5 0 8 -4 7 -9l-6 -44c0 -5 -5 -9 -10 -9h-89l-5 -39h28c58 0 90 -36 90 -87
c0 -66 -43 -118 -126 -118z" />
    <glyph glyph-name="sixsuperior" unicode="&#x2076;" horiz-adv-x="303" 
d="M225 494c-57 0 -96 46 -96 104c0 148 138 204 174 216c10 3 15 -1 17 -8l14 -34c0 -6 -1 -13 -11 -16c-22 -7 -81 -34 -100 -74c1 1 19 13 49 13c36 0 71 -28 71 -81c0 -67 -50 -120 -118 -120zM232 563c18 0 36 20 36 44c0 19 -10 33 -25 33c-17 0 -33 -18 -39 -30
c-3 -23 9 -47 28 -47z" />
    <glyph glyph-name="sevensuperior" unicode="&#x2077;" horiz-adv-x="292" 
d="M129 504c-7 0 -11 2 -10 8l1 6l131 218h-90c-4 0 -9 4 -8 8l7 47c1 5 6 9 10 9h179c4 0 8 -4 7 -9l-2 -14l-153 -264c-5 -7 -9 -9 -15 -9h-57z" />
    <glyph glyph-name="eightsuperior" unicode="&#x2078;" horiz-adv-x="313" 
d="M224 494c-61 0 -99 33 -99 77c0 54 60 82 66 85v1c-15 7 -37 28 -37 61c0 56 51 92 115 92c53 0 93 -29 93 -74c0 -44 -37 -70 -58 -79v-1c20 -6 46 -28 46 -66c0 -55 -49 -96 -126 -96zM252 687c15 3 28 17 28 35c0 14 -9 21 -20 21c-14 0 -28 -12 -28 -30
c0 -15 9 -23 20 -26zM235 558c15 0 33 12 33 35c0 14 -9 28 -25 30c-17 -2 -33 -20 -33 -40c0 -15 11 -25 25 -25z" />
    <glyph glyph-name="ninesuperior" unicode="&#x2079;" horiz-adv-x="303" 
d="M181 488c-10 -3 -15 1 -17 8l-14 34c0 6 1 13 11 16c22 7 81 34 100 74c-1 -1 -19 -13 -49 -13c-36 0 -71 28 -71 81c0 67 50 120 118 120c57 0 96 -46 96 -104c0 -148 -138 -204 -174 -216zM241 662c17 0 33 18 39 30c3 23 -9 47 -28 47c-18 0 -36 -20 -36 -44
c0 -19 10 -33 25 -33z" />
    <glyph glyph-name="zeroinferior" unicode="&#x2080;" horiz-adv-x="324" 
d="M33 -37c0 117 53 193 142 193c61 0 98 -48 98 -123c0 -116 -54 -193 -142 -193c-60 0 -98 49 -98 123zM117 -34c0 -32 10 -52 24 -52c28 0 48 52 48 116c0 32 -10 52 -24 52c-29 0 -48 -54 -48 -116z" />
    <glyph glyph-name="oneinferior" unicode="&#x2081;" horiz-adv-x="226" 
d="M51 48c-4 0 -7 3 -6 9l3 30c1 8 4 11 9 14l74 45h52c5 0 8 -4 7 -9l-39 -278c-1 -5 -5 -9 -10 -9h-62c-5 0 -8 4 -8 9l27 193z" />
    <glyph glyph-name="twoinferior" unicode="&#x2082;" horiz-adv-x="285" 
d="M76 73l-18 33c-4 8 -6 12 7 21c7 5 39 29 88 29s88 -32 88 -79c0 -36 -14 -67 -42 -99l-57 -64h66c5 0 9 -4 8 -9l-7 -46c0 -5 -5 -9 -9 -9h-176c-5 0 -9 3 -8 9l3 17l112 126c19 22 29 40 29 57c0 15 -8 28 -24 28c-15 0 -30 -9 -44 -19c-6 -4 -11 -4 -16 5z" />
    <glyph glyph-name="threeinferior" unicode="&#x2083;" horiz-adv-x="285" 
d="M70 -16l4 31c1 10 8 14 17 14h26c19 0 35 15 35 36c0 15 -10 25 -26 25c-12 0 -24 -8 -33 -16c-6 -3 -9 -5 -14 3l-21 31c-4 5 -2 14 4 18c0 0 32 30 80 30c54 0 93 -28 93 -72c0 -43 -32 -70 -57 -81c17 -8 44 -29 44 -67c0 -61 -53 -96 -116 -96c-47 0 -74 25 -81 33
c-6 6 -6 11 0 18l22 26c6 6 11 8 17 2s18 -13 37 -13c26 0 38 14 38 36c0 16 -10 28 -31 28h-28c-8 0 -12 3 -10 14z" />
    <glyph glyph-name="fourinferior" unicode="&#x2084;" horiz-adv-x="336" 
d="M31 -34l167 175c5 5 8 5 13 5h39c4 0 8 -4 7 -9l-24 -170h35c5 0 8 -4 7 -8l-6 -43c0 -5 -5 -9 -9 -9h-36l-6 -48c-1 -5 -5 -9 -10 -9h-56c-5 0 -9 4 -8 9l7 48h-120c-4 0 -7 4 -7 8zM101 -34h59l12 72z" />
    <glyph glyph-name="fiveinferior" unicode="&#x2085;" horiz-adv-x="294" 
d="M45 -2l20 139c1 5 5 9 10 9h144c5 0 8 -4 7 -9l-6 -44c0 -5 -5 -9 -10 -9h-89l-5 -39h28c58 0 90 -36 90 -87c0 -66 -43 -118 -126 -118c-39 0 -76 24 -85 38c-3 5 -4 9 1 15l27 32c6 7 10 6 14 2c9 -9 22 -20 48 -20c22 0 43 18 43 43c0 19 -13 32 -33 32h-66
c-9 0 -13 8 -12 16z" />
    <glyph glyph-name="sixinferior" unicode="&#x2086;" horiz-adv-x="303" 
d="M29 -56c0 148 138 204 174 216c10 3 15 -1 17 -8l14 -34c0 -6 -1 -13 -11 -16c-22 -7 -81 -34 -100 -74c1 1 19 13 49 13c36 0 71 -28 71 -81c0 -67 -50 -120 -118 -120c-57 0 -96 46 -96 104zM104 -44c-3 -23 9 -47 28 -47c18 0 36 20 36 44c0 19 -10 33 -25 33
c-17 0 -33 -18 -39 -30z" />
    <glyph glyph-name="seveninferior" unicode="&#x2087;" horiz-adv-x="292" 
d="M61 82c-4 0 -9 4 -8 8l7 47c1 5 6 9 10 9h179c4 0 8 -4 7 -9l-2 -14l-153 -264c-5 -7 -9 -9 -15 -9h-57c-7 0 -11 2 -10 8l1 6l131 218h-90z" />
    <glyph glyph-name="eightinferior" unicode="&#x2088;" horiz-adv-x="313" 
d="M54 64c0 56 51 92 115 92c53 0 93 -29 93 -74c0 -44 -37 -70 -58 -79v-1c20 -6 46 -28 46 -66c0 -55 -49 -96 -126 -96c-61 0 -99 33 -99 77c0 54 60 82 66 85v1c-15 7 -37 28 -37 61zM132 59c0 -15 9 -23 20 -26c15 3 28 17 28 35c0 14 -9 21 -20 21
c-14 0 -28 -12 -28 -30zM110 -71c0 -15 11 -25 25 -25c15 0 33 12 33 35c0 14 -9 28 -25 30c-17 -2 -33 -20 -33 -40z" />
    <glyph glyph-name="nineinferior" unicode="&#x2089;" horiz-adv-x="303" 
d="M41 34c0 67 50 120 118 120c57 0 96 -46 96 -104c0 -148 -138 -204 -174 -216c-10 -3 -15 1 -17 8l-14 34c0 6 1 13 11 16c22 7 81 34 100 74c-1 -1 -19 -13 -49 -13c-36 0 -71 28 -71 81zM116 41c0 -19 10 -33 25 -33c17 0 33 18 39 30c3 23 -9 47 -28 47
c-18 0 -36 -20 -36 -44z" />
    <glyph glyph-name="zero.denom" horiz-adv-x="324" 
d="M63 113c0 117 53 193 142 193c61 0 98 -48 98 -123c0 -116 -54 -193 -142 -193c-60 0 -98 49 -98 123zM171 64c28 0 48 52 48 116c0 32 -10 52 -24 52c-29 0 -48 -54 -48 -116c0 -32 10 -52 24 -52z" />
    <glyph glyph-name="one.denom" horiz-adv-x="226" 
d="M101 9l27 193l-47 -4c-4 0 -7 3 -6 9l3 30c1 8 4 11 9 14l74 45h52c5 0 8 -4 7 -9l-39 -278c-1 -5 -5 -9 -10 -9h-62c-5 0 -8 4 -8 9z" />
    <glyph glyph-name="two.denom" horiz-adv-x="285" 
d="M46 9l3 17l112 126c19 22 29 40 29 57c0 15 -8 28 -24 28c-15 0 -30 -9 -44 -19c-6 -4 -11 -4 -16 5l-18 33c-4 8 -6 12 7 21c7 5 39 29 88 29s88 -32 88 -79c0 -36 -14 -67 -42 -99l-57 -64h66c5 0 9 -4 8 -9l-7 -46c0 -5 -5 -9 -9 -9h-176c-5 0 -9 3 -8 9z" />
    <glyph glyph-name="three.denom" horiz-adv-x="285" 
d="M55 23c-6 6 -6 11 0 18l22 26c6 6 11 8 17 2s18 -13 37 -13c26 0 38 14 38 36c0 16 -10 28 -31 28h-28c-8 0 -12 3 -10 14l4 31c1 10 8 14 17 14h26c19 0 35 15 35 36c0 15 -10 25 -26 25c-12 0 -24 -8 -33 -16c-6 -3 -9 -5 -14 3l-21 31c-4 5 -2 14 4 18
c0 0 32 30 80 30c54 0 93 -28 93 -72c0 -43 -32 -70 -57 -81c17 -8 44 -29 44 -67c0 -61 -53 -96 -116 -96c-47 0 -74 25 -81 33z" />
    <glyph glyph-name="four.denom" horiz-adv-x="336" 
d="M61 57c-4 0 -7 4 -7 8l7 51l167 175c5 5 8 5 13 5h39c4 0 8 -4 7 -9l-24 -170h35c5 0 8 -4 7 -8l-6 -43c0 -5 -5 -9 -9 -9h-36l-6 -48c-1 -5 -5 -9 -10 -9h-56c-5 0 -9 4 -8 9l7 48h-120zM131 116h59l12 72z" />
    <glyph glyph-name="five.denom" horiz-adv-x="294" 
d="M53 28c-3 5 -4 9 1 15l27 32c6 7 10 6 14 2c9 -9 22 -20 48 -20c22 0 43 18 43 43c0 19 -13 32 -33 32h-66c-9 0 -13 8 -12 16l20 139c1 5 5 9 10 9h144c5 0 8 -4 7 -9l-6 -44c0 -5 -5 -9 -10 -9h-89l-5 -39h28c58 0 90 -36 90 -87c0 -66 -43 -118 -126 -118
c-39 0 -76 24 -85 38z" />
    <glyph glyph-name="six.denom" horiz-adv-x="303" 
d="M59 94c0 148 138 204 174 216c10 3 15 -1 17 -8l14 -34c0 -6 -1 -13 -11 -16c-22 -7 -81 -34 -100 -74c1 1 19 13 49 13c36 0 71 -28 71 -81c0 -67 -50 -120 -118 -120c-57 0 -96 46 -96 104zM134 106c-3 -23 9 -47 28 -47c18 0 36 20 36 44c0 19 -10 33 -25 33
c-17 0 -33 -18 -39 -30z" />
    <glyph glyph-name="seven.denom" horiz-adv-x="292" 
d="M49 8l1 6l131 218h-90c-4 0 -9 4 -8 8l7 47c1 5 6 9 10 9h179c4 0 8 -4 7 -9l-2 -14l-153 -264c-5 -7 -9 -9 -15 -9h-57c-7 0 -11 2 -10 8z" />
    <glyph glyph-name="eight.denom" horiz-adv-x="313" 
d="M55 67c0 54 60 82 66 85v1c-15 7 -37 28 -37 61c0 56 51 92 115 92c53 0 93 -29 93 -74c0 -44 -37 -70 -58 -79v-1c20 -6 46 -28 46 -66c0 -55 -49 -96 -126 -96c-61 0 -99 33 -99 77zM182 183c15 3 28 17 28 35c0 14 -9 21 -20 21c-14 0 -28 -12 -28 -30
c0 -15 9 -23 20 -26zM140 79c0 -15 11 -25 25 -25c15 0 33 12 33 35c0 14 -9 28 -25 30c-17 -2 -33 -20 -33 -40z" />
    <glyph glyph-name="nine.denom" horiz-adv-x="303" 
d="M80 26c0 6 1 13 11 16c22 7 81 34 100 74c-1 -1 -19 -13 -49 -13c-36 0 -71 28 -71 81c0 67 50 120 118 120c57 0 96 -46 96 -104c0 -148 -138 -204 -174 -216c-10 -3 -15 1 -17 8zM171 158c17 0 33 18 39 30c3 23 -9 47 -28 47c-18 0 -36 -20 -36 -44
c0 -19 10 -33 25 -33z" />
    <glyph glyph-name="zero.num" horiz-adv-x="324" 
d="M211 394c-60 0 -98 49 -98 123c0 117 53 193 142 193c61 0 98 -48 98 -123c0 -116 -54 -193 -142 -193zM221 468c28 0 48 52 48 116c0 32 -10 52 -24 52c-29 0 -48 -54 -48 -116c0 -32 10 -52 24 -52z" />
    <glyph glyph-name="one.num" horiz-adv-x="226" 
d="M159 404c-5 0 -8 4 -8 9l27 193l-47 -4c-4 0 -7 3 -6 9l3 30c1 8 4 11 9 14l74 45h52c5 0 8 -4 7 -9l-39 -278c-1 -5 -5 -9 -10 -9h-62z" />
    <glyph glyph-name="two.num" horiz-adv-x="285" 
d="M104 404c-5 0 -9 3 -8 9l3 17l112 126c19 22 29 40 29 57c0 15 -8 28 -24 28c-15 0 -30 -9 -44 -19c-6 -4 -11 -4 -16 5l-18 33c-4 8 -6 12 7 21c7 5 39 29 88 29s88 -32 88 -79c0 -36 -14 -67 -42 -99l-57 -64h66c5 0 9 -4 8 -9l-7 -46c0 -5 -5 -9 -9 -9h-176z" />
    <glyph glyph-name="three.num" horiz-adv-x="285" 
d="M186 394c-47 0 -74 25 -81 33c-6 6 -6 11 0 18l22 26c6 6 11 8 17 2s18 -13 37 -13c26 0 38 14 38 36c0 16 -10 28 -31 28h-28c-8 0 -12 3 -10 14l4 31c1 10 8 14 17 14h26c19 0 35 15 35 36c0 15 -10 25 -26 25c-12 0 -24 -8 -33 -16c-6 -3 -9 -5 -14 3l-21 31
c-4 5 -2 14 4 18c0 0 32 30 80 30c54 0 93 -28 93 -72c0 -43 -32 -70 -57 -81c17 -8 44 -29 44 -67c0 -61 -53 -96 -116 -96z" />
    <glyph glyph-name="four.num" horiz-adv-x="336" 
d="M232 404c-5 0 -9 4 -8 9l7 48h-120c-4 0 -7 4 -7 8l7 51l167 175c5 5 8 5 13 5h39c4 0 8 -4 7 -9l-24 -170h35c5 0 8 -4 7 -8l-6 -43c0 -5 -5 -9 -9 -9h-36l-6 -48c-1 -5 -5 -9 -10 -9h-56zM181 520h59l12 72z" />
    <glyph glyph-name="five.num" horiz-adv-x="294" 
d="M188 394c-39 0 -76 24 -85 38c-3 5 -4 9 1 15l27 32c6 7 10 6 14 2c9 -9 22 -20 48 -20c22 0 43 18 43 43c0 19 -13 32 -33 32h-66c-9 0 -13 8 -12 16l20 139c1 5 5 9 10 9h144c5 0 8 -4 7 -9l-6 -44c0 -5 -5 -9 -10 -9h-89l-5 -39h28c58 0 90 -36 90 -87
c0 -66 -43 -118 -126 -118z" />
    <glyph glyph-name="six.num" horiz-adv-x="303" 
d="M205 394c-57 0 -96 46 -96 104c0 148 138 204 174 216c10 3 15 -1 17 -8l14 -34c0 -6 -1 -13 -11 -16c-22 -7 -81 -34 -100 -74c1 1 19 13 49 13c36 0 71 -28 71 -81c0 -67 -50 -120 -118 -120zM212 463c18 0 36 20 36 44c0 19 -10 33 -25 33c-17 0 -33 -18 -39 -30
c-3 -23 9 -47 28 -47z" />
    <glyph glyph-name="seven.num" horiz-adv-x="292" 
d="M109 404c-7 0 -11 2 -10 8l1 6l131 218h-90c-4 0 -9 4 -8 8l7 47c1 5 6 9 10 9h179c4 0 8 -4 7 -9l-2 -14l-153 -264c-5 -7 -9 -9 -15 -9h-57z" />
    <glyph glyph-name="eight.num" horiz-adv-x="313" 
d="M204 394c-61 0 -99 33 -99 77c0 54 60 82 66 85v1c-15 7 -37 28 -37 61c0 56 51 92 115 92c53 0 93 -29 93 -74c0 -44 -37 -70 -58 -79v-1c20 -6 46 -28 46 -66c0 -55 -49 -96 -126 -96zM232 587c15 3 28 17 28 35c0 14 -9 21 -20 21c-14 0 -28 -12 -28 -30
c0 -15 9 -23 20 -26zM215 458c15 0 33 12 33 35c0 14 -9 28 -25 30c-17 -2 -33 -20 -33 -40c0 -15 11 -25 25 -25z" />
    <glyph glyph-name="nine.num" horiz-adv-x="303" 
d="M161 388c-10 -3 -15 1 -17 8l-14 34c0 6 1 13 11 16c22 7 81 34 100 74c-1 -1 -19 -13 -49 -13c-36 0 -71 28 -71 81c0 67 50 120 118 120c57 0 96 -46 96 -104c0 -148 -138 -204 -174 -216zM221 562c17 0 33 18 39 30c3 23 -9 47 -28 47c-18 0 -36 -20 -36 -44
c0 -19 10 -33 25 -33z" />
    <glyph glyph-name="parenleft.case" horiz-adv-x="327" 
d="M66 237c0 407 166 492 292 503c10 1 16 -6 15 -15l-6 -66c-1 -11 -7 -16 -14 -18c-169 -40 -162 -313 -162 -401c0 -97 26 -168 80 -190c5 -2 10 -7 8 -18l-12 -65c-2 -10 -10 -16 -20 -16c-86 4 -181 88 -181 286z" />
    <glyph glyph-name="parenright.case" horiz-adv-x="328" 
d="M12 33c1 11 8 16 14 18c84 27 162 127 162 398c0 97 -23 176 -80 192c-6 2 -10 7 -8 18l12 66c2 9 10 16 20 15c86 -7 181 -78 181 -287c0 -411 -167 -496 -292 -502c-10 0 -16 6 -15 16z" />
    <glyph glyph-name="hyphen.case" horiz-adv-x="348" 
d="M79 282c-10 0 -15 8 -14 18l9 67c1 11 10 19 20 19h204c10 0 15 -8 14 -19l-9 -67c-1 -10 -10 -18 -20 -18h-204z" />
    <glyph glyph-name="bracketleft.case" horiz-adv-x="332" 
d="M133 -80h115c9 0 16 -8 15 -18l-9 -63c-1 -10 -11 -19 -20 -19h-213c-9 0 -16 9 -15 19l136 962c1 10 10 19 19 19h214c9 0 15 -9 14 -19l-8 -62c-1 -11 -11 -19 -20 -19h-115z" />
    <glyph glyph-name="bracketright.case" horiz-adv-x="333" 
d="M-10 -80h115l113 800h-116c-9 0 -16 8 -14 19l9 62c1 10 10 19 19 19h214c9 0 16 -9 14 -19l-135 -962c-1 -10 -11 -19 -20 -19h-213c-9 0 -16 9 -15 19l9 63c1 10 11 18 20 18z" />
    <glyph glyph-name="braceleft.case" horiz-adv-x="360" 
d="M71 84l17 123c6 45 -32 64 -53 68c-11 2 -12 10 -11 18l7 49c2 11 9 15 15 17c3 1 67 26 73 69l18 127c33 231 169 271 262 275c10 0 17 -5 16 -17l-5 -63c-1 -11 -8 -16 -15 -18c-69 -15 -118 -75 -133 -177l-15 -105c-12 -86 -89 -126 -93 -130v-4
c20 -10 67 -40 59 -105l-20 -164c-9 -75 33 -123 87 -138c6 -2 12 -8 10 -19l-13 -63c-2 -10 -12 -17 -21 -17c-92 5 -214 64 -185 274z" />
    <glyph glyph-name="bar.case" horiz-adv-x="175" 
d="M5 -162l144 1023c1 11 10 19 19 19h14c9 0 15 -8 14 -19l-144 -1023c-1 -10 -11 -18 -20 -18h-12c-9 0 -16 8 -15 18z" />
    <glyph glyph-name="braceright.case" horiz-adv-x="361" 
d="M116 84l15 107c11 81 68 114 93 125v4c-3 4 -67 44 -56 130l14 105c15 102 -18 161 -83 177c-6 1 -12 7 -10 18l13 63c2 12 10 17 20 17c128 -6 205 -137 187 -268l-19 -134c-7 -43 43 -65 54 -69c5 -2 10 -9 9 -17l-6 -49c-1 -7 -5 -14 -14 -16c-25 -7 -67 -17 -74 -70
l-17 -123c-32 -233 -170 -274 -263 -274c-11 0 -16 5 -15 14l4 66c1 11 7 17 15 19c68 17 119 73 133 175z" />
    <glyph glyph-name="guilsinglleft.case" horiz-adv-x="262" 
d="M110 159l-72 155c-4 8 -2 18 3 24l114 148c4 5 11 12 21 12h64c16 0 19 -15 10 -31l-80 -149l32 -137c4 -16 -3 -30 -18 -30h-62c-6 0 -10 4 -12 8z" />
    <glyph glyph-name="guilsinglright.case" horiz-adv-x="261" 
d="M41 151c-16 0 -19 15 -10 31l80 149l-32 137c-4 16 3 30 18 30h62c6 0 10 -4 12 -8l72 -155c4 -8 2 -18 -3 -24l-114 -148c-4 -5 -11 -12 -21 -12h-64z" />
    <glyph glyph-name="guillemotleft.case" horiz-adv-x="450" 
d="M298 159l-72 155c-4 8 -2 18 3 24l114 148c4 5 11 12 21 12h64c16 0 19 -15 10 -31l-80 -149l32 -137c4 -16 -3 -30 -18 -30h-62c-6 0 -10 4 -12 8zM110 159l-72 155c-4 8 -2 18 3 24l114 148c4 5 11 12 21 12h64c16 0 19 -15 10 -31l-80 -149l32 -137
c4 -16 -3 -30 -18 -30h-62c-6 0 -10 4 -12 8z" />
    <glyph glyph-name="guillemotright.case" horiz-adv-x="450" 
d="M220 182l80 149l-32 137c-4 16 3 30 18 30h62c6 0 10 -4 12 -8l72 -155c4 -8 2 -18 -3 -24l-114 -148c-4 -5 -11 -12 -21 -12h-64c-16 0 -19 15 -10 31zM42 151c-16 0 -19 15 -10 31l80 149l-32 137c-4 16 3 30 18 30h62c6 0 10 -4 12 -8l72 -155c4 -8 2 -18 -3 -24
l-114 -148c-4 -5 -11 -12 -21 -12h-64z" />
    <glyph glyph-name="endash.case" horiz-adv-x="504" 
d="M88 300c-10 0 -16 8 -15 18l5 37c1 11 10 19 20 19h363c10 0 15 -8 14 -19l-5 -37c-1 -10 -10 -18 -20 -18h-362z" />
    <glyph glyph-name="emdash.case" horiz-adv-x="702" 
d="M88 300c-10 0 -16 8 -15 18l5 37c1 11 10 19 20 19h561c10 0 15 -8 14 -19l-5 -37c-1 -10 -10 -18 -20 -18h-560z" />
    <glyph glyph-name="bullet.case" horiz-adv-x="358" 
d="M180 185c-60 0 -105 52 -105 114c0 80 70 148 142 148c63 0 108 -53 108 -117c0 -79 -70 -145 -145 -145z" />
    <glyph glyph-name="periodcentered.case" horiz-adv-x="258" 
d="M139 257c-44 0 -77 36 -77 79c0 56 50 102 102 102c46 0 80 -36 80 -81c0 -54 -51 -100 -105 -100z" />
    <glyph glyph-name="brokenbar" unicode="&#xa6;" horiz-adv-x="316" 
d="M170 392c-9 0 -16 8 -15 18l47 331c1 11 10 19 19 19h14c9 0 15 -8 14 -19l-47 -331c-1 -10 -10 -18 -19 -18h-13zM104 49c2 11 11 19 20 19h14c9 0 15 -8 14 -19l-47 -331c-1 -10 -11 -18 -20 -18h-12c-9 0 -16 8 -15 18z" />
    </font>
</defs>
</svg>
