<?xml version="1.0" standalone="no"?>
<!DOCTYPE svg PUBLIC "-//W3C//DTD SVG 1.1//EN" "http://www.w3.org/Graphics/SVG/1.1/DTD/svg11.dtd" >
<svg xmlns="http://www.w3.org/2000/svg" width="100%" height="100%">
<metadata>
Created by FontXChange 20110222 at Fri Dec  5 12:06:26 2014
 By Timothy Brister
Copyright (c) 2010 - 2012, Matt McInerney (matt@pixelspread.com), Pablo Impallari(impallari@gmail.com), Rodrigo Fuenzalida (hello@rfuenzalida.com) with Reserved Font Name "Raleway"
</metadata>
<defs>
<font id="Raleway-ExtraLight" horiz-adv-x="764" >
  <font-face 
    font-family="Raleway"
    font-weight="200"
    font-stretch="normal"
    units-per-em="1000"
    panose-1="2 11 0 3 3 1 1 6 0 3"
    ascent="800"
    descent="-200"
    x-height="520"
    cap-height="709"
    bbox="-224 -223 1147 938"
    underline-thickness="50"
    underline-position="-50"
    unicode-range="U+0020-FB06"
  />
<missing-glyph horiz-adv-x="0" 
 />
    <glyph glyph-name="f_f" unicode="ff" horiz-adv-x="571" 
d="M487 708q-36 0 -61.5 -15.5t-41.5 -40t-23.5 -54.5t-7.5 -59v-80h179v-30h-179v-429h-34v429h-180v-429h-34v429h-74v30h74v49q0 35 8.5 69.5t26.5 61.5t45.5 44t66.5 17t65 -8.5t40 -17.5q20 29 51 47.5t76 18.5q26 0 43.5 -4.5t28 -10.5t15.5 -11.5t7 -7.5l-17 -22
q-9 8 -23 16t-51 8zM319 537q0 26 6 55t19 54q-18 14 -43.5 18.5t-45.5 4.5q-33 0 -55.5 -16.5t-36 -40.5t-19 -52t-5.5 -51v-50h180v78z" />
    <glyph glyph-name="f_f_i" unicode="ffi" horiz-adv-x="683" 
d="M105 429h-74v30h74v49q0 35 8.5 69.5t26.5 61.5t45.5 44t66.5 17t65 -8.5t40 -17.5q20 29 52 47.5t78 18.5q27 0 49.5 -5t39.5 -11.5t27.5 -12.5t13.5 -9l-21 -23q-11 11 -40 20t-67 9q-37 0 -62.5 -15.5t-42 -40t-24 -54.5t-7.5 -59v-80h250v-459h-34v429h-216v-429h-34
v429h-180v-429h-34v429zM319 459v78q0 26 6 55t19 54q-18 14 -43.5 18.5t-45.5 4.5q-33 0 -55.5 -16.5t-36 -40.5t-19 -52t-5.5 -51v-50h180z" />
    <glyph glyph-name="f_f_l" unicode="ffl" horiz-adv-x="757" 
d="M689 -5q-41 0 -63.5 25t-22.5 60v521q0 19 -6.5 38.5t-20.5 34.5t-36.5 24.5t-55.5 9.5q-34 0 -58 -15.5t-39 -40t-22 -55t-7 -61.5v-77h120v-30h-120v-429h-34v429h-185v-429h-34v429h-74v30h74v58q0 38 10 71.5t29.5 58t49 39t67.5 14.5t60 -8.5t35 -16.5
q20 30 51.5 47.5t76.5 17.5q75 0 114 -39t39 -96v-516q0 -22 15 -42.5t44 -20.5q10 0 20.5 1.5t19.5 3.5t15 3.5l6 1.5l10 -30q-1 -2 -25 -6.5t-53 -4.5zM324 459v78q0 29 4 58t15 52q-17 14 -38 18t-41 4q-33 0 -57 -13.5t-39 -35t-22 -48.5t-7 -54v-59h185z" />
    <glyph glyph-name="f_i" unicode="fi" horiz-adv-x="469" 
d="M105 429h-74v30h74v80q0 33 9 68.5t29 65t52 48.5t79 19q27 0 49.5 -5t39.5 -11.5t27 -12.5t13 -9l-21 -23q-11 11 -40 20t-67 9q-37 0 -62.5 -15.5t-42 -40t-24 -54.5t-7.5 -59v-80h250v-459h-34v429h-216v-429h-34v429z" />
    <glyph glyph-name="f_l" unicode="fl" horiz-adv-x="539" 
d="M549 6q-2 -2 -25.5 -6.5t-52.5 -4.5q-41 0 -63.5 25t-22.5 60v521q0 19 -6.5 38.5t-20.5 34.5t-36.5 24.5t-55.5 9.5q-34 0 -58 -15.5t-39.5 -40t-22.5 -55t-7 -61.5v-77h121v-30h-121v-429h-34v429h-74v30h74v81q0 42 9 78.5t28.5 63.5t50 42.5t73.5 15.5q75 0 114 -39
t39 -96v-516q0 -22 15 -42.5t44 -20.5q20 0 39.5 5t20.5 5z" />
    <glyph glyph-name=".notdef" horiz-adv-x="0" 
 />
    <glyph glyph-name="NULL" horiz-adv-x="0" 
 />
    <glyph glyph-name="nonmarkingreturn" horiz-adv-x="0" 
 />
    <glyph glyph-name="space" unicode=" " horiz-adv-x="265" 
 />
    <glyph glyph-name="AEacute" unicode="&#x1fc;" horiz-adv-x="997" 
d="M503 826l-24 13l62 79h45zM470 710h468v-32h-425v-299h371v-32h-371v-315h434v-32h-468v245h-274l-160 -245h-40zM478 277v386l-256 -386h256z" />
    <glyph glyph-name="acute" unicode="&#xb4;" horiz-adv-x="205" 
d="M74 638l-24 13l62 79h45z" />
    <glyph glyph-name="Aacute" unicode="&#xc1;" horiz-adv-x="682" 
d="M21 0l306 710h29l306 -710h-38l-105 245h-356l-105 -245h-37zM342 666l-169 -391h335zM333 826l-24 13l62 79h45z" />
    <glyph glyph-name="Abreve" unicode="&#x102;" horiz-adv-x="682" 
d="M21 0l306 710h29l306 -710h-38l-105 245h-356l-105 -245h-37zM342 666l-169 -391h335zM342 856q20 0 36.5 18t19.5 44h25q0 -17 -6.5 -32.5t-18 -27t-26 -18t-30.5 -6.5q-17 0 -31.5 6.5t-25.5 18t-17.5 27t-6.5 32.5h26q0 -23 17 -42.5t38 -19.5z" />
    <glyph glyph-name="breve" unicode="&#x2d8;" horiz-adv-x="258" 
d="M129 668q20 0 36.5 18t19.5 44h25q0 -17 -6.5 -32.5t-18 -27t-26 -18t-30.5 -6.5q-17 0 -31.5 6.5t-25.5 18t-17.5 27t-6.5 32.5h26q0 -23 17 -42.5t38 -19.5z" />
    <glyph glyph-name="Acircumflex" unicode="&#xc2;" horiz-adv-x="682" 
d="M21 0l306 710h29l306 -710h-38l-105 245h-356l-105 -245h-37zM342 666l-169 -391h335zM234 841l94 77h26l95 -77l-23 -15l-85 63l-85 -63z" />
    <glyph glyph-name="circumflex" unicode="&#x2c6;" horiz-adv-x="310" 
d="M48 653l94 77h26l95 -77l-23 -15l-85 63l-85 -63z" />
    <glyph glyph-name="Adieresis" unicode="&#xc4;" horiz-adv-x="682" 
d="M21 0l306 710h29l306 -710h-38l-105 245h-356l-105 -245h-37zM342 666l-169 -391h335zM263 835v82h31v-82h-31zM389 835v82h31v-82h-31z" />
    <glyph glyph-name="dieresis" unicode="&#xa8;" horiz-adv-x="263" 
d="M53 647v82h31v-82h-31zM179 647v82h31v-82h-31z" />
    <glyph glyph-name="Agrave" unicode="&#xc0;" horiz-adv-x="682" 
d="M21 0l306 710h29l306 -710h-38l-105 245h-356l-105 -245h-37zM342 666l-169 -391h335zM267 918h44l63 -79l-24 -13z" />
    <glyph glyph-name="grave" unicode="`" horiz-adv-x="205" 
d="M50 730h44l63 -79l-24 -13z" />
    <glyph glyph-name="Amacron" unicode="&#x100;" horiz-adv-x="682" 
d="M21 0l306 710h29l306 -710h-38l-105 245h-356l-105 -245h-37zM342 666l-169 -391h335zM200 867v28h283v-28h-283z" />
    <glyph glyph-name="macron" unicode="&#xaf;" horiz-adv-x="385" 
d="M51 679v28h283v-28h-283z" />
    <glyph glyph-name="Aogonek" unicode="&#x104;" horiz-adv-x="682" 
d="M613 -161q-29 7 -44 24t-15 41t16.5 47t52.5 50l-104 244h-356l-105 -245h-37l306 710h29l303 -705l3 -2q-1 0 -1 -1l1 -2h-5q-42 -29 -59.5 -49t-17.5 -42q0 -38 47 -47zM342 666l-169 -391h335z" />
    <glyph glyph-name="ogonek" unicode="&#x2db;" horiz-adv-x="214" 
d="M109 -164q-29 7 -44 24t-15 41q0 27 21.5 53.5t71.5 60.5l15 -15q-45 -30 -63.5 -51t-18.5 -43q0 -38 47 -47l-14 -23v0z" />
    <glyph glyph-name="Aring" unicode="&#xc5;" horiz-adv-x="682" 
d="M21 0l306 710h29l306 -710h-38l-105 245h-356l-105 -245h-37zM342 666l-169 -391h335zM280 859q0 26 17.5 42.5t43.5 16.5q27 0 44.5 -16.5t17.5 -42.5t-17.5 -43t-44.5 -17q-26 0 -43.5 17t-17.5 43zM341 899q-17 0 -28.5 -11t-11.5 -29q0 -17 11.5 -29t28.5 -12
q16 0 28.5 11.5t12.5 29.5t-12 29t-29 11z" />
    <glyph glyph-name="ring" unicode="&#x2da;" horiz-adv-x="241" 
d="M59 671q0 26 17.5 42.5t43.5 16.5q27 0 44.5 -16.5t17.5 -42.5t-17.5 -43t-44.5 -17q-26 0 -43.5 17t-17.5 43zM120 711q-17 0 -28.5 -11t-11.5 -29q0 -17 11.5 -29t28.5 -12q16 0 28.5 11.5t12.5 29.5t-12 29t-29 11z" />
    <glyph glyph-name="Aringacute" unicode="&#x1fa;" horiz-adv-x="682" 
d="M280 751q0 26 17.5 42.5t43.5 16.5q27 0 44.5 -16.5t17.5 -42.5q0 -21 -11 -36t-29 -21l299 -694h-38l-105 245h-356l-105 -245h-37l299 694q-18 6 -29 21t-11 36zM342 666l-169 -391h335zM341 791q-17 0 -28.5 -11t-11.5 -29q0 -17 11.5 -29t28.5 -12q16 0 28.5 11.5
t12.5 29.5t-12 29t-29 11zM335 827l-24 13l62 78h45z" />
    <glyph glyph-name="Atilde" unicode="&#xc3;" horiz-adv-x="682" 
d="M21 0l306 710h29l306 -710h-38l-105 245h-356l-105 -245h-37zM342 666l-169 -391h335zM402 844q-22 0 -38.5 6t-31 13t-27.5 13t-29 6t-26 -6.5t-15 -15t-7 -16.5t-2 -10h-27q0 3 2.5 15.5t11 25.5t24 23.5t41.5 10.5q20 0 35 -6t28.5 -13.5t28 -13.5t33.5 -6
q21 0 32.5 7t17.5 15.5t7.5 16t1.5 9.5h26q0 -4 -3 -16t-12 -25t-26 -23t-45 -10z" />
    <glyph glyph-name="tilde" unicode="&#x2dc;" horiz-adv-x="390" 
d="M253 656q-22 0 -38.5 6t-31 13t-27.5 13t-29 6t-26 -6.5t-15 -15t-7 -16.5t-2 -10h-27q0 3 2.5 15.5t11 25.5t24 23.5t41.5 10.5q20 0 35 -6t28.5 -13.5t28 -13.5t33.5 -6q21 0 32.5 7t17.5 15.5t7.5 16t1.5 9.5h26q0 -4 -3 -16t-12 -25t-26 -23t-45 -10z" />
    <glyph glyph-name="B" unicode="B" horiz-adv-x="662" 
d="M612 184q0 -38 -14.5 -71.5t-39.5 -58.5t-58.5 -39.5t-71.5 -14.5h-330v710h322q37 0 67 -16t51 -41.5t32.5 -58t11.5 -65.5q0 -54 -27.5 -99t-74.5 -66q30 -9 54.5 -26.5t42 -41.5t26.5 -52.5t9 -59.5zM577 187q0 30 -10.5 58.5t-29.5 50t-45 34.5t-57 13h-303v-311h296
q31 0 58.5 13t47.5 35t31.5 50t11.5 57zM132 678v-304h275q31 0 56.5 13t44.5 34.5t29.5 48.5t10.5 56q0 30 -10 57.5t-28 48.5t-42.5 33.5t-54.5 12.5h-281z" />
    <glyph glyph-name="B.sc" horiz-adv-x="569" 
d="M515 140q0 -29 -12 -54.5t-33 -44.5t-49 -30t-59 -11h-273v542h268q31 0 55.5 -12t42 -31.5t26.5 -44.5t9 -50q0 -42 -22.5 -76t-60.5 -50q50 -14 79 -52t29 -86zM483 144q0 22 -8.5 43t-24 37.5t-36.5 26t-46 9.5h-247v-231h241q25 0 47.5 10t38.5 26t25.5 36.5
t9.5 42.5zM121 512v-224h224q25 0 45.5 9.5t35.5 25t23.5 36t8.5 41.5q0 22 -8 42.5t-22 36t-34 24.5t-44 9h-229z" />
    <glyph glyph-name="C" unicode="C" horiz-adv-x="698" 
d="M50 360q0 64 22.5 127t65 113.5t105 82t142.5 31.5q95 0 161.5 -43.5t98.5 -111.5l-30 -14q-20 38 -46.5 64t-57.5 42t-64 23t-66 7q-71 0 -126.5 -28.5t-93.5 -74.5t-57.5 -104t-19.5 -117q0 -65 23 -125t63.5 -105.5t95.5 -72.5t118 -27q34 0 69.5 8.5t68.5 26t61 44.5
t48 65l30 -12q-18 -40 -49 -71t-69 -52t-80 -31.5t-83 -10.5q-72 0 -133 32t-104.5 83.5t-68 117t-24.5 133.5z" />
    <glyph glyph-name="C.sc" horiz-adv-x="599" 
d="M51 275q0 49 18.5 97t54 86.5t87 62.5t117.5 24q78 0 133 -33.5t83 -84.5l-28 -15q-16 29 -38 48.5t-47 31.5t-52 17.5t-54 5.5q-58 0 -103 -21.5t-76 -56t-47 -78t-16 -87.5q0 -49 19 -93.5t52 -78.5t77.5 -54t95.5 -20q27 0 56 6t56 19.5t50 33.5t39 49l28 -13
q-15 -30 -40.5 -53.5t-57 -39.5t-66.5 -24.5t-68 -8.5q-60 0 -110 24.5t-86.5 64t-56.5 89.5t-20 102z" />
    <glyph glyph-name="A.sc" horiz-adv-x="582" 
d="M25 0l252 542h28l251 -542h-35l-85 183h-290l-86 -183h-35zM291 500l-136 -288h270z" />
    <glyph glyph-name="Cacute" unicode="&#x106;" horiz-adv-x="698" 
d="M375 826l-24 13l62 79h45zM50 360q0 64 22.5 127t65 113.5t105 82t142.5 31.5q95 0 161.5 -43.5t98.5 -111.5l-30 -14q-20 38 -46.5 64t-57.5 42t-64 23t-66 7q-71 0 -126.5 -28.5t-93.5 -74.5t-57.5 -104t-19.5 -117q0 -65 23 -125t63.5 -105.5t95.5 -72.5t118 -27
q34 0 69.5 8.5t68.5 26t61 44.5t48 65l30 -12q-18 -40 -49 -71t-69 -52t-80 -31.5t-83 -10.5q-72 0 -133 32t-104.5 83.5t-68 117t-24.5 133.5z" />
    <glyph glyph-name="Ccaron" unicode="&#x10c;" horiz-adv-x="698" 
d="M298 918l85 -63l85 63l23 -14l-95 -78h-26l-94 78zM50 360q0 64 22.5 127t65 113.5t105 82t142.5 31.5q95 0 161.5 -43.5t98.5 -111.5l-30 -14q-20 38 -46.5 64t-57.5 42t-64 23t-66 7q-71 0 -126.5 -28.5t-93.5 -74.5t-57.5 -104t-19.5 -117q0 -65 23 -125t63.5 -105.5
t95.5 -72.5t118 -27q34 0 69.5 8.5t68.5 26t61 44.5t48 65l30 -12q-18 -40 -49 -71t-69 -52t-80 -31.5t-83 -10.5q-72 0 -133 32t-104.5 83.5t-68 117t-24.5 133.5z" />
    <glyph glyph-name="caron" unicode="&#x2c7;" horiz-adv-x="310" 
d="M70 730l85 -63l85 63l23 -14l-95 -78h-26l-94 78z" />
    <glyph glyph-name="Ccedilla" unicode="&#xc7;" horiz-adv-x="699" 
d="M307 -125q14 -7 37.5 -12.5t49.5 -5.5q29 0 43.5 8.5t14.5 28.5q0 21 -13.5 29t-35.5 8q-21 0 -44 -5t-37 -10l44 79q-69 3 -127 35.5t-100 84t-65 115.5t-23 130q0 64 22.5 127t65 113.5t105 82t142.5 31.5q95 0 161.5 -43.5t98.5 -111.5l-30 -14q-20 38 -46.5 64
t-57.5 42t-64 23t-66 7q-71 0 -126.5 -28.5t-93.5 -74.5t-57.5 -104t-19.5 -117q0 -65 23 -125t63.5 -105.5t95.5 -72.5t118 -27q34 0 69.5 8.5t68.5 26t61 44.5t48 65l30 -12q-17 -38 -46 -68t-65 -50.5t-76 -32t-79 -13.5l-30 -50q10 4 21.5 5t19.5 1q70 0 70 -56
q0 -32 -22.5 -46.5t-64.5 -14.5q-27 0 -51.5 5.5t-43.5 13.5z" />
    <glyph glyph-name="cedilla" unicode="&#xb8;" horiz-adv-x="261" 
d="M35 -125q14 -7 37.5 -12.5t49.5 -5.5q29 0 43.5 8.5t14.5 28.5q0 21 -13.5 29t-35.5 8q-21 0 -44 -5t-37 -10l55 97l23 -12l-34 -56q10 4 21.5 5t19.5 1q70 0 70 -56q0 -32 -22.5 -46.5t-64.5 -14.5q-27 0 -51.5 5.5t-43.5 13.5z" />
    <glyph glyph-name="Ccircumflex" unicode="&#x108;" horiz-adv-x="698" 
d="M276 841l94 77h26l95 -77l-23 -15l-85 63l-85 -63zM50 360q0 64 22.5 127t65 113.5t105 82t142.5 31.5q95 0 161.5 -43.5t98.5 -111.5l-30 -14q-20 38 -46.5 64t-57.5 42t-64 23t-66 7q-71 0 -126.5 -28.5t-93.5 -74.5t-57.5 -104t-19.5 -117q0 -65 23 -125t63.5 -105.5
t95.5 -72.5t118 -27q34 0 69.5 8.5t68.5 26t61 44.5t48 65l30 -12q-18 -40 -49 -71t-69 -52t-80 -31.5t-83 -10.5q-72 0 -133 32t-104.5 83.5t-68 117t-24.5 133.5z" />
    <glyph glyph-name="Cdotaccent" unicode="&#x10a;" horiz-adv-x="698" 
d="M50 360q0 64 22.5 127t65 113.5t105 82t142.5 31.5q95 0 161.5 -43.5t98.5 -111.5l-30 -14q-20 38 -46.5 64t-57.5 42t-64 23t-66 7q-71 0 -126.5 -28.5t-93.5 -74.5t-57.5 -104t-19.5 -117q0 -65 23 -125t63.5 -105.5t95.5 -72.5t118 -27q34 0 69.5 8.5t68.5 26t61 44.5
t48 65l30 -12q-18 -40 -49 -71t-69 -52t-80 -31.5t-83 -10.5q-72 0 -133 32t-104.5 83.5t-68 117t-24.5 133.5zM367 835v83h32v-83h-32z" />
    <glyph glyph-name="dotaccent" unicode="&#x2d9;" horiz-adv-x="132" 
d="M50 647v83h32v-83h-32z" />
    <glyph glyph-name="D" unicode="D" horiz-adv-x="718" 
d="M98 0v710h231q84 0 147 -28t104.5 -76t62.5 -112.5t21 -137.5q0 -81 -23.5 -146.5t-67 -112t-105.5 -72t-139 -25.5h-231zM630 356q0 70 -20 129t-58 102t-94.5 67t-128.5 24h-197v-646h197q74 0 130.5 24.5t94.5 68t57 103t19 128.5z" />
    <glyph glyph-name="D.sc" horiz-adv-x="612" 
d="M89 0v542h193q69 0 121.5 -21t87 -57.5t52 -86t17.5 -105.5q0 -62 -19.5 -112t-56 -85.5t-88 -55t-114.5 -19.5h-193zM526 272q0 52 -16 96.5t-47 76t-76.5 49.5t-104.5 18h-161v-482h161q60 0 106 18.5t76.5 51t46 76.5t15.5 96z" />
    <glyph glyph-name="Dcaron" unicode="&#x10e;" horiz-adv-x="718" 
d="M267 918l85 -63l85 63l23 -14l-95 -78h-26l-94 78zM98 0v710h231q84 0 147 -28t104.5 -76t62.5 -112.5t21 -137.5q0 -81 -23.5 -146.5t-67 -112t-105.5 -72t-139 -25.5h-231zM630 356q0 70 -20 129t-58 102t-94.5 67t-128.5 24h-197v-646h197q74 0 130.5 24.5t94.5 68
t57 103t19 128.5z" />
    <glyph glyph-name="Dcroat" unicode="&#x110;" horiz-adv-x="724" 
d="M104 0v342h-69v30h69v338h231q84 0 147 -28t104.5 -76t62.5 -112.5t21 -137.5q0 -81 -23.5 -146.5t-67 -112t-105.5 -72t-139 -25.5h-231zM636 356q0 70 -20 129t-58 102t-94.5 67t-128.5 24h-197v-306h186v-30h-186v-310h197q74 0 130.5 24.5t94.5 68t57 103t19 128.5z
" />
    <glyph glyph-name="E" unicode="E" horiz-adv-x="617" 
d="M567 32v-32h-469v710h460v-32h-426v-299h373v-32h-373v-315h435z" />
    <glyph glyph-name="E.sc" horiz-adv-x="530" 
d="M478 30v-30h-389v542h382v-30h-350v-221h306v-29h-306v-232h357z" />
    <glyph glyph-name="Eacute" unicode="&#xc9;" horiz-adv-x="617" 
d="M335 826l-24 13l62 79h45zM567 32v-32h-469v710h460v-32h-426v-299h373v-32h-373v-315h435z" />
    <glyph glyph-name="Ebreve" unicode="&#x114;" horiz-adv-x="617" 
d="M567 32v-32h-469v710h460v-32h-426v-299h373v-32h-373v-315h435zM344 856q20 0 36.5 18t19.5 44h25q0 -17 -6.5 -32.5t-18 -27t-26 -18t-30.5 -6.5q-17 0 -31.5 6.5t-25.5 18t-17.5 27t-6.5 32.5h26q0 -23 17 -42.5t38 -19.5z" />
    <glyph glyph-name="Ecaron" unicode="&#x11a;" horiz-adv-x="617" 
d="M258 918l85 -63l85 63l23 -14l-95 -78h-26l-94 78zM567 32v-32h-469v710h460v-32h-426v-299h373v-32h-373v-315h435z" />
    <glyph glyph-name="Ecircumflex" unicode="&#xca;" horiz-adv-x="617" 
d="M236 841l94 77h26l95 -77l-23 -15l-85 63l-85 -63zM567 32v-32h-469v710h460v-32h-426v-299h373v-32h-373v-315h435z" />
    <glyph glyph-name="Edieresis" unicode="&#xcb;" horiz-adv-x="617" 
d="M265 835v82h31v-82h-31zM391 835v82h31v-82h-31zM567 32v-32h-469v710h460v-32h-426v-299h373v-32h-373v-315h435z" />
    <glyph glyph-name="Edotaccent" unicode="&#x116;" horiz-adv-x="617" 
d="M567 32v-32h-469v710h460v-32h-426v-299h373v-32h-373v-315h435zM327 835v83h32v-83h-32z" />
    <glyph glyph-name="Egrave" unicode="&#xc8;" horiz-adv-x="617" 
d="M567 32v-32h-469v710h460v-32h-426v-299h373v-32h-373v-315h435zM269 918h44l63 -79l-24 -13z" />
    <glyph glyph-name="Emacron" unicode="&#x112;" horiz-adv-x="617" 
d="M567 32v-32h-469v710h460v-32h-426v-299h373v-32h-373v-315h435zM202 867v28h283v-28h-283z" />
    <glyph glyph-name="Eng" unicode="&#x14a;" horiz-adv-x="776" 
d="M132 644v-644h-34v710h26l520 -654v653h35v-742q0 -31 -12.5 -56.5t-32.5 -44t-45 -29t-50 -10.5q-30 0 -56.5 7.5t-46.5 27.5l21 22q17 -15 38 -20t42 -5q19 0 38.5 8.5t35 23t25 34t9.5 42.5v33z" />
    <glyph glyph-name="Eogonek" unicode="&#x118;" horiz-adv-x="617" 
d="M567 32v-32h-209q-45 -30 -63.5 -51t-18.5 -43q0 -38 47 -47l-14 -23q-29 7 -44 24t-15 41t17 47.5t55 51.5h-224v710h460v-32h-426v-299h373v-32h-373v-315h435z" />
    <glyph glyph-name="Eth" unicode="&#xd0;" horiz-adv-x="724" 
d="M104 0v342h-69v30h69v338h231q84 0 147 -28t104.5 -76t62.5 -112.5t21 -137.5q0 -81 -23.5 -146.5t-67 -112t-105.5 -72t-139 -25.5h-231zM636 356q0 70 -20 129t-58 102t-94.5 67t-128.5 24h-197v-306h186v-30h-186v-310h197q74 0 130.5 24.5t94.5 68t57 103t19 128.5z
" />
    <glyph glyph-name="Etilde" unicode="&#x1ebc;" horiz-adv-x="617" 
d="M567 32v-32h-469v710h460v-32h-426v-299h373v-32h-373v-315h435zM404 844q-22 0 -38.5 6t-31 13t-27.5 13t-29 6t-26 -6.5t-15 -15t-7 -16.5t-2 -10h-27q0 3 2.5 15.5t11 25.5t24 23.5t41.5 10.5q20 0 35 -6t28.5 -13.5t28 -13.5t33.5 -6q21 0 32.5 7t17.5 15.5t7.5 16
t1.5 9.5h26q0 -4 -3 -16t-12 -25t-26 -23t-45 -10z" />
    <glyph glyph-name="Euro" unicode="&#x20ac;" horiz-adv-x="814" 
d="M150 405q7 58 32.5 114t68 99t100.5 69.5t131 26.5q95 0 161.5 -43.5t98.5 -111.5l-30 -14q-20 38 -46.5 64t-57.5 42t-64 23t-66 7q-64 0 -115.5 -23t-88.5 -61.5t-60 -88.5t-30 -103h378l-12 -26h-368q-2 -5 -2 -11v-12q0 -11 1 -22.5t3 -22.5h339l-12 -27h-322
q11 -54 38 -100.5t65.5 -81.5t86.5 -55t102 -20q34 0 69.5 8.5t68.5 26t61 44.5t48 65l30 -12q-18 -40 -49 -71t-69 -52t-80 -31.5t-83 -10.5q-62 0 -115.5 24t-95.5 64t-70.5 92.5t-40.5 109.5h-121l12 27h104q-2 12 -2.5 26.5t-0.5 41.5h-76l12 26h67z" />
    <glyph glyph-name="F" unicode="F" horiz-adv-x="593" 
d="M98 0v710h459v-32h-425v-300h362v-31h-362v-347h-34z" />
    <glyph glyph-name="F.sc" horiz-adv-x="508" 
d="M89 0v542h380v-30h-348v-221h296v-30h-296v-261h-32z" />
    <glyph glyph-name="G" unicode="G" horiz-adv-x="728" 
d="M632 116q-106 -121 -247 -121q-73 0 -134.5 31.5t-105.5 82.5t-69 115.5t-25 130.5q0 70 24 135t67 115t102.5 80t130.5 30q54 0 97 -11.5t76 -32t57 -49t41 -62.5l-29 -15q-39 73 -101 105t-141 32q-67 0 -121 -28.5t-91.5 -74.5t-57.5 -104.5t-20 -119.5
q0 -65 23.5 -124t64 -104t95.5 -72t118 -27q68 0 128.5 31t117.5 98v154h-164v30h196v-341h-32v116z" />
    <glyph glyph-name="G.alt" horiz-adv-x="742" 
d="M382 -5q-72 0 -133 30.5t-105 81t-68.5 115.5t-24.5 134q0 70 25 135t69.5 115t105.5 79.5t132 29.5q44 0 84 -11.5t74.5 -32.5t62.5 -49.5t49 -62.5l-25 -23q-19 31 -44.5 58t-57 46.5t-68 30.5t-77.5 11q-66 0 -120.5 -28.5t-93.5 -74.5t-60.5 -105.5t-21.5 -120.5
q0 -62 22 -120.5t61.5 -104t94 -73t119.5 -27.5q60 0 110 23t88 61t62 87.5t32 102.5h-235v33h272q0 -5 -0.5 -13t-0.5 -14q-8 -62 -35.5 -118.5t-70.5 -100t-99.5 -69t-122.5 -25.5z" />
    <glyph glyph-name="G.sc" horiz-adv-x="619" 
d="M528 86q-87 -90 -202 -90q-60 0 -110.5 24t-87 63t-57 88.5t-20.5 100.5q0 53 20 102.5t55.5 87.5t84.5 60.5t108 22.5q89 0 142.5 -33t81.5 -84l-28 -16q-31 55 -81.5 79.5t-115.5 24.5q-54 0 -97.5 -21t-74 -55.5t-47 -78.5t-16.5 -90q0 -49 19 -93t52 -77.5t78 -53.5
t96 -20q54 0 103.5 23t96.5 73v111h-135v28h165v-262h-30v86z" />
    <glyph glyph-name="Gbreve" unicode="&#x11e;" horiz-adv-x="728" 
d="M632 116q-106 -121 -247 -121q-73 0 -134.5 31.5t-105.5 82.5t-69 115.5t-25 130.5q0 70 24 135t67 115t102.5 80t130.5 30q54 0 97 -11.5t76 -32t57 -49t41 -62.5l-29 -15q-39 73 -101 105t-141 32q-67 0 -121 -28.5t-91.5 -74.5t-57.5 -104.5t-20 -119.5
q0 -65 23.5 -124t64 -104t95.5 -72t118 -27q68 0 128.5 31t117.5 98v154h-164v30h196v-341h-32v116zM374 856q20 0 36.5 18t19.5 44h25q0 -17 -6.5 -32.5t-18 -27t-26 -18t-30.5 -6.5q-17 0 -31.5 6.5t-25.5 18t-17.5 27t-6.5 32.5h26q0 -23 17 -42.5t38 -19.5z" />
    <glyph glyph-name="Gcircumflex" unicode="&#x11c;" horiz-adv-x="728" 
d="M267 841l94 77h26l95 -77l-23 -15l-85 63l-85 -63zM632 116q-106 -121 -247 -121q-73 0 -134.5 31.5t-105.5 82.5t-69 115.5t-25 130.5q0 70 24 135t67 115t102.5 80t130.5 30q54 0 97 -11.5t76 -32t57 -49t41 -62.5l-29 -15q-39 73 -101 105t-141 32q-67 0 -121 -28.5
t-91.5 -74.5t-57.5 -104.5t-20 -119.5q0 -65 23.5 -124t64 -104t95.5 -72t118 -27q68 0 128.5 31t117.5 98v154h-164v30h196v-341h-32v116z" />
    <glyph glyph-name="Gcommaaccent" unicode="&#x122;" horiz-adv-x="728" 
d="M354 -128q16 0 16 14v64h31v-62q0 -21 -12.5 -30.5t-34.5 -9.5v24zM632 116q-106 -121 -247 -121q-73 0 -134.5 31.5t-105.5 82.5t-69 115.5t-25 130.5q0 70 24 135t67 115t102.5 80t130.5 30q54 0 97 -11.5t76 -32t57 -49t41 -62.5l-29 -15q-39 73 -101 105t-141 32
q-67 0 -121 -28.5t-91.5 -74.5t-57.5 -104.5t-20 -119.5q0 -65 23.5 -124t64 -104t95.5 -72t118 -27q68 0 128.5 31t117.5 98v154h-164v30h196v-341h-32v116z" />
    <glyph glyph-name="commaaccent" unicode="&#xf6c3;" horiz-adv-x="130" 
d="M45 -128q16 0 16 14v64h31v-62q0 -21 -12.5 -30.5t-34.5 -9.5v24z" />
    <glyph glyph-name="Gdotaccent" unicode="&#x120;" horiz-adv-x="728" 
d="M632 116q-106 -121 -247 -121q-73 0 -134.5 31.5t-105.5 82.5t-69 115.5t-25 130.5q0 70 24 135t67 115t102.5 80t130.5 30q54 0 97 -11.5t76 -32t57 -49t41 -62.5l-29 -15q-39 73 -101 105t-141 32q-67 0 -121 -28.5t-91.5 -74.5t-57.5 -104.5t-20 -119.5
q0 -65 23.5 -124t64 -104t95.5 -72t118 -27q68 0 128.5 31t117.5 98v154h-164v30h196v-341h-32v116zM358 835v83h32v-83h-32z" />
    <glyph glyph-name="H" unicode="H" horiz-adv-x="736" 
d="M639 710v-710h-35v347h-472v-347h-34v710h34v-331h472v331h35z" />
    <glyph glyph-name="H.sc" horiz-adv-x="627" 
d="M538 542v-542h-32v262h-385v-262h-32v542h32v-249h385v249h32z" />
    <glyph glyph-name="Hbar" unicode="&#x126;" horiz-adv-x="744" 
d="M643 710v-132h50v-25h-50v-553h-35v347h-472v-347h-34v553h-50v25h50v132h34v-132h472v132h35zM608 379v174h-472v-174h472z" />
    <glyph glyph-name="Hcircumflex" unicode="&#x124;" horiz-adv-x="736" 
d="M263 841l94 77h26l95 -77l-23 -15l-85 63l-85 -63zM639 710v-710h-35v347h-472v-347h-34v710h34v-331h472v331h35z" />
    <glyph glyph-name="I" unicode="I" horiz-adv-x="230" 
d="M98 0v709h34v-709h-34z" />
    <glyph glyph-name="I.sc" horiz-adv-x="210" 
d="M89 0v541h32v-541h-32z" />
    <glyph glyph-name="IJ" unicode="&#x132;" horiz-adv-x="712" 
d="M98 0v709h34v-709h-34zM265 61q56 -39 141 -39q61 0 97 22t55 64t24.5 103t5.5 138v360h34v-360q0 -81 -7 -147.5t-29.5 -113.5t-65 -73t-114.5 -26q-90 0 -154 44z" />
    <glyph glyph-name="J" unicode="J" horiz-adv-x="482" 
d="M35 61q56 -39 141 -39q61 0 97 22t55 64t24.5 103t5.5 138v360h34v-360q0 -81 -7 -147.5t-29.5 -113.5t-65 -73t-114.5 -26q-90 0 -154 44z" />
    <glyph glyph-name="Iacute" unicode="&#xcd;" horiz-adv-x="230" 
d="M98 0v709h34v-709h-34zM107 826l-24 13l62 79h45z" />
    <glyph glyph-name="Ibreve" unicode="&#x12c;" horiz-adv-x="230" 
d="M98 0v709h34v-709h-34zM115 856q20 0 36.5 18t19.5 44h25q0 -17 -6.5 -32.5t-18 -27t-26 -18t-30.5 -6.5q-17 0 -31.5 6.5t-25.5 18t-17.5 27t-6.5 32.5h26q0 -23 17 -42.5t38 -19.5z" />
    <glyph glyph-name="Icircumflex" unicode="&#xce;" horiz-adv-x="230" 
d="M98 0v709h34v-709h-34zM8 841l94 77h26l95 -77l-23 -15l-85 63l-85 -63z" />
    <glyph glyph-name="Idieresis" unicode="&#xcf;" horiz-adv-x="230" 
d="M98 0v709h34v-709h-34zM36 835v82h31v-82h-31zM162 835v82h31v-82h-31z" />
    <glyph glyph-name="Idotaccent" unicode="&#x130;" horiz-adv-x="230" 
d="M98 0v709h34v-709h-34zM99 835v83h32v-83h-32z" />
    <glyph glyph-name="Igrave" unicode="&#xcc;" horiz-adv-x="230" 
d="M98 0v709h34v-709h-34zM40 918h44l63 -79l-24 -13z" />
    <glyph glyph-name="Imacron" unicode="&#x12a;" horiz-adv-x="230" 
d="M98 0v709h34v-709h-34zM-26 867v28h283v-28h-283z" />
    <glyph glyph-name="Iogonek" unicode="&#x12e;" horiz-adv-x="230" 
d="M83 -164q-29 7 -44 24t-15 41q0 25 17.5 48t56.5 52v708h34v-709q-45 -30 -63.5 -51t-18.5 -43q0 -38 47 -47l-14 -23v0z" />
    <glyph glyph-name="Itilde" unicode="&#x128;" horiz-adv-x="230" 
d="M98 0v709h34v-709h-34zM176 844q-22 0 -38.5 6t-31 13t-27.5 13t-29 6t-26 -6.5t-15 -15t-7 -16.5t-2 -10h-27q0 3 2.5 15.5t11 25.5t24 23.5t41.5 10.5q20 0 35 -6t28.5 -13.5t28 -13.5t33.5 -6q21 0 32.5 7t17.5 15.5t7.5 16t1.5 9.5h26q0 -4 -3 -16t-12 -25t-26 -23
t-45 -10z" />
    <glyph glyph-name="J.sc" horiz-adv-x="418" 
d="M40 51q21 -13 50.5 -21t64.5 -8q50 0 79.5 16.5t45 48t20 76.5t4.5 103v275h32v-275q0 -62 -5.5 -112.5t-24.5 -86.5t-55 -55.5t-96 -19.5q-76 0 -127 33z" />
    <glyph glyph-name="Jcircumflex" unicode="&#x134;" horiz-adv-x="482" 
d="M268 841l94 77h26l95 -77l-23 -15l-85 63l-85 -63zM35 61q56 -39 141 -39q61 0 97 22t55 64t24.5 103t5.5 138v360h34v-360q0 -81 -7 -147.5t-29.5 -113.5t-65 -73t-114.5 -26q-90 0 -154 44z" />
    <glyph glyph-name="K" unicode="K" horiz-adv-x="628" 
d="M98 0v709h34v-446l434 447h43l-299 -311l314 -399h-41l-296 378l-155 -158v-220h-34z" />
    <glyph glyph-name="K.sc" horiz-adv-x="543" 
d="M89 0v541h32v-334l354 335h40l-247 -237l259 -305h-38l-242 284l-126 -116v-168h-32z" />
    <glyph glyph-name="Kcommaaccent" unicode="&#x136;" horiz-adv-x="628" 
d="M289 -128q16 0 16 14v64h31v-62q0 -21 -12.5 -30.5t-34.5 -9.5v24zM98 0v709h34v-446l434 447h43l-299 -311l314 -399h-41l-296 378l-155 -158v-220h-34z" />
    <glyph glyph-name="L" unicode="L" horiz-adv-x="591" 
d="M98 0v710h34v-678h436v-32h-470z" />
    <glyph glyph-name="L.sc" horiz-adv-x="505" 
d="M89 0v542h32v-512h354v-30h-386z" />
    <glyph glyph-name="Lacute" unicode="&#x139;" horiz-adv-x="591" 
d="M328 826l-24 13l62 79h45zM98 0v710h34v-678h436v-32h-470z" />
    <glyph glyph-name="Lcaron" unicode="&#x13d;" horiz-adv-x="591" 
d="M365 638l-24 13l62 79h45zM98 0v710h34v-678h436v-32h-470z" />
    <glyph glyph-name="caron.alt" horiz-adv-x="205" 
d="M74 638l-24 13l62 79h45z" />
    <glyph glyph-name="Lcommaaccent" unicode="&#x13b;" horiz-adv-x="591" 
d="M302 -128q16 0 16 14v64h31v-62q0 -21 -12.5 -30.5t-34.5 -9.5v24zM98 0v710h34v-678h436v-32h-470z" />
    <glyph glyph-name="Ldot" unicode="&#x13f;" horiz-adv-x="591" 
d="M98 0v710h34v-678h436v-32h-470zM367 357v91h31v-91h-31z" />
    <glyph glyph-name="periodcentered" unicode="&#xb7;" horiz-adv-x="171" 
d="M70 249v91h31v-91h-31z" />
    <glyph glyph-name="Lslash" unicode="&#x141;" horiz-adv-x="597" 
d="M104 0v281l-61 -58l-17 23l78 73v391h34v-359l179 170l16 -22l-195 -186v-281h436v-32h-470z" />
    <glyph glyph-name="M" unicode="M" horiz-adv-x="885" 
d="M753 0v642l-299 -504h-23l-299 504v-642h-34v710h32l313 -529l312 529h32v-710h-34z" />
    <glyph glyph-name="M.sc" horiz-adv-x="749" 
d="M627 0v480l-242 -376h-21l-243 376v-480h-32v542h31l255 -396l254 396h31v-542h-33z" />
    <glyph glyph-name="N" unicode="N" horiz-adv-x="778" 
d="M132 644v-644h-34v710h26l522 -655v654h34v-709h-34z" />
    <glyph glyph-name="N.sc" horiz-adv-x="660" 
d="M121 481v-481h-32v542h25l425 -488v487h33v-541h-32z" />
    <glyph glyph-name="A" unicode="A" horiz-adv-x="682" 
d="M21 0l306 710h29l306 -710h-38l-105 245h-356l-105 -245h-37zM342 666l-169 -391h335z" />
    <glyph glyph-name="Nacute" unicode="&#x143;" horiz-adv-x="778" 
d="M385 826l-24 13l62 79h45zM132 644v-644h-34v710h26l522 -655v654h34v-709h-34z" />
    <glyph glyph-name="Ncaron" unicode="&#x147;" horiz-adv-x="778" 
d="M308 918l85 -63l85 63l23 -14l-95 -78h-26l-94 78zM132 644v-644h-34v710h26l522 -655v654h34v-709h-34z" />
    <glyph glyph-name="Ncommaaccent" unicode="&#x145;" horiz-adv-x="778" 
d="M363 -128q16 0 16 14v64h31v-62q0 -21 -12.5 -30.5t-34.5 -9.5v24zM132 644v-644h-34v710h26l522 -655v654h34v-709h-34z" />
    <glyph glyph-name="Ndotaccent" unicode="&#x1e44;" horiz-adv-x="778" 
d="M377 835v83h32v-83h-32zM132 644v-644h-34v710h26l522 -655v654h34v-709h-34z" />
    <glyph glyph-name="Ntilde" unicode="&#xd1;" horiz-adv-x="778" 
d="M132 644v-644h-34v710h26l522 -655v654h34v-709h-34zM454 844q-22 0 -38.5 6t-31 13t-27.5 13t-29 6t-26 -6.5t-15 -15t-7 -16.5t-2 -10h-27q0 3 2.5 15.5t11 25.5t24 23.5t41.5 10.5q20 0 35 -6t28.5 -13.5t28 -13.5t33.5 -6q21 0 32.5 7t17.5 15.5t7.5 16t1.5 9.5h26
q0 -4 -3 -16t-12 -25t-26 -23t-45 -10z" />
    <glyph glyph-name="O" unicode="O" 
d="M382 -5q-74 0 -134.5 31t-104.5 81t-68 115t-24 133q0 71 25.5 136t70 115t105 79.5t131.5 29.5q73 0 134 -31.5t104.5 -82.5t67.5 -115.5t24 -130.5q0 -72 -25.5 -137t-70 -114.5t-105 -79t-130.5 -29.5zM85 355q0 -64 22 -123t61.5 -104.5t94 -72.5t119.5 -27
q67 0 121.5 28.5t93.5 74.5t60.5 105t21.5 119q0 64 -22.5 123t-62.5 104.5t-94 72.5t-118 27q-67 0 -121.5 -28.5t-93.5 -74.5t-60.5 -104.5t-21.5 -119.5z" />
    <glyph glyph-name="O.sc" horiz-adv-x="649" 
d="M325 -4q-61 0 -111.5 23.5t-86.5 62t-56 88t-20 101.5q0 54 21 103.5t57.5 87.5t86.5 60.5t109 22.5q61 0 111.5 -24t86.5 -62.5t55.5 -87.5t19.5 -100q0 -54 -21 -104t-57.5 -88t-86.5 -60.5t-108 -22.5zM83 271q0 -48 18 -92t50 -77.5t76.5 -54t97.5 -20.5
q54 0 98.5 21t76 55.5t49 78.5t17.5 89q0 48 -18.5 92t-50.5 77.5t-76 54t-96 20.5q-54 0 -99 -21.5t-76.5 -56t-49 -78t-17.5 -88.5z" />
    <glyph glyph-name="OE" unicode="&#x152;" horiz-adv-x="1197" 
d="M1147 32v-32h-468v218q-17 -47 -46 -87.5t-67.5 -70.5t-84.5 -47.5t-97 -17.5q-74 0 -135 30.5t-105 81t-68.5 115.5t-24.5 133q0 71 25.5 136t70 115t105 79.5t131.5 29.5q54 0 100.5 -17.5t84.5 -48t66 -71.5t45 -87v219h459v-32h-424v-299h370v-32h-370v-315h433z
M382 28q67 0 121.5 28.5t93.5 74.5t60.5 105t21.5 120q0 63 -22.5 122t-62.5 104.5t-94 72.5t-118 27q-67 0 -121.5 -28.5t-93.5 -74.5t-60.5 -104.5t-21.5 -119.5q0 -64 22 -123t61.5 -104.5t94 -72.5t119.5 -27z" />
    <glyph glyph-name="Oacute" unicode="&#xd3;" 
d="M374 826l-24 13l62 79h45zM382 -5q-74 0 -134.5 31t-104.5 81t-68 115t-24 133q0 71 25.5 136t70 115t105 79.5t131.5 29.5q73 0 134 -31.5t104.5 -82.5t67.5 -115.5t24 -130.5q0 -72 -25.5 -137t-70 -114.5t-105 -79t-130.5 -29.5zM85 355q0 -64 22 -123t61.5 -104.5
t94 -72.5t119.5 -27q67 0 121.5 28.5t93.5 74.5t60.5 105t21.5 119q0 64 -22.5 123t-62.5 104.5t-94 72.5t-118 27q-67 0 -121.5 -28.5t-93.5 -74.5t-60.5 -104.5t-21.5 -119.5z" />
    <glyph glyph-name="Obreve" unicode="&#x14e;" 
d="M382 -5q-74 0 -134.5 31t-104.5 81t-68 115t-24 133q0 71 25.5 136t70 115t105 79.5t131.5 29.5q73 0 134 -31.5t104.5 -82.5t67.5 -115.5t24 -130.5q0 -72 -25.5 -137t-70 -114.5t-105 -79t-130.5 -29.5zM85 355q0 -64 22 -123t61.5 -104.5t94 -72.5t119.5 -27
q67 0 121.5 28.5t93.5 74.5t60.5 105t21.5 119q0 64 -22.5 123t-62.5 104.5t-94 72.5t-118 27q-67 0 -121.5 -28.5t-93.5 -74.5t-60.5 -104.5t-21.5 -119.5zM383 856q20 0 36.5 18t19.5 44h25q0 -17 -6.5 -32.5t-18 -27t-26 -18t-30.5 -6.5q-17 0 -31.5 6.5t-25.5 18
t-17.5 27t-6.5 32.5h26q0 -23 17 -42.5t38 -19.5z" />
    <glyph glyph-name="Ocircumflex" unicode="&#xd4;" 
d="M275 841l94 77h26l95 -77l-23 -15l-85 63l-85 -63zM382 -5q-74 0 -134.5 31t-104.5 81t-68 115t-24 133q0 71 25.5 136t70 115t105 79.5t131.5 29.5q73 0 134 -31.5t104.5 -82.5t67.5 -115.5t24 -130.5q0 -72 -25.5 -137t-70 -114.5t-105 -79t-130.5 -29.5zM85 355
q0 -64 22 -123t61.5 -104.5t94 -72.5t119.5 -27q67 0 121.5 28.5t93.5 74.5t60.5 105t21.5 119q0 64 -22.5 123t-62.5 104.5t-94 72.5t-118 27q-67 0 -121.5 -28.5t-93.5 -74.5t-60.5 -104.5t-21.5 -119.5z" />
    <glyph glyph-name="Odieresis" unicode="&#xd6;" 
d="M304 835v82h31v-82h-31zM430 835v82h31v-82h-31zM382 -5q-74 0 -134.5 31t-104.5 81t-68 115t-24 133q0 71 25.5 136t70 115t105 79.5t131.5 29.5q73 0 134 -31.5t104.5 -82.5t67.5 -115.5t24 -130.5q0 -72 -25.5 -137t-70 -114.5t-105 -79t-130.5 -29.5zM85 355
q0 -64 22 -123t61.5 -104.5t94 -72.5t119.5 -27q67 0 121.5 28.5t93.5 74.5t60.5 105t21.5 119q0 64 -22.5 123t-62.5 104.5t-94 72.5t-118 27q-67 0 -121.5 -28.5t-93.5 -74.5t-60.5 -104.5t-21.5 -119.5z" />
    <glyph glyph-name="Ograve" unicode="&#xd2;" 
d="M382 -5q-74 0 -134.5 31t-104.5 81t-68 115t-24 133q0 71 25.5 136t70 115t105 79.5t131.5 29.5q73 0 134 -31.5t104.5 -82.5t67.5 -115.5t24 -130.5q0 -72 -25.5 -137t-70 -114.5t-105 -79t-130.5 -29.5zM85 355q0 -64 22 -123t61.5 -104.5t94 -72.5t119.5 -27
q67 0 121.5 28.5t93.5 74.5t60.5 105t21.5 119q0 64 -22.5 123t-62.5 104.5t-94 72.5t-118 27q-67 0 -121.5 -28.5t-93.5 -74.5t-60.5 -104.5t-21.5 -119.5zM308 918h44l63 -79l-24 -13z" />
    <glyph glyph-name="Ohungarumlaut" unicode="&#x150;" 
d="M319 826l-22 13l62 79h43zM427 826l-23 13l62 79h43zM382 -5q-74 0 -134.5 31t-104.5 81t-68 115t-24 133q0 71 25.5 136t70 115t105 79.5t131.5 29.5q73 0 134 -31.5t104.5 -82.5t67.5 -115.5t24 -130.5q0 -72 -25.5 -137t-70 -114.5t-105 -79t-130.5 -29.5zM85 355
q0 -64 22 -123t61.5 -104.5t94 -72.5t119.5 -27q67 0 121.5 28.5t93.5 74.5t60.5 105t21.5 119q0 64 -22.5 123t-62.5 104.5t-94 72.5t-118 27q-67 0 -121.5 -28.5t-93.5 -74.5t-60.5 -104.5t-21.5 -119.5z" />
    <glyph glyph-name="hungarumlaut" unicode="&#x2dd;" horiz-adv-x="306" 
d="M70 638l-22 13l62 79h43zM178 638l-23 13l62 79h43z" />
    <glyph glyph-name="Omacron" unicode="&#x14c;" 
d="M241 867v28h283v-28h-283zM382 -5q-74 0 -134.5 31t-104.5 81t-68 115t-24 133q0 71 25.5 136t70 115t105 79.5t131.5 29.5q73 0 134 -31.5t104.5 -82.5t67.5 -115.5t24 -130.5q0 -72 -25.5 -137t-70 -114.5t-105 -79t-130.5 -29.5zM85 355q0 -64 22 -123t61.5 -104.5
t94 -72.5t119.5 -27q67 0 121.5 28.5t93.5 74.5t60.5 105t21.5 119q0 64 -22.5 123t-62.5 104.5t-94 72.5t-118 27q-67 0 -121.5 -28.5t-93.5 -74.5t-60.5 -104.5t-21.5 -119.5z" />
    <glyph glyph-name="Oogonek" unicode="&#x1ea;" 
d="M350 -168q-29 7 -44 24t-15 41t16.5 47.5t54.5 51.5q-69 4 -126.5 36t-98.5 82t-63.5 112.5t-22.5 128.5q0 71 25.5 136t70 115t105 79.5t131.5 29.5q73 0 134 -31.5t104.5 -82.5t67.5 -115.5t24 -130.5q0 -70 -24 -133.5t-66.5 -112.5t-100 -79.5t-124.5 -33.5
q-45 -30 -63 -51t-18 -43q0 -38 47 -47zM85 355q0 -64 22 -123t61.5 -104.5t94 -72.5t119.5 -27q67 0 121.5 28.5t93.5 74.5t60.5 105t21.5 119q0 64 -22.5 123t-62.5 104.5t-94 72.5t-118 27q-67 0 -121.5 -28.5t-93.5 -74.5t-60.5 -104.5t-21.5 -119.5z" />
    <glyph glyph-name="Oslash" unicode="&#xd8;" 
d="M633 710l-47 -72q60 -53 93.5 -128.5t33.5 -154.5q0 -72 -25.5 -137t-70 -114.5t-105 -79t-130.5 -29.5q-51 0 -95.5 15t-81.5 41l-33 -51h-40l46 72q-60 51 -93.5 126.5t-33.5 156.5q0 71 25.5 136t70 115t105 79.5t131.5 29.5q51 0 94.5 -15t81.5 -41l33 51h41zM85 355
q0 -75 29.5 -142t81.5 -114l344 531q-34 24 -73.5 38t-84.5 14q-67 0 -121.5 -28.5t-93.5 -74.5t-60.5 -104.5t-21.5 -119.5zM679 355q0 74 -30 140.5t-82 113.5l-344 -531q34 -23 74 -36.5t85 -13.5q67 0 121.5 28.5t93.5 74.5t60.5 105t21.5 119z" />
    <glyph glyph-name="slash" unicode="/" horiz-adv-x="559" 
d="M531 710l-461 -710h-40l460 710h41z" />
    <glyph glyph-name="Oslashacute" unicode="&#x1fe;" 
d="M633 710l-47 -72q60 -53 93.5 -128.5t33.5 -154.5q0 -72 -25.5 -137t-70 -114.5t-105 -79t-130.5 -29.5q-51 0 -95.5 15t-81.5 41l-33 -51h-40l46 72q-60 51 -93.5 126.5t-33.5 156.5q0 71 25.5 136t70 115t105 79.5t131.5 29.5q51 0 94.5 -15t81.5 -41l33 51h41zM85 355
q0 -75 29.5 -142t81.5 -114l344 531q-34 24 -73.5 38t-84.5 14q-67 0 -121.5 -28.5t-93.5 -74.5t-60.5 -104.5t-21.5 -119.5zM679 355q0 74 -30 140.5t-82 113.5l-344 -531q34 -23 74 -36.5t85 -13.5q67 0 121.5 28.5t93.5 74.5t60.5 105t21.5 119zM374 826l-24 13l62 79h45
z" />
    <glyph glyph-name="Otilde" unicode="&#xd5;" 
d="M382 -5q-74 0 -134.5 31t-104.5 81t-68 115t-24 133q0 71 25.5 136t70 115t105 79.5t131.5 29.5q73 0 134 -31.5t104.5 -82.5t67.5 -115.5t24 -130.5q0 -72 -25.5 -137t-70 -114.5t-105 -79t-130.5 -29.5zM85 355q0 -64 22 -123t61.5 -104.5t94 -72.5t119.5 -27
q67 0 121.5 28.5t93.5 74.5t60.5 105t21.5 119q0 64 -22.5 123t-62.5 104.5t-94 72.5t-118 27q-67 0 -121.5 -28.5t-93.5 -74.5t-60.5 -104.5t-21.5 -119.5zM443 844q-22 0 -38.5 6t-31 13t-27.5 13t-29 6t-26 -6.5t-15 -15t-7 -16.5t-2 -10h-27q0 3 2.5 15.5t11 25.5
t24 23.5t41.5 10.5q20 0 35 -6t28.5 -13.5t28 -13.5t33.5 -6q21 0 32.5 7t17.5 15.5t7.5 16t1.5 9.5h26q0 -4 -3 -16t-12 -25t-26 -23t-45 -10z" />
    <glyph glyph-name="P" unicode="P" horiz-adv-x="622" 
d="M98 0v710h290q44 0 81.5 -19t64.5 -49.5t42 -69.5t15 -79q0 -42 -14 -81.5t-40 -70t-62 -49t-80 -18.5h-263v-274h-34zM132 306h262q38 0 68 16t51 42.5t32.5 60t11.5 68.5q0 36 -13.5 69.5t-36.5 59t-54 41t-66 15.5h-255v-372z" />
    <glyph glyph-name="P.sc" horiz-adv-x="533" 
d="M89 0v542h240q37 0 68 -14.5t53.5 -38t35 -53.5t12.5 -61q0 -32 -12 -62.5t-33.5 -54t-51.5 -37.5t-66 -14h-214v-207h-32zM121 237h213q31 0 55.5 11.5t41.5 31t26 44.5t9 51q0 27 -11 52t-29.5 43.5t-44 30t-53.5 11.5h-207v-275z" />
    <glyph glyph-name="Q" unicode="Q" 
d="M585 72q-42 -36 -93.5 -56.5t-109.5 -20.5q-74 0 -134.5 31t-104.5 81t-68 115t-24 133q0 71 25.5 136t70 115t105 79.5t131.5 29.5q73 0 134 -31.5t104.5 -82.5t67.5 -115.5t24 -130.5q0 -76 -28.5 -144t-77.5 -119l75 -92h-38zM382 28q54 0 100 18.5t83 50.5l-79 98h38
l62 -77q45 48 69 110t24 127q0 64 -22.5 123t-62.5 104.5t-94 72.5t-118 27q-67 0 -121.5 -28.5t-93.5 -74.5t-60.5 -104.5t-21.5 -119.5q0 -64 22 -123t61.5 -104.5t94 -72.5t119.5 -27z" />
    <glyph glyph-name="Q.sc" horiz-adv-x="649" 
d="M492 54q-34 -27 -76.5 -42.5t-90.5 -15.5q-61 0 -111.5 23.5t-86.5 62t-56 88t-20 101.5q0 54 21 103.5t57.5 87.5t86.5 60.5t109 22.5q61 0 111.5 -24t86.5 -62.5t55.5 -87.5t19.5 -100q0 -57 -23 -109t-63 -90l63 -72h-35zM325 27q43 0 80.5 14t66.5 37l-66 76h35
l51 -59q35 35 54.5 81.5t19.5 94.5t-18.5 92t-50.5 78t-76 54.5t-96 20.5q-54 0 -99 -21.5t-76.5 -56t-49 -78.5t-17.5 -89q0 -48 18 -92t50 -77.5t76.5 -54t97.5 -20.5z" />
    <glyph glyph-name="R" unicode="R" horiz-adv-x="652" 
d="M98 0v710h292q44 0 81.5 -19t64.5 -49.5t42 -69.5t15 -79q0 -41 -12.5 -78t-36 -66t-55.5 -48t-71 -23l179 -278h-40l-177 274h-248v-274h-34zM132 306h264q37 0 67 16t51 42t32.5 60t11.5 69q0 36 -13.5 69.5t-36.5 59t-53.5 41t-65.5 15.5h-257v-372z" />
    <glyph glyph-name="R.sc" horiz-adv-x="558" 
d="M89 0v542h242q37 0 68 -14.5t53.5 -38t35 -53.5t12.5 -61q0 -30 -10.5 -58t-29 -50.5t-45 -37t-57.5 -17.5l147 -212h-38l-144 207h-202v-207h-32zM121 237h214q30 0 54.5 11.5t41.5 31t26.5 44.5t9.5 51q0 27 -10.5 51.5t-29 43.5t-43.5 30.5t-54 11.5h-209v-275z" />
    <glyph glyph-name="Racute" unicode="&#x154;" horiz-adv-x="652" 
d="M310 828l-24 13l62 79h45zM98 0v710h292q44 0 81.5 -19t64.5 -49.5t42 -69.5t15 -79q0 -41 -12.5 -78t-36 -66t-55.5 -48t-71 -23l179 -278h-40l-177 274h-248v-274h-34zM132 306h264q37 0 67 16t51 42t32.5 60t11.5 69q0 36 -13.5 69.5t-36.5 59t-53.5 41t-65.5 15.5
h-257v-372z" />
    <glyph glyph-name="Rcaron" unicode="&#x158;" horiz-adv-x="652" 
d="M233 920l85 -63l85 63l23 -14l-95 -78h-26l-94 78zM98 0v710h292q44 0 81.5 -19t64.5 -49.5t42 -69.5t15 -79q0 -41 -12.5 -78t-36 -66t-55.5 -48t-71 -23l179 -278h-40l-177 274h-248v-274h-34zM132 306h264q37 0 67 16t51 42t32.5 60t11.5 69q0 36 -13.5 69.5t-36.5 59
t-53.5 41t-65.5 15.5h-257v-372z" />
    <glyph glyph-name="Rcommaaccent" unicode="&#x156;" horiz-adv-x="652" 
d="M290 -128q16 0 16 14v64h31v-62q0 -21 -12.5 -30.5t-34.5 -9.5v24zM98 0v710h292q44 0 81.5 -19t64.5 -49.5t42 -69.5t15 -79q0 -41 -12.5 -78t-36 -66t-55.5 -48t-71 -23l179 -278h-40l-177 274h-248v-274h-34zM132 306h264q37 0 67 16t51 42t32.5 60t11.5 69
q0 36 -13.5 69.5t-36.5 59t-53.5 41t-65.5 15.5h-257v-372z" />
    <glyph glyph-name="S" unicode="S" horiz-adv-x="611" 
d="M511 605q-38 43 -85 60.5t-110 17.5q-114 0 -165 -43t-51 -115q0 -36 12.5 -60.5t39 -41.5t67.5 -28.5t98 -23.5q58 -12 105 -26t80 -35.5t51 -53.5t18 -79q0 -45 -18 -79t-51 -57t-79.5 -34.5t-103.5 -11.5q-85 0 -153 26.5t-125 81.5l20 25q50 -51 114 -77t145 -26
q100 0 157.5 36.5t57.5 111.5q0 38 -14 64.5t-42.5 45t-71.5 32t-102 25.5q-58 12 -103 25t-75.5 33t-46 49t-15.5 73q0 47 18 83.5t50.5 61t78.5 37.5t103 13q69 0 120.5 -20t94.5 -64z" />
    <glyph glyph-name="S.sc" horiz-adv-x="526" 
d="M433 456q-32 32 -70.5 46.5t-90.5 14.5q-92 0 -133 -32t-41 -86q0 -26 10 -44t31.5 -30.5t55 -21.5t79.5 -18q48 -9 86.5 -19.5t65.5 -27t41.5 -41t14.5 -60.5q0 -71 -56 -106t-151 -35q-70 0 -126.5 20t-104.5 61l19 25q41 -38 93 -58t120 -20q78 0 125.5 26.5
t47.5 82.5q0 28 -11.5 47.5t-35 33.5t-59 24t-83.5 19t-84 19.5t-61 26t-37.5 38.5t-12.5 57q0 36 15 63t42 46t65 28.5t84 9.5q57 0 100.5 -15t78.5 -48z" />
    <glyph glyph-name="Sacute" unicode="&#x15a;" horiz-adv-x="611" 
d="M305 846l-24 13l62 79h45zM511 605q-38 43 -85 60.5t-110 17.5q-114 0 -165 -43t-51 -115q0 -36 12.5 -60.5t39 -41.5t67.5 -28.5t98 -23.5q58 -12 105 -26t80 -35.5t51 -53.5t18 -79q0 -45 -18 -79t-51 -57t-79.5 -34.5t-103.5 -11.5q-85 0 -153 26.5t-125 81.5l20 25
q50 -51 114 -77t145 -26q100 0 157.5 36.5t57.5 111.5q0 38 -14 64.5t-42.5 45t-71.5 32t-102 25.5q-58 12 -103 25t-75.5 33t-46 49t-15.5 73q0 47 18 83.5t50.5 61t78.5 37.5t103 13q69 0 120.5 -20t94.5 -64z" />
    <glyph glyph-name="Scaron" unicode="&#x160;" horiz-adv-x="611" 
d="M228 938l85 -63l85 63l23 -14l-95 -78h-26l-94 78zM511 605q-38 43 -85 60.5t-110 17.5q-114 0 -165 -43t-51 -115q0 -36 12.5 -60.5t39 -41.5t67.5 -28.5t98 -23.5q58 -12 105 -26t80 -35.5t51 -53.5t18 -79q0 -45 -18 -79t-51 -57t-79.5 -34.5t-103.5 -11.5
q-85 0 -153 26.5t-125 81.5l20 25q50 -51 114 -77t145 -26q100 0 157.5 36.5t57.5 111.5q0 38 -14 64.5t-42.5 45t-71.5 32t-102 25.5q-58 12 -103 25t-75.5 33t-46 49t-15.5 73q0 47 18 83.5t50.5 61t78.5 37.5t103 13q69 0 120.5 -20t94.5 -64z" />
    <glyph glyph-name="Scircumflex" unicode="&#x15c;" horiz-adv-x="611" 
d="M206 861l94 77h26l95 -77l-23 -15l-85 63l-85 -63zM511 605q-38 43 -85 60.5t-110 17.5q-114 0 -165 -43t-51 -115q0 -36 12.5 -60.5t39 -41.5t67.5 -28.5t98 -23.5q58 -12 105 -26t80 -35.5t51 -53.5t18 -79q0 -45 -18 -79t-51 -57t-79.5 -34.5t-103.5 -11.5
q-85 0 -153 26.5t-125 81.5l20 25q50 -51 114 -77t145 -26q100 0 157.5 36.5t57.5 111.5q0 38 -14 64.5t-42.5 45t-71.5 32t-102 25.5q-58 12 -103 25t-75.5 33t-46 49t-15.5 73q0 47 18 83.5t50.5 61t78.5 37.5t103 13q69 0 120.5 -20t94.5 -64z" />
    <glyph glyph-name="T" unicode="T" horiz-adv-x="611" 
d="M589 678h-266v-678h-35v678h-266v32h567v-32z" />
    <glyph glyph-name="T.sc" horiz-adv-x="527" 
d="M499 512h-218v-512h-33v512h-219v30h470v-30z" />
    <glyph glyph-name="Tbar" unicode="&#x166;" horiz-adv-x="652" 
d="M609 678h-266v-260h236v-25h-236v-393h-35v393h-235v25h235v260h-266v32h567v-32z" />
    <glyph glyph-name="Tcaron" unicode="&#x164;" horiz-adv-x="611" 
d="M221 918l85 -63l85 63l23 -14l-95 -78h-26l-94 78zM589 678h-266v-678h-35v678h-266v32h567v-32z" />
    <glyph glyph-name="Thorn" unicode="&#xde;" horiz-adv-x="606" 
d="M369 563q44 0 81 -19t64 -50t42.5 -70t15.5 -79q0 -42 -14.5 -81.5t-40.5 -69.5t-62 -48.5t-80 -18.5h-243v-127h-34v710h34v-147h237zM375 159q38 0 68 16t51 42.5t32 59.5t11 68q0 36 -13 69.5t-36 59t-54 41t-66 15.5h-236v-371h243z" />
    <glyph glyph-name="U" unicode="U" horiz-adv-x="759" 
d="M379 28q76 0 126.5 28.5t79.5 74.5t41 104.5t12 118.5v356h35v-356q0 -71 -15 -136t-49.5 -114.5t-90.5 -79t-138 -29.5q-84 0 -140.5 31t-90.5 81.5t-48 115t-14 131.5v356h34v-356q0 -62 12 -120.5t42 -104t79.5 -73.5t124.5 -28z" />
    <glyph glyph-name="U.sc" horiz-adv-x="643" 
d="M320 27q62 0 103 21t65 55.5t33.5 78t9.5 88.5v272h33v-272q0 -54 -12.5 -104t-41.5 -87.5t-75.5 -60t-113.5 -22.5q-69 0 -115.5 23.5t-74.5 62t-40 88t-12 100.5v272h32v-272q0 -46 10 -90t34 -78t64.5 -54.5t100.5 -20.5z" />
    <glyph glyph-name="Uacute" unicode="&#xda;" horiz-adv-x="759" 
d="M372 826l-24 13l62 79h45zM379 28q76 0 126.5 28.5t79.5 74.5t41 104.5t12 118.5v356h35v-356q0 -71 -15 -136t-49.5 -114.5t-90.5 -79t-138 -29.5q-84 0 -140.5 31t-90.5 81.5t-48 115t-14 131.5v356h34v-356q0 -62 12 -120.5t42 -104t79.5 -73.5t124.5 -28z" />
    <glyph glyph-name="Ubreve" unicode="&#x16c;" horiz-adv-x="759" 
d="M379 28q76 0 126.5 28.5t79.5 74.5t41 104.5t12 118.5v356h35v-356q0 -71 -15 -136t-49.5 -114.5t-90.5 -79t-138 -29.5q-84 0 -140.5 31t-90.5 81.5t-48 115t-14 131.5v356h34v-356q0 -62 12 -120.5t42 -104t79.5 -73.5t124.5 -28zM380 856q20 0 36.5 18t19.5 44h25
q0 -17 -6.5 -32.5t-18 -27t-26 -18t-30.5 -6.5q-17 0 -31.5 6.5t-25.5 18t-17.5 27t-6.5 32.5h26q0 -23 17 -42.5t38 -19.5z" />
    <glyph glyph-name="Ucircumflex" unicode="&#xdb;" horiz-adv-x="759" 
d="M273 841l94 77h26l95 -77l-23 -15l-85 63l-85 -63zM379 28q76 0 126.5 28.5t79.5 74.5t41 104.5t12 118.5v356h35v-356q0 -71 -15 -136t-49.5 -114.5t-90.5 -79t-138 -29.5q-84 0 -140.5 31t-90.5 81.5t-48 115t-14 131.5v356h34v-356q0 -62 12 -120.5t42 -104
t79.5 -73.5t124.5 -28z" />
    <glyph glyph-name="Udieresis" unicode="&#xdc;" horiz-adv-x="759" 
d="M302 835v82h31v-82h-31zM428 835v82h31v-82h-31zM379 28q76 0 126.5 28.5t79.5 74.5t41 104.5t12 118.5v356h35v-356q0 -71 -15 -136t-49.5 -114.5t-90.5 -79t-138 -29.5q-84 0 -140.5 31t-90.5 81.5t-48 115t-14 131.5v356h34v-356q0 -62 12 -120.5t42 -104t79.5 -73.5
t124.5 -28z" />
    <glyph glyph-name="Ugrave" unicode="&#xd9;" horiz-adv-x="759" 
d="M379 28q76 0 126.5 28.5t79.5 74.5t41 104.5t12 118.5v356h35v-356q0 -71 -15 -136t-49.5 -114.5t-90.5 -79t-138 -29.5q-84 0 -140.5 31t-90.5 81.5t-48 115t-14 131.5v356h34v-356q0 -62 12 -120.5t42 -104t79.5 -73.5t124.5 -28zM305 918h44l63 -79l-24 -13z" />
    <glyph glyph-name="Uhungarumlaut" unicode="&#x170;" horiz-adv-x="759" 
d="M379 28q76 0 126.5 28.5t79.5 74.5t41 104.5t12 118.5v356h35v-356q0 -71 -15 -136t-49.5 -114.5t-90.5 -79t-138 -29.5q-84 0 -140.5 31t-90.5 81.5t-48 115t-14 131.5v356h34v-356q0 -62 12 -120.5t42 -104t79.5 -73.5t124.5 -28zM316 826l-22 13l62 79h43zM424 826
l-23 13l62 79h43z" />
    <glyph glyph-name="Umacron" unicode="&#x16a;" horiz-adv-x="759" 
d="M379 28q76 0 126.5 28.5t79.5 74.5t41 104.5t12 118.5v356h35v-356q0 -71 -15 -136t-49.5 -114.5t-90.5 -79t-138 -29.5q-84 0 -140.5 31t-90.5 81.5t-48 115t-14 131.5v356h34v-356q0 -62 12 -120.5t42 -104t79.5 -73.5t124.5 -28zM239 867v28h283v-28h-283z" />
    <glyph glyph-name="Uogonek" unicode="&#x172;" horiz-adv-x="759" 
d="M379 28q76 0 126.5 28.5t79.5 74.5t41 104.5t12 118.5v356h35v-356q0 -69 -14.5 -133t-47.5 -113t-86 -79t-130 -33q-45 -30 -63 -51t-18 -43q0 -38 47 -47l-14 -23q-29 7 -44 24t-15 41t16.5 47t54.5 52q-78 4 -130.5 36t-84 81.5t-44.5 112.5t-13 128v356h34v-356
q0 -62 12 -120.5t42 -104t79.5 -73.5t124.5 -28z" />
    <glyph glyph-name="Uring" unicode="&#x16e;" horiz-adv-x="759" 
d="M319 859q0 26 17.5 42.5t43.5 16.5q27 0 44.5 -16.5t17.5 -42.5t-17.5 -43t-44.5 -17q-26 0 -43.5 17t-17.5 43zM380 899q-17 0 -28.5 -11t-11.5 -29q0 -17 11.5 -29t28.5 -12q16 0 28.5 11.5t12.5 29.5t-12 29t-29 11zM379 28q76 0 126.5 28.5t79.5 74.5t41 104.5
t12 118.5v356h35v-356q0 -71 -15 -136t-49.5 -114.5t-90.5 -79t-138 -29.5q-84 0 -140.5 31t-90.5 81.5t-48 115t-14 131.5v356h34v-356q0 -62 12 -120.5t42 -104t79.5 -73.5t124.5 -28z" />
    <glyph glyph-name="Utilde" unicode="&#x168;" horiz-adv-x="759" 
d="M379 28q76 0 126.5 28.5t79.5 74.5t41 104.5t12 118.5v356h35v-356q0 -71 -15 -136t-49.5 -114.5t-90.5 -79t-138 -29.5q-84 0 -140.5 31t-90.5 81.5t-48 115t-14 131.5v356h34v-356q0 -62 12 -120.5t42 -104t79.5 -73.5t124.5 -28zM441 844q-22 0 -38.5 6t-31 13
t-27.5 13t-29 6t-26 -6.5t-15 -15t-7 -16.5t-2 -10h-27q0 3 2.5 15.5t11 25.5t24 23.5t41.5 10.5q20 0 35 -6t28.5 -13.5t28 -13.5t33.5 -6q21 0 32.5 7t17.5 15.5t7.5 16t1.5 9.5h26q0 -4 -3 -16t-12 -25t-26 -23t-45 -10z" />
    <glyph glyph-name="V" unicode="V" horiz-adv-x="679" 
d="M54 710l286 -667l284 667h37l-305 -710h-33l-305 710h36z" />
    <glyph glyph-name="V.sc" horiz-adv-x="584" 
d="M59 542l233 -498l232 498h35l-252 -542h-31l-251 542h34z" />
    <glyph glyph-name="W" unicode="W" horiz-adv-x="1042" 
d="M374 704h35l111 -262l112 262h34l-126 -293l160 -370l286 669h38l-306 -710h-34l-163 378l-164 -378h-33l-306 710h37l286 -669l159 370z" />
    <glyph glyph-name="W.alt" horiz-adv-x="1036" 
d="M1010 710l-228 -710h-37l-231 654l-223 -654h-37l-228 710h38l210 -663l220 663h38l230 -663l209 663h39z" />
    <glyph glyph-name="W.sc" horiz-adv-x="884" 
d="M319 538h32l90 -199l91 199h32l-104 -227l129 -271l235 502h35l-253 -542h-31l-133 284l-133 -284h-31l-253 542h35l235 -502l127 271z" />
    <glyph glyph-name="Wacute" unicode="&#x1e82;" horiz-adv-x="1042" 
d="M512 826l-24 13l62 79h45zM374 704h35l111 -262l112 262h34l-126 -293l160 -370l286 669h38l-306 -710h-34l-163 378l-164 -378h-33l-306 710h37l286 -669l159 370z" />
    <glyph glyph-name="Wcircumflex" unicode="&#x174;" horiz-adv-x="1042" 
d="M413 841l94 77h26l95 -77l-23 -15l-85 63l-85 -63zM374 704h35l111 -262l112 262h34l-126 -293l160 -370l286 669h38l-306 -710h-34l-163 378l-164 -378h-33l-306 710h37l286 -669l159 370z" />
    <glyph glyph-name="Wdieresis" unicode="&#x1e84;" horiz-adv-x="1042" 
d="M441 835v82h31v-82h-31zM567 835v82h31v-82h-31zM374 704h35l111 -262l112 262h34l-126 -293l160 -370l286 669h38l-306 -710h-34l-163 378l-164 -378h-33l-306 710h37l286 -669l159 370z" />
    <glyph glyph-name="Wgrave" unicode="&#x1e80;" horiz-adv-x="1042" 
d="M374 704h35l111 -262l112 262h34l-126 -293l160 -370l286 669h38l-306 -710h-34l-163 378l-164 -378h-33l-306 710h37l286 -669l159 370zM445 918h44l63 -79l-24 -13z" />
    <glyph glyph-name="X" unicode="X" horiz-adv-x="624" 
d="M50 710l262 -334l263 334h40l-283 -360l275 -350h-40l-255 324l-254 -324h-41l275 350l-283 360h41z" />
    <glyph glyph-name="X.sc" horiz-adv-x="540" 
d="M57 542l213 -250l213 250h38l-232 -275l225 -267h-37l-207 243l-206 -243h-38l225 267l-232 275h38z" />
    <glyph glyph-name="Y" unicode="Y" horiz-adv-x="629" 
d="M52 710l262 -403l263 403h39l-285 -438v-272h-34v274l-283 436h38z" />
    <glyph glyph-name="Y.sc" horiz-adv-x="541" 
d="M57 542l213 -305l215 305h36l-235 -336v-206h-32v207l-233 335h36z" />
    <glyph glyph-name="Yacute" unicode="&#xdd;" horiz-adv-x="629" 
d="M52 710l262 -403l263 403h39l-285 -438v-272h-34v274l-283 436h38zM306 826l-24 13l62 79h45z" />
    <glyph glyph-name="Ycircumflex" unicode="&#x176;" horiz-adv-x="629" 
d="M52 710l262 -403l263 403h39l-285 -438v-272h-34v274l-283 436h38zM207 841l94 77h26l95 -77l-23 -15l-85 63l-85 -63z" />
    <glyph glyph-name="Ydieresis" unicode="&#x178;" horiz-adv-x="629" 
d="M52 710l262 -403l263 403h39l-285 -438v-272h-34v274l-283 436h38zM235 835v82h31v-82h-31zM361 835v82h31v-82h-31z" />
    <glyph glyph-name="Ygrave" unicode="&#x1ef2;" horiz-adv-x="629" 
d="M52 710l262 -403l263 403h39l-285 -438v-272h-34v274l-283 436h38zM239 918h44l63 -79l-24 -13z" />
    <glyph glyph-name="Ytilde" unicode="&#x1ef8;" horiz-adv-x="629" 
d="M52 710l262 -403l263 403h39l-285 -438v-272h-34v274l-283 436h38zM375 844q-22 0 -38.5 6t-31 13t-27.5 13t-29 6t-26 -6.5t-15 -15t-7 -16.5t-2 -10h-27q0 3 2.5 15.5t11 25.5t24 23.5t41.5 10.5q20 0 35 -6t28.5 -13.5t28 -13.5t33.5 -6q21 0 32.5 7t17.5 15.5t7.5 16
t1.5 9.5h26q0 -4 -3 -16t-12 -25t-26 -23t-45 -10z" />
    <glyph glyph-name="Z" unicode="Z" horiz-adv-x="625" 
d="M29 30l525 648h-519v32h560v-30l-523 -648h520v-32h-563v30z" />
    <glyph glyph-name="Z.sc" horiz-adv-x="543" 
d="M37 28l429 484h-424v30h463v-28l-427 -484h425v-30h-466v28z" />
    <glyph glyph-name="Zacute" unicode="&#x179;" horiz-adv-x="625" 
d="M322 826l-24 13l62 79h45zM29 30l525 648h-519v32h560v-30l-523 -648h520v-32h-563v30z" />
    <glyph glyph-name="Zcaron" unicode="&#x17d;" horiz-adv-x="625" 
d="M245 918l85 -63l85 63l23 -14l-95 -78h-26l-94 78zM29 30l525 648h-519v32h560v-30l-523 -648h520v-32h-563v30z" />
    <glyph glyph-name="Zdotaccent" unicode="&#x17b;" horiz-adv-x="625" 
d="M29 30l525 648h-519v32h560v-30l-523 -648h520v-32h-563v30zM314 835v83h32v-83h-32z" />
    <glyph glyph-name="a" unicode="a" horiz-adv-x="532" 
d="M206 -10q-36 0 -67 12.5t-54 34t-36 50.5t-13 63q0 33 16 60.5t44.5 47.5t68 31t87.5 11q43 0 88 -7t80 -21v56q0 78 -44.5 124.5t-119.5 46.5q-38 0 -80.5 -16.5t-86.5 -47.5l-16 25q101 68 185 68q91 0 143.5 -54t52.5 -148v-272q0 -22 18 -22v-32q-3 -1 -8 -1
q-17 0 -29.5 12.5t-12.5 30.5v46q-35 -47 -92.5 -72.5t-123.5 -25.5zM211 19q63 0 115 23.5t78 63.5q16 21 16 40v98q-77 30 -166 30q-83 0 -133.5 -33.5t-50.5 -89.5q0 -28 11 -52t29.5 -42t44.5 -28t56 -10z" />
    <glyph glyph-name="a.alt" horiz-adv-x="610" 
d="M292 -10q-55 0 -100.5 22.5t-78 60t-50.5 86t-18 99.5q0 55 19.5 104t52.5 86t77.5 58.5t95.5 21.5q69 0 122 -36t84 -91v116h34v-517h-34v115q-32 -55 -85 -90t-119 -35zM496 347q-12 31 -32 58.5t-46 47.5t-57.5 31.5t-65.5 11.5q-49 0 -88.5 -21t-68 -55t-44 -76.5
t-15.5 -85.5q0 -47 16 -89.5t45 -75t69 -52t87 -19.5q36 0 67.5 11.5t57 32t44.5 47.5t31 57v177z" />
    <glyph glyph-name="a.alt2" horiz-adv-x="528" 
d="M420 0v86q-38 -50 -96 -73t-118 -23q-36 0 -67 12.5t-54 34t-36 50.5t-13 63q0 42 20.5 70.5t52 46t70 25.5t73.5 8q61 0 104.5 -10t63.5 -18v56q0 38 -11.5 69.5t-33 54t-52 35t-67.5 12.5q-38 0 -80.5 -16.5t-86.5 -47.5l-16 25q42 28 88.5 48t96.5 20q48 0 84.5 -15.5
t61.5 -42.5t37.5 -64t12.5 -80v-326h-34zM404 106q16 22 16 40v98q-41 16 -82.5 23t-83.5 7q-31 0 -63.5 -6.5t-59.5 -20.5t-44 -38t-17 -58q0 -30 11.5 -54t31 -41.5t45 -27t53.5 -9.5q27 0 55 5t53.5 16t47.5 27t37 39z" />
    <glyph glyph-name="aacute" unicode="&#xe1;" horiz-adv-x="532" 
d="M206 -10q-36 0 -67 12.5t-54 34t-36 50.5t-13 63q0 33 16 60.5t44.5 47.5t68 31t87.5 11q43 0 88 -7t80 -21v56q0 78 -44.5 124.5t-119.5 46.5q-38 0 -80.5 -16.5t-86.5 -47.5l-16 25q101 68 185 68q91 0 143.5 -54t52.5 -148v-272q0 -22 18 -22v-32q-3 -1 -8 -1
q-17 0 -29.5 12.5t-12.5 30.5v46q-35 -47 -92.5 -72.5t-123.5 -25.5zM211 19q63 0 115 23.5t78 63.5q16 21 16 40v98q-77 30 -166 30q-83 0 -133.5 -33.5t-50.5 -89.5q0 -28 11 -52t29.5 -42t44.5 -28t56 -10zM250 638l-24 13l62 79h45z" />
    <glyph glyph-name="abreve" unicode="&#x103;" horiz-adv-x="532" 
d="M206 -10q-36 0 -67 12.5t-54 34t-36 50.5t-13 63q0 33 16 60.5t44.5 47.5t68 31t87.5 11q43 0 88 -7t80 -21v56q0 78 -44.5 124.5t-119.5 46.5q-38 0 -80.5 -16.5t-86.5 -47.5l-16 25q101 68 185 68q91 0 143.5 -54t52.5 -148v-272q0 -22 18 -22v-32q-3 -1 -8 -1
q-17 0 -29.5 12.5t-12.5 30.5v46q-35 -47 -92.5 -72.5t-123.5 -25.5zM211 19q63 0 115 23.5t78 63.5q16 21 16 40v98q-77 30 -166 30q-83 0 -133.5 -33.5t-50.5 -89.5q0 -28 11 -52t29.5 -42t44.5 -28t56 -10zM258 668q20 0 36.5 18t19.5 44h25q0 -17 -6.5 -32.5t-18 -27
t-26 -18t-30.5 -6.5q-17 0 -31.5 6.5t-25.5 18t-17.5 27t-6.5 32.5h26q0 -23 17 -42.5t38 -19.5z" />
    <glyph glyph-name="acircumflex" unicode="&#xe2;" horiz-adv-x="532" 
d="M206 -10q-36 0 -67 12.5t-54 34t-36 50.5t-13 63q0 33 16 60.5t44.5 47.5t68 31t87.5 11q43 0 88 -7t80 -21v56q0 78 -44.5 124.5t-119.5 46.5q-38 0 -80.5 -16.5t-86.5 -47.5l-16 25q101 68 185 68q91 0 143.5 -54t52.5 -148v-272q0 -22 18 -22v-32q-3 -1 -8 -1
q-17 0 -29.5 12.5t-12.5 30.5v46q-35 -47 -92.5 -72.5t-123.5 -25.5zM211 19q63 0 115 23.5t78 63.5q16 21 16 40v98q-77 30 -166 30q-83 0 -133.5 -33.5t-50.5 -89.5q0 -28 11 -52t29.5 -42t44.5 -28t56 -10zM151 653l94 77h26l95 -77l-23 -15l-85 63l-85 -63z" />
    <glyph glyph-name="adieresis" unicode="&#xe4;" horiz-adv-x="532" 
d="M206 -10q-36 0 -67 12.5t-54 34t-36 50.5t-13 63q0 33 16 60.5t44.5 47.5t68 31t87.5 11q43 0 88 -7t80 -21v56q0 78 -44.5 124.5t-119.5 46.5q-38 0 -80.5 -16.5t-86.5 -47.5l-16 25q101 68 185 68q91 0 143.5 -54t52.5 -148v-272q0 -22 18 -22v-32q-3 -1 -8 -1
q-17 0 -29.5 12.5t-12.5 30.5v46q-35 -47 -92.5 -72.5t-123.5 -25.5zM211 19q63 0 115 23.5t78 63.5q16 21 16 40v98q-77 30 -166 30q-83 0 -133.5 -33.5t-50.5 -89.5q0 -28 11 -52t29.5 -42t44.5 -28t56 -10zM179 647v82h31v-82h-31zM305 647v82h31v-82h-31z" />
    <glyph glyph-name="ae" unicode="&#xe6;" horiz-adv-x="929" 
d="M206 -10q-36 0 -66.5 12.5t-53.5 34t-36 50.5t-13 63q0 33 15.5 60.5t44 47.5t68 31t87.5 11q35 0 72.5 -5.5t69.5 -14.5q3 49 21 93q-12 58 -53.5 92t-104.5 34q-38 0 -81 -16.5t-87 -47.5l-15 25q100 68 184 68q66 0 112.5 -31t66.5 -87q32 53 85.5 85.5t119.5 32.5
q57 0 103.5 -22.5t79.5 -61t51.5 -90t18.5 -109.5h-469q4 -48 22.5 -89.5t48.5 -71.5t68.5 -47.5t82.5 -17.5q29 0 56.5 7.5t51.5 21.5t42 33.5t29 42.5l30 -8q-11 -27 -32 -50.5t-49 -40t-61 -26t-68 -9.5q-66 0 -120.5 32.5t-88.5 86.5q-16 -32 -42.5 -54.5t-58 -36.5
t-66 -21t-65.5 -7zM211 19q37 0 72.5 9t64 25.5t48 39t24.5 48.5q-12 25 -18.5 54t-7.5 58q-66 21 -140 21q-83 0 -133.5 -33.5t-50.5 -89.5q0 -28 11 -52t30 -42t44.5 -28t55.5 -10zM861 272q-3 49 -21 90.5t-47 71.5t-67.5 47t-82.5 17t-82.5 -17t-67.5 -47t-46.5 -71.5
t-20.5 -90.5h435z" />
    <glyph glyph-name="aeacute" unicode="&#x1fd;" horiz-adv-x="929" 
d="M429 638l-24 13l62 79h45zM206 -10q-36 0 -66.5 12.5t-53.5 34t-36 50.5t-13 63q0 33 15.5 60.5t44 47.5t68 31t87.5 11q35 0 72.5 -5.5t69.5 -14.5q3 49 21 93q-12 58 -53.5 92t-104.5 34q-38 0 -81 -16.5t-87 -47.5l-15 25q100 68 184 68q66 0 112.5 -31t66.5 -87
q32 53 85.5 85.5t119.5 32.5q57 0 103.5 -22.5t79.5 -61t51.5 -90t18.5 -109.5h-469q4 -48 22.5 -89.5t48.5 -71.5t68.5 -47.5t82.5 -17.5q29 0 56.5 7.5t51.5 21.5t42 33.5t29 42.5l30 -8q-11 -27 -32 -50.5t-49 -40t-61 -26t-68 -9.5q-66 0 -120.5 32.5t-88.5 86.5
q-16 -32 -42.5 -54.5t-58 -36.5t-66 -21t-65.5 -7zM211 19q37 0 72.5 9t64 25.5t48 39t24.5 48.5q-12 25 -18.5 54t-7.5 58q-66 21 -140 21q-83 0 -133.5 -33.5t-50.5 -89.5q0 -28 11 -52t30 -42t44.5 -28t55.5 -10zM861 272q-3 49 -21 90.5t-47 71.5t-67.5 47t-82.5 17
t-82.5 -17t-67.5 -47t-46.5 -71.5t-20.5 -90.5h435z" />
    <glyph glyph-name="agrave" unicode="&#xe0;" horiz-adv-x="532" 
d="M206 -10q-36 0 -67 12.5t-54 34t-36 50.5t-13 63q0 33 16 60.5t44.5 47.5t68 31t87.5 11q43 0 88 -7t80 -21v56q0 78 -44.5 124.5t-119.5 46.5q-38 0 -80.5 -16.5t-86.5 -47.5l-16 25q101 68 185 68q91 0 143.5 -54t52.5 -148v-272q0 -22 18 -22v-32q-3 -1 -8 -1
q-17 0 -29.5 12.5t-12.5 30.5v46q-35 -47 -92.5 -72.5t-123.5 -25.5zM211 19q63 0 115 23.5t78 63.5q16 21 16 40v98q-77 30 -166 30q-83 0 -133.5 -33.5t-50.5 -89.5q0 -28 11 -52t29.5 -42t44.5 -28t56 -10zM183 730h44l63 -79l-24 -13z" />
    <glyph glyph-name="amacron" unicode="&#x101;" horiz-adv-x="532" 
d="M206 -10q-36 0 -67 12.5t-54 34t-36 50.5t-13 63q0 33 16 60.5t44.5 47.5t68 31t87.5 11q43 0 88 -7t80 -21v56q0 78 -44.5 124.5t-119.5 46.5q-38 0 -80.5 -16.5t-86.5 -47.5l-16 25q101 68 185 68q91 0 143.5 -54t52.5 -148v-272q0 -22 18 -22v-32q-3 -1 -8 -1
q-17 0 -29.5 12.5t-12.5 30.5v46q-35 -47 -92.5 -72.5t-123.5 -25.5zM211 19q63 0 115 23.5t78 63.5q16 21 16 40v98q-77 30 -166 30q-83 0 -133.5 -33.5t-50.5 -89.5q0 -28 11 -52t29.5 -42t44.5 -28t56 -10zM117 679v28h283v-28h-283z" />
    <glyph glyph-name="ampersand" unicode="&#x26;" horiz-adv-x="649" 
d="M590 0l-99 103q-39 -51 -95 -82t-125 -31q-42 0 -81.5 12.5t-70 36t-49 57.5t-18.5 78q0 36 13 66t35.5 56.5t52 49.5t63.5 46q-30 32 -51 57t-34 46t-18.5 39.5t-5.5 36.5q0 30 13 56.5t36.5 47t54.5 32.5t67 12q33 0 61 -10t49 -28t32.5 -42t11.5 -51q0 -31 -14 -57.5
t-38 -50.5t-54.5 -47t-63.5 -45l228 -236q23 41 36 89t13 99h31q0 -57 -15 -111t-44 -99l125 -130h-46zM275 19q62 0 111.5 28.5t84.5 76.5l-235 247q-31 -21 -58.5 -42.5t-48 -45.5t-32.5 -51.5t-12 -59.5q0 -39 17 -67.5t44.5 -47.5t61.5 -28.5t67 -9.5zM140 571
q0 -13 4 -27.5t15 -33.5t31 -43.5t52 -57.5q36 24 65 45.5t49.5 42.5t31.5 42.5t11 46.5q0 45 -34.5 74t-87.5 29q-29 0 -54 -9.5t-43.5 -25.5t-29 -37.5t-10.5 -45.5z" />
    <glyph glyph-name="aogonek" unicode="&#x105;" horiz-adv-x="532" 
d="M423 -164q-29 7 -44 24t-15 41q0 25 18 49.5t60 54.5q-20 12 -20 37v46q-35 -47 -92.5 -72.5t-123.5 -25.5q-36 0 -67 12.5t-54 34t-36 50.5t-13 63q0 33 16 60.5t44.5 47.5t68 31t87.5 11q43 0 88 -7t80 -21v56q0 78 -44.5 124.5t-119.5 46.5q-38 0 -80.5 -16.5
t-86.5 -47.5l-16 25q101 68 185 68q91 0 143.5 -54t52.5 -148v-272q0 -22 18 -22v-32q-45 -30 -63.5 -51t-18.5 -43q0 -38 47 -47zM211 19q63 0 115 23.5t78 63.5q16 21 16 40v98q-77 30 -166 30q-83 0 -133.5 -33.5t-50.5 -89.5q0 -28 11 -52t29.5 -42t44.5 -28t56 -10z
" />
    <glyph glyph-name="apostrophe" unicode="&#x2bc;" horiz-adv-x="362" 
d="M171 638l-24 13l40 51l2 28h66z" />
    <glyph glyph-name="aring" unicode="&#xe5;" horiz-adv-x="532" 
d="M206 -10q-36 0 -67 12.5t-54 34t-36 50.5t-13 63q0 33 16 60.5t44.5 47.5t68 31t87.5 11q43 0 88 -7t80 -21v56q0 78 -44.5 124.5t-119.5 46.5q-38 0 -80.5 -16.5t-86.5 -47.5l-16 25q101 68 185 68q91 0 143.5 -54t52.5 -148v-272q0 -22 18 -22v-32q-3 -1 -8 -1
q-17 0 -29.5 12.5t-12.5 30.5v46q-35 -47 -92.5 -72.5t-123.5 -25.5zM211 19q63 0 115 23.5t78 63.5q16 21 16 40v98q-77 30 -166 30q-83 0 -133.5 -33.5t-50.5 -89.5q0 -28 11 -52t29.5 -42t44.5 -28t56 -10zM196 671q0 26 17.5 42.5t43.5 16.5q27 0 44.5 -16.5t17.5 -42.5
t-17.5 -43t-44.5 -17q-26 0 -43.5 17t-17.5 43zM257 711q-17 0 -28.5 -11t-11.5 -29q0 -17 11.5 -29t28.5 -12q16 0 28.5 11.5t12.5 29.5t-12 29t-29 11z" />
    <glyph glyph-name="aringacute" unicode="&#x1fb;" horiz-adv-x="532" 
d="M206 -10q-36 0 -67 12.5t-54 34t-36 50.5t-13 63q0 33 16 60.5t44.5 47.5t68 31t87.5 11q43 0 88 -7t80 -21v56q0 78 -44.5 124.5t-119.5 46.5q-38 0 -80.5 -16.5t-86.5 -47.5l-16 25q101 68 185 68q91 0 143.5 -54t52.5 -148v-272q0 -22 18 -22v-32q-3 -1 -8 -1
q-17 0 -29.5 12.5t-12.5 30.5v46q-35 -47 -92.5 -72.5t-123.5 -25.5zM211 19q63 0 115 23.5t78 63.5q16 21 16 40v98q-77 30 -166 30q-83 0 -133.5 -33.5t-50.5 -89.5q0 -28 11 -52t29.5 -42t44.5 -28t56 -10zM250 777l-24 13l62 79h45zM196 671q0 26 17.5 42.5t43.5 16.5
q27 0 44.5 -16.5t17.5 -42.5t-17.5 -43t-44.5 -17q-26 0 -43.5 17t-17.5 43zM257 711q-17 0 -28.5 -11t-11.5 -29q0 -17 11.5 -29t28.5 -12q16 0 28.5 11.5t12.5 29.5t-12 29t-29 11z" />
    <glyph glyph-name="asciicircum" unicode="^" horiz-adv-x="518" 
d="M47 303l198 407h29l197 -407h-33l-178 368l-181 -368h-32z" />
    <glyph glyph-name="asciitilde" unicode="~" horiz-adv-x="480" 
d="M71 248q0 3 5 16.5t16 29.5t28 28.5t42 12.5q21 0 40 -9.5t37 -20.5t36.5 -20.5t38.5 -9.5q18 0 31.5 7.5t22 17.5t12.5 18.5t4 10.5l26 -1q0 -1 -4.5 -13.5t-16 -27.5t-30 -27t-45.5 -12q-24 0 -44.5 9.5t-39.5 20.5t-36 20.5t-33 9.5t-28 -9t-20 -20t-12 -20.5
t-4 -10.5h-26v0z" />
    <glyph glyph-name="asterisk" unicode="*" horiz-adv-x="312" 
d="M94 559l41 58l-67 22l7 24l68 -23l-3 71h31l-3 -71l68 23l7 -24l-67 -22l42 -58l-21 -15l-42 59l-41 -59z" />
    <glyph glyph-name="at" unicode="@" horiz-adv-x="821" 
d="M419 603q74 0 139 -29t114 -80.5t77 -121t28 -150.5q0 -14 -1.5 -37.5t-6.5 -50t-14.5 -53.5t-25 -48.5t-39 -35t-55.5 -13.5q-24 0 -38.5 7.5t-22.5 21t-11 31.5t-5 38q-13 -15 -31.5 -28t-40 -22.5t-46 -15.5t-50.5 -6q-68 0 -107.5 36.5t-39.5 93.5q0 36 16 60.5
t42 39.5t58.5 21t65.5 6q45 0 80.5 -8.5t52.5 -14.5q0 40 -6 73t-20.5 57t-39.5 37t-63 13t-74.5 -12.5t-68.5 -35.5l-14 23q35 23 74.5 37.5t84.5 14.5q51 0 81.5 -18t46.5 -46.5t21 -64.5t5 -73v-146q0 -45 9 -69.5t43 -24.5t56 22t35 54.5t18.5 70t5.5 67.5q0 74 -26 139
t-71 113t-106 76t-131 28q-67 0 -128.5 -26t-108.5 -72.5t-75 -110.5t-28 -140q0 -74 26.5 -138t72 -111.5t107 -75t132.5 -27.5q79 0 152 38l11 -22q-39 -20 -80 -30t-83 -10q-74 0 -140 29t-115.5 79.5t-78 119t-28.5 148.5q0 82 30.5 151t81 118t116.5 76.5t137 27.5z
M487 59q24 11 37.5 25t21 29t9.5 30t2 30v45q-6 0 -17.5 4t-29 8.5t-40 8t-49.5 3.5q-28 0 -55 -5t-48.5 -17t-34.5 -31.5t-13 -48.5q0 -24 10 -43.5t26.5 -32.5t38.5 -20t46 -7q26 0 51.5 6.5t44.5 15.5z" />
    <glyph glyph-name="atilde" unicode="&#xe3;" horiz-adv-x="532" 
d="M206 -10q-36 0 -67 12.5t-54 34t-36 50.5t-13 63q0 33 16 60.5t44.5 47.5t68 31t87.5 11q43 0 88 -7t80 -21v56q0 78 -44.5 124.5t-119.5 46.5q-38 0 -80.5 -16.5t-86.5 -47.5l-16 25q101 68 185 68q91 0 143.5 -54t52.5 -148v-272q0 -22 18 -22v-32q-3 -1 -8 -1
q-17 0 -29.5 12.5t-12.5 30.5v46q-35 -47 -92.5 -72.5t-123.5 -25.5zM211 19q63 0 115 23.5t78 63.5q16 21 16 40v98q-77 30 -166 30q-83 0 -133.5 -33.5t-50.5 -89.5q0 -28 11 -52t29.5 -42t44.5 -28t56 -10zM319 656q-22 0 -38.5 6t-31 13t-27.5 13t-29 6t-26 -6.5
t-15 -15t-7 -16.5t-2 -10h-27q0 3 2.5 15.5t11 25.5t24 23.5t41.5 10.5q20 0 35 -6t28.5 -13.5t28 -13.5t33.5 -6q21 0 32.5 7t17.5 15.5t7.5 16t1.5 9.5h26q0 -4 -3 -16t-12 -25t-26 -23t-45 -10z" />
    <glyph glyph-name="b" unicode="b" horiz-adv-x="607" 
d="M312 -10q-30 0 -59.5 9t-56 24.5t-48 36.5t-36.5 46v-106h-32v730h34v-328q38 56 89 91t119 35q56 0 100.5 -24t75.5 -62t47.5 -86.5t16.5 -97.5q0 -53 -19 -101.5t-53 -85.5t-79.5 -59t-98.5 -22zM308 22q48 0 88 20.5t69.5 53.5t45.5 75.5t16 86.5q0 46 -15.5 89
t-43 76t-66.5 53t-85 20q-35 0 -66 -12t-57 -32t-46 -46t-34 -55v-181q3 -30 22.5 -57t48 -47.5t61.5 -32t62 -11.5z" />
    <glyph glyph-name="backslash" unicode="\" horiz-adv-x="534" 
d="M69 710l435 -710h-40l-436 710h41z" />
    <glyph glyph-name="bar" unicode="|" horiz-adv-x="208" 
d="M88 -130v905h32v-905h-32z" />
    <glyph glyph-name="braceleft" unicode="{" horiz-adv-x="225" 
d="M125 709v-291q0 -4 -0.5 -10.5t-3 -15t-7 -17t-12.5 -15.5q16 -14 19.5 -32.5t3.5 -25.5v-302h55v-31h-64q-8 0 -15.5 6.5t-7.5 23.5v298q0 17 -7.5 32t-25.5 17v30q10 0 16.5 6t10.5 13.5t5 15.5t1 12v287q0 20 9 25t14 5h64v-31h-55z" />
    <glyph glyph-name="braceright" unicode="}" horiz-adv-x="225" 
d="M46 709v31h64q4 0 13.5 -5t9.5 -25v-287q0 -4 1 -12t4.5 -15.5t9.5 -13.5t17 -6v-30q-18 -2 -25 -17t-7 -32v-298q0 -17 -7.5 -23.5t-15.5 -6.5h-64v31h55v302q0 7 3 25.5t19 32.5q-8 7 -12.5 15.5t-6.5 17t-2.5 15t-0.5 10.5v291h-55z" />
    <glyph glyph-name="bracketleft" unicode="[" horiz-adv-x="221" 
d="M90 -40v780h85v-31h-52v-718h52v-31h-85z" />
    <glyph glyph-name="bracketright" unicode="]" horiz-adv-x="221" 
d="M46 -40v31h52v718h-52v31h85v-780h-85z" />
    <glyph glyph-name="brokenbar" unicode="&#xa6;" horiz-adv-x="212" 
d="M122 283v-413h-32v413h32zM122 775v-413h-32v413h32z" />
    <glyph glyph-name="bullet" unicode="&#x2022;" horiz-adv-x="351" 
d="M257 344q0 -35 -23.5 -58.5t-57.5 -23.5t-58 23.5t-24 58.5q0 33 24 57t58 24t57.5 -24t23.5 -57z" />
    <glyph glyph-name="c" unicode="c" horiz-adv-x="543" 
d="M45 262q0 56 19 104.5t53 84.5t80.5 56.5t100.5 20.5q68 0 120.5 -31.5t79.5 -86.5l-34 -12q-24 46 -69.5 72t-99.5 26q-45 0 -84.5 -18t-69 -49.5t-46 -74.5t-16.5 -92t17.5 -92.5t47 -76.5t69 -52t83.5 -19q29 0 57.5 8.5t52.5 22.5t41.5 32.5t23.5 39.5l33 -10
q-9 -27 -29 -50t-47.5 -39.5t-60.5 -26t-68 -9.5q-53 0 -99 21.5t-80.5 58.5t-54.5 86.5t-20 105.5z" />
    <glyph glyph-name="c_t" horiz-adv-x="841" 
d="M834 24q-2 -2 -10.5 -6.5t-21.5 -9.5t-30.5 -9t-38.5 -4q-19 0 -36.5 6t-30.5 17t-21 27t-8 36v409h-74v30h74q0 13 0.5 26t0.5 25q0 32 -4 60t-16.5 49t-36 33.5t-62.5 12.5q-55 0 -81 -33t-26 -78q0 -26 11 -56.5t25.5 -59.5t28.5 -52.5t20 -36.5l-33 -12
q-28 52 -73 75t-101 23q-50 0 -89 -21t-66 -55t-41.5 -76.5t-14.5 -85.5q0 -47 17 -89.5t46.5 -75t69.5 -52t86 -19.5q23 0 50.5 7t52.5 20.5t44.5 32.5t25.5 43l33 -10q-11 -31 -33 -54.5t-50.5 -39t-60.5 -23.5t-62 -8q-56 0 -102 23t-80 60.5t-52.5 86t-18.5 98.5
q0 52 17.5 101t50 86.5t77.5 60t100 22.5q50 0 86 -12t63 -34q-17 26 -34.5 59.5t-17.5 74.5q0 28 9 52.5t26 43t43 29t59 10.5q55 0 85 -16.5t43.5 -46.5t16 -73t2.5 -95h123v-30h-123v-404q0 -29 21 -44t47 -15q16 0 30.5 3.5t26 8t18 8.5t8.5 5z" />
    <glyph glyph-name="cacute" unicode="&#x107;" horiz-adv-x="543" 
d="M287 638l-24 13l62 79h45zM45 262q0 56 19 104.5t53 84.5t80.5 56.5t100.5 20.5q68 0 120.5 -31.5t79.5 -86.5l-34 -12q-24 46 -69.5 72t-99.5 26q-45 0 -84.5 -18t-69 -49.5t-46 -74.5t-16.5 -92t17.5 -92.5t47 -76.5t69 -52t83.5 -19q29 0 57.5 8.5t52.5 22.5
t41.5 32.5t23.5 39.5l33 -10q-9 -27 -29 -50t-47.5 -39.5t-60.5 -26t-68 -9.5q-53 0 -99 21.5t-80.5 58.5t-54.5 86.5t-20 105.5z" />
    <glyph glyph-name="ccaron" unicode="&#x10d;" horiz-adv-x="543" 
d="M210 730l85 -63l85 63l23 -14l-95 -78h-26l-94 78zM45 262q0 56 19 104.5t53 84.5t80.5 56.5t100.5 20.5q68 0 120.5 -31.5t79.5 -86.5l-34 -12q-24 46 -69.5 72t-99.5 26q-45 0 -84.5 -18t-69 -49.5t-46 -74.5t-16.5 -92t17.5 -92.5t47 -76.5t69 -52t83.5 -19
q29 0 57.5 8.5t52.5 22.5t41.5 32.5t23.5 39.5l33 -10q-9 -27 -29 -50t-47.5 -39.5t-60.5 -26t-68 -9.5q-53 0 -99 21.5t-80.5 58.5t-54.5 86.5t-20 105.5z" />
    <glyph glyph-name="ccedilla" unicode="&#xe7;" horiz-adv-x="544" 
d="M224 -125q14 -7 37.5 -12.5t49.5 -5.5q29 0 43.5 8.5t14.5 28.5q0 21 -13.5 29t-35.5 8q-21 0 -44 -5t-37 -10l42 75q-50 4 -92.5 26.5t-74.5 59t-50 84t-18 101.5q0 56 19 104.5t53 84.5t80.5 56.5t100.5 20.5q68 0 120.5 -31.5t79.5 -86.5l-34 -12q-24 46 -69.5 72
t-99.5 26q-45 0 -84.5 -18t-69 -49.5t-46 -74.5t-16.5 -92t17.5 -92.5t47 -76.5t69 -52t83.5 -19q29 0 57.5 8.5t52.5 22.5t41.5 32.5t23.5 39.5l33 -10q-9 -26 -28 -48.5t-45 -39t-57.5 -26.5t-64.5 -11l-27 -45q10 4 21.5 5t19.5 1q70 0 70 -56q0 -32 -22.5 -46.5
t-64.5 -14.5q-27 0 -51.5 5.5t-43.5 13.5z" />
    <glyph glyph-name="ccircumflex" unicode="&#x109;" horiz-adv-x="543" 
d="M188 653l94 77h26l95 -77l-23 -15l-85 63l-85 -63zM45 262q0 56 19 104.5t53 84.5t80.5 56.5t100.5 20.5q68 0 120.5 -31.5t79.5 -86.5l-34 -12q-24 46 -69.5 72t-99.5 26q-45 0 -84.5 -18t-69 -49.5t-46 -74.5t-16.5 -92t17.5 -92.5t47 -76.5t69 -52t83.5 -19
q29 0 57.5 8.5t52.5 22.5t41.5 32.5t23.5 39.5l33 -10q-9 -27 -29 -50t-47.5 -39.5t-60.5 -26t-68 -9.5q-53 0 -99 21.5t-80.5 58.5t-54.5 86.5t-20 105.5z" />
    <glyph glyph-name="cdotaccent" unicode="&#x10b;" horiz-adv-x="543" 
d="M45 262q0 56 19 104.5t53 84.5t80.5 56.5t100.5 20.5q68 0 120.5 -31.5t79.5 -86.5l-34 -12q-24 46 -69.5 72t-99.5 26q-45 0 -84.5 -18t-69 -49.5t-46 -74.5t-16.5 -92t17.5 -92.5t47 -76.5t69 -52t83.5 -19q29 0 57.5 8.5t52.5 22.5t41.5 32.5t23.5 39.5l33 -10
q-9 -27 -29 -50t-47.5 -39.5t-60.5 -26t-68 -9.5q-53 0 -99 21.5t-80.5 58.5t-54.5 86.5t-20 105.5zM279 647v83h32v-83h-32z" />
    <glyph glyph-name="cent" unicode="&#xa2;" horiz-adv-x="553" 
d="M280 -120v111q-51 4 -93.5 28.5t-73 61.5t-47.5 83t-17 94q0 51 16.5 98t47 84t73 61t94.5 27v117h25v-117q77 -2 123.5 -34.5t72.5 -83.5l-32 -12q-27 49 -69.5 72.5t-94.5 25.5v-474q23 0 50 7.5t52 21t43.5 32.5t24.5 42l34 -10q-11 -31 -33.5 -54.5t-51 -39
t-60 -23.5t-59.5 -8v-110h-25zM83 258q0 -44 15 -84t41.5 -72t62.5 -53t78 -25v471q-47 -3 -83.5 -25t-62 -55.5t-38.5 -74.5t-13 -82z" />
    <glyph glyph-name="colon" unicode=":" horiz-adv-x="174" 
d="M71 443v74h31v-74h-31zM71 0v74h31v-74h-31z" />
    <glyph glyph-name="comma" unicode="," horiz-adv-x="189" 
d="M66 -14q16 0 16 16v72h31v-74q0 -22 -13.5 -32.5t-33.5 -10.5v29z" />
    <glyph glyph-name="copyright" unicode="&#xa9;" horiz-adv-x="835" 
d="M417 -7q-78 0 -144.5 27.5t-114.5 76t-75.5 114.5t-27.5 144q0 77 27.5 143t75.5 114t114.5 75.5t144.5 27.5t145 -27.5t115.5 -75.5t76 -114t27.5 -143q0 -78 -27.5 -144t-76 -114.5t-115.5 -76t-145 -27.5zM418 17q71 0 133 24.5t107.5 68.5t71.5 105.5t26 136.5
q0 73 -25.5 135.5t-70.5 107.5t-107 70.5t-135 25.5t-135 -25.5t-107.5 -70.5t-71 -106.5t-25.5 -134.5q0 -72 25.5 -134t71 -107t107.5 -70.5t135 -25.5zM424 126q-40 0 -80 15.5t-71.5 45t-51.5 72t-20 96.5q0 40 13 81.5t39.5 75t67 54.5t96.5 21q29 0 56.5 -6.5
t50.5 -19t41 -32t28 -45.5l-32 -11q-11 26 -29 42t-38 25t-40.5 12t-36.5 3q-47 0 -81 -18t-56 -47t-33 -64.5t-11 -70.5q0 -47 17.5 -84t44.5 -62.5t59.5 -38.5t63.5 -13q21 0 43.5 6t43 17t37 27.5t25.5 36.5l33 -9q-5 -15 -20 -33.5t-38.5 -35.5t-54 -28.5t-66.5 -11.5z
" />
    <glyph glyph-name="d" unicode="d" horiz-adv-x="610" 
d="M295 -10q-54 0 -100 23t-79.5 60.5t-52 85.5t-18.5 99q0 54 18 103t50 86t76 59t96 22q35 0 66 -10t57 -27.5t47.5 -40.5t37.5 -48v328h34v-676q0 -22 18 -22v-32q-3 -1 -9 -1q-17 0 -29 13.5t-12 29.5v64q-16 -26 -38.5 -47.5t-48.5 -36.5t-55 -23.5t-58 -8.5zM299 22
q29 0 62 12t61.5 32.5t48 48t22.5 57.5v179q-11 30 -33 56.5t-49.5 46t-59 31t-61.5 11.5q-48 0 -87 -20.5t-66.5 -54t-42.5 -76t-15 -87.5q0 -47 17 -89.5t47 -75t70 -52t86 -19.5z" />
    <glyph glyph-name="d.alt" horiz-adv-x="607" 
d="M493 0v105q-16 -26 -38 -47t-48 -36t-54.5 -23.5t-57.5 -8.5q-54 0 -100 23t-79.5 60.5t-52 85.5t-18.5 99q0 54 18 103t50 86t76 59t96 22q35 0 65 -10t56 -27.5t47.5 -40.5t39.5 -48v328h34v-730h-34zM493 351q-11 30 -32.5 56.5t-49.5 46t-59.5 31t-61.5 11.5
q-48 0 -87 -20.5t-66.5 -54t-42.5 -76t-15 -87.5q0 -47 17 -89.5t47 -75t70 -52t86 -19.5q29 0 62.5 12t62 32.5t48 48t21.5 57.5v179z" />
    <glyph glyph-name="dagger" unicode="&#x2020;" horiz-adv-x="388" 
d="M178 -130v385h-132v32h132v488h33v-488h131v-32h-131v-385h-33z" />
    <glyph glyph-name="daggerdbl" unicode="&#x2021;" horiz-adv-x="396" 
d="M182 -130v319h-132v32h132v110h-132v33h132v411h33v-411h131v-33h-131v-110h131v-32h-131v-319h-33z" />
    <glyph glyph-name="dcaron" unicode="&#x10f;" horiz-adv-x="610" 
d="M592 638l-24 13l62 79h45zM295 -10q-54 0 -100 23t-79.5 60.5t-52 85.5t-18.5 99q0 54 18 103t50 86t76 59t96 22q35 0 66 -10t57 -27.5t47.5 -40.5t37.5 -48v328h34v-676q0 -22 18 -22v-32q-3 -1 -9 -1q-17 0 -29 13.5t-12 29.5v64q-16 -26 -38.5 -47.5t-48.5 -36.5
t-55 -23.5t-58 -8.5zM299 22q29 0 62 12t61.5 32.5t48 48t22.5 57.5v179q-11 30 -33 56.5t-49.5 46t-59 31t-61.5 11.5q-48 0 -87 -20.5t-66.5 -54t-42.5 -76t-15 -87.5q0 -47 17 -89.5t47 -75t70 -52t86 -19.5z" />
    <glyph glyph-name="dcroat" unicode="&#x111;" horiz-adv-x="610" 
d="M295 -10q-54 0 -100 23t-79.5 60.5t-52 85.5t-18.5 99q0 54 18 103t50 86t76 59t96 22q35 0 66 -10t57 -27.5t47.5 -40.5t37.5 -48v226h-122v28h122v74h34v-74h74v-28h-74v-574q0 -22 18 -22v-32q-3 -1 -9 -1q-17 0 -29 13.5t-12 29.5v64q-16 -26 -38.5 -47.5
t-48.5 -36.5t-55 -23.5t-58 -8.5zM299 22q29 0 62 12t61.5 32.5t48 48t22.5 57.5v179q-11 30 -33 56.5t-49.5 46t-59 31t-61.5 11.5q-48 0 -87 -20.5t-66.5 -54t-42.5 -76t-15 -87.5q0 -47 17 -89.5t47 -75t70 -52t86 -19.5z" />
    <glyph glyph-name="degree" unicode="&#xb0;" horiz-adv-x="256" 
d="M55 651q0 31 21.5 52t51.5 21q31 0 52 -21t21 -52t-21 -52t-52 -21q-30 0 -51.5 21t-21.5 52zM94 685q-14 -14 -14 -34q0 -21 14 -33q15 -15 34 -15t34 15q14 14 14 33q0 10 -4 18.5t-10 15.5q-13 13 -34 13t-34 -13z" />
    <glyph glyph-name="divide" unicode="&#xf7;" horiz-adv-x="549" 
d="M259 389v72h31v-72h-31zM259 87v71h31v-71h-31zM73 259v31h403v-31h-403z" />
    <glyph glyph-name="dollar" unicode="$" horiz-adv-x="608" 
d="M508 605q-38 42 -84 59.5t-108 18.5v-313q58 -12 104.5 -26t79.5 -35.5t50.5 -53t17.5 -78.5q0 -45 -18 -78.5t-50.5 -56.5t-79 -35t-103.5 -12v-91h-25v92q-77 3 -139 29.5t-115 77.5l20 25q46 -48 103.5 -73.5t131.5 -29.5v317q-56 11 -99 24t-72.5 33t-44.5 49t-15 72
q0 90 62.5 139.5t167.5 54.5v101h25v-100q66 -1 117 -21t93 -63zM532 173q0 37 -13 62.5t-40 44.5t-67.5 32t-95.5 25v-312q99 0 157.5 37t58.5 111zM97 525q0 -35 11.5 -58.5t35.5 -40.5t61 -28.5t88 -22.5v307q-104 -4 -150 -46t-46 -111z" />
    <glyph glyph-name="dotlessi" unicode="&#x131;" horiz-adv-x="194" 
d="M80 0v520h34v-520h-34z" />
    <glyph glyph-name="dotlessj" unicode="&#x237;" horiz-adv-x="194" 
d="M-25 -173q-30 0 -57 7.5t-47 27.5l21 22q17 -15 38.5 -20t41.5 -5t39.5 8.5t34.5 23t24.5 34t9.5 42.5v553h34v-552q0 -31 -12.5 -57t-32 -44.5t-44.5 -29t-50 -10.5z" />
    <glyph glyph-name="e" unicode="e" horiz-adv-x="581" 
d="M298 -10q-53 0 -99 21.5t-80.5 59t-54 87t-19.5 105.5q0 55 19 103t53 84t79 57t98 21t99 -21t80 -57.5t54 -85.5t20 -104q0 -2 -0.5 -8t-0.5 -7h-466q3 -48 22 -89.5t48.5 -71.5t67.5 -47.5t81 -17.5q29 0 56.5 7.5t51.5 21.5t42 33.5t29 42.5l31 -8
q-11 -27 -32.5 -50.5t-49.5 -40t-61 -26t-68 -9.5zM513 274q-3 49 -21 90t-47.5 71t-67.5 46.5t-82 16.5t-82 -17t-67 -47t-46.5 -71t-20.5 -89h434z" />
    <glyph glyph-name="eacute" unicode="&#xe9;" horiz-adv-x="581" 
d="M286 638l-24 13l62 79h45zM298 -10q-53 0 -99 21.5t-80.5 59t-54 87t-19.5 105.5q0 55 19 103t53 84t79 57t98 21t99 -21t80 -57.5t54 -85.5t20 -104q0 -2 -0.5 -8t-0.5 -7h-466q3 -48 22 -89.5t48.5 -71.5t67.5 -47.5t81 -17.5q29 0 56.5 7.5t51.5 21.5t42 33.5t29 42.5
l31 -8q-11 -27 -32.5 -50.5t-49.5 -40t-61 -26t-68 -9.5zM513 274q-3 49 -21 90t-47.5 71t-67.5 46.5t-82 16.5t-82 -17t-67 -47t-46.5 -71t-20.5 -89h434z" />
    <glyph glyph-name="ebreve" unicode="&#x115;" horiz-adv-x="581" 
d="M298 -10q-53 0 -99 21.5t-80.5 59t-54 87t-19.5 105.5q0 55 19 103t53 84t79 57t98 21t99 -21t80 -57.5t54 -85.5t20 -104q0 -2 -0.5 -8t-0.5 -7h-466q3 -48 22 -89.5t48.5 -71.5t67.5 -47.5t81 -17.5q29 0 56.5 7.5t51.5 21.5t42 33.5t29 42.5l31 -8
q-11 -27 -32.5 -50.5t-49.5 -40t-61 -26t-68 -9.5zM513 274q-3 49 -21 90t-47.5 71t-67.5 46.5t-82 16.5t-82 -17t-67 -47t-46.5 -71t-20.5 -89h434zM294 668q20 0 36.5 18t19.5 44h25q0 -17 -6.5 -32.5t-18 -27t-26 -18t-30.5 -6.5q-17 0 -31.5 6.5t-25.5 18t-17.5 27
t-6.5 32.5h26q0 -23 17 -42.5t38 -19.5z" />
    <glyph glyph-name="ecaron" unicode="&#x11b;" horiz-adv-x="581" 
d="M209 730l85 -63l85 63l23 -14l-95 -78h-26l-94 78zM298 -10q-53 0 -99 21.5t-80.5 59t-54 87t-19.5 105.5q0 55 19 103t53 84t79 57t98 21t99 -21t80 -57.5t54 -85.5t20 -104q0 -2 -0.5 -8t-0.5 -7h-466q3 -48 22 -89.5t48.5 -71.5t67.5 -47.5t81 -17.5q29 0 56.5 7.5
t51.5 21.5t42 33.5t29 42.5l31 -8q-11 -27 -32.5 -50.5t-49.5 -40t-61 -26t-68 -9.5zM513 274q-3 49 -21 90t-47.5 71t-67.5 46.5t-82 16.5t-82 -17t-67 -47t-46.5 -71t-20.5 -89h434z" />
    <glyph glyph-name="ecircumflex" unicode="&#xea;" horiz-adv-x="581" 
d="M187 653l94 77h26l95 -77l-23 -15l-85 63l-85 -63zM298 -10q-53 0 -99 21.5t-80.5 59t-54 87t-19.5 105.5q0 55 19 103t53 84t79 57t98 21t99 -21t80 -57.5t54 -85.5t20 -104q0 -2 -0.5 -8t-0.5 -7h-466q3 -48 22 -89.5t48.5 -71.5t67.5 -47.5t81 -17.5q29 0 56.5 7.5
t51.5 21.5t42 33.5t29 42.5l31 -8q-11 -27 -32.5 -50.5t-49.5 -40t-61 -26t-68 -9.5zM513 274q-3 49 -21 90t-47.5 71t-67.5 46.5t-82 16.5t-82 -17t-67 -47t-46.5 -71t-20.5 -89h434z" />
    <glyph glyph-name="edieresis" unicode="&#xeb;" horiz-adv-x="581" 
d="M216 647v82h31v-82h-31zM342 647v82h31v-82h-31zM298 -10q-53 0 -99 21.5t-80.5 59t-54 87t-19.5 105.5q0 55 19 103t53 84t79 57t98 21t99 -21t80 -57.5t54 -85.5t20 -104q0 -2 -0.5 -8t-0.5 -7h-466q3 -48 22 -89.5t48.5 -71.5t67.5 -47.5t81 -17.5q29 0 56.5 7.5
t51.5 21.5t42 33.5t29 42.5l31 -8q-11 -27 -32.5 -50.5t-49.5 -40t-61 -26t-68 -9.5zM513 274q-3 49 -21 90t-47.5 71t-67.5 46.5t-82 16.5t-82 -17t-67 -47t-46.5 -71t-20.5 -89h434z" />
    <glyph glyph-name="edotaccent" unicode="&#x117;" horiz-adv-x="581" 
d="M298 -10q-53 0 -99 21.5t-80.5 59t-54 87t-19.5 105.5q0 55 19 103t53 84t79 57t98 21t99 -21t80 -57.5t54 -85.5t20 -104q0 -2 -0.5 -8t-0.5 -7h-466q3 -48 22 -89.5t48.5 -71.5t67.5 -47.5t81 -17.5q29 0 56.5 7.5t51.5 21.5t42 33.5t29 42.5l31 -8
q-11 -27 -32.5 -50.5t-49.5 -40t-61 -26t-68 -9.5zM513 274q-3 49 -21 90t-47.5 71t-67.5 46.5t-82 16.5t-82 -17t-67 -47t-46.5 -71t-20.5 -89h434zM278 647v83h32v-83h-32z" />
    <glyph glyph-name="egrave" unicode="&#xe8;" horiz-adv-x="581" 
d="M298 -10q-53 0 -99 21.5t-80.5 59t-54 87t-19.5 105.5q0 55 19 103t53 84t79 57t98 21t99 -21t80 -57.5t54 -85.5t20 -104q0 -2 -0.5 -8t-0.5 -7h-466q3 -48 22 -89.5t48.5 -71.5t67.5 -47.5t81 -17.5q29 0 56.5 7.5t51.5 21.5t42 33.5t29 42.5l31 -8
q-11 -27 -32.5 -50.5t-49.5 -40t-61 -26t-68 -9.5zM513 274q-3 49 -21 90t-47.5 71t-67.5 46.5t-82 16.5t-82 -17t-67 -47t-46.5 -71t-20.5 -89h434zM219 730h44l63 -79l-24 -13z" />
    <glyph glyph-name="eight" unicode="8" horiz-adv-x="592" 
d="M535 191q0 -45 -19.5 -82t-53 -62.5t-77.5 -39.5t-93 -14q-54 0 -97.5 16.5t-74.5 44t-48 63.5t-17 76q0 36 13.5 67t36 55t51 40.5t57.5 25.5q-27 10 -51 24.5t-42 34.5t-28.5 44.5t-10.5 53.5q0 42 19 74t49.5 53.5t69 33t77.5 11.5t77.5 -11.5t68.5 -33t49 -53.5
t19 -74q0 -29 -11 -53.5t-29 -44t-42 -34.5t-51 -25q33 -10 62 -28t50.5 -42.5t33.5 -54.5t12 -65zM501 194q0 41 -19 73t-49 53.5t-66.5 33t-72.5 11.5q-37 0 -73.5 -12.5t-65.5 -35t-47 -54.5t-18 -71q0 -40 19 -71.5t49 -53t66.5 -33t72.5 -11.5q37 0 73.5 12t65.5 34
t47 54t18 71zM115 535q0 -34 16.5 -60t42.5 -44t58 -27t63 -9t63 9.5t58.5 27.5t43 44.5t16.5 60.5t-15.5 60t-41 44t-58.5 27.5t-67 9.5q-35 0 -67 -9.5t-57 -28t-40 -45t-15 -60.5z" />
    <glyph glyph-name="eight.lnum" horiz-adv-x="592" 
d="M535 191q0 -45 -19.5 -82t-53 -62.5t-77.5 -39.5t-93 -14q-54 0 -97.5 16.5t-74.5 44t-48 63.5t-17 76q0 36 13.5 67t36 55t51 40.5t57.5 25.5q-27 10 -51 24.5t-42 34.5t-28.5 44.5t-10.5 53.5q0 42 19 74t49.5 53.5t69 33t77.5 11.5t77.5 -11.5t68.5 -33t49 -53.5
t19 -74q0 -29 -11 -53.5t-29 -44t-42 -34.5t-51 -25q33 -10 62 -28t50.5 -42.5t33.5 -54.5t12 -65zM501 194q0 41 -19 73t-49 53.5t-66.5 33t-72.5 11.5q-37 0 -73.5 -12.5t-65.5 -35t-47 -54.5t-18 -71q0 -40 19 -71.5t49 -53t66.5 -33t72.5 -11.5q37 0 73.5 12t65.5 34
t47 54t18 71zM115 535q0 -34 16.5 -60t42.5 -44t58 -27t63 -9t63 9.5t58.5 27.5t43 44.5t16.5 60.5t-15.5 60t-41 44t-58.5 27.5t-67 9.5q-35 0 -67 -9.5t-57 -28t-40 -45t-15 -60.5z" />
    <glyph glyph-name="eightinferior" unicode="&#x2088;" horiz-adv-x="387" 
d="M345 105q0 -25 -12.5 -45t-33.5 -34.5t-49 -22t-59 -7.5q-34 0 -61.5 9t-47 24.5t-30.5 35.5t-11 42q0 19 8.5 35.5t22 29.5t30.5 22t35 14q-32 11 -56 32t-24 52q0 23 12 41t31.5 30t43.5 18.5t49 6.5t49.5 -6.5t43.5 -18.5t31 -30t12 -41q0 -31 -24 -52t-57 -32
q42 -11 69.5 -38t27.5 -65zM318 108q0 21 -11.5 37.5t-29.5 27.5t-40.5 17t-44.5 6q-23 0 -45 -6.5t-39.5 -18t-28.5 -28t-11 -36.5t11.5 -36t29.5 -27t40.5 -17t43.5 -6q23 0 45.5 6t40 17.5t28.5 27.5t11 36zM84 290q0 -17 10 -30t25.5 -22t35 -14t37.5 -5q19 0 38.5 5
t35.5 14t26 22.5t10 30.5t-9.5 30.5t-24.5 22.5t-35 14t-41 5t-40.5 -5t-34.5 -14.5t-24 -23t-9 -30.5z" />
    <glyph glyph-name="eightsuperior" unicode="&#x2078;" horiz-adv-x="387" 
d="M345 448q0 -25 -12.5 -45t-33.5 -34.5t-49 -22.5t-59 -8q-34 0 -61.5 9t-47 24.5t-30.5 35.5t-11 43q0 19 8.5 35.5t22 29t30.5 22t35 14.5q-32 11 -56 31.5t-24 51.5q0 23 12 41t31.5 30t43.5 18.5t49 6.5t49.5 -6.5t43.5 -18.5t31 -29.5t12 -40.5q0 -31 -24 -52.5
t-57 -31.5q42 -12 69.5 -38.5t27.5 -64.5zM318 451q0 21 -11.5 37t-29.5 27t-40.5 17t-44.5 6q-23 0 -45 -6.5t-39.5 -18t-28.5 -27.5t-11 -36q0 -21 11.5 -37t29.5 -27t40.5 -16.5t43.5 -5.5q23 0 45.5 6t40 17t28.5 27.5t11 36.5zM84 633q0 -17 10 -30.5t25.5 -22.5
t35 -14t37.5 -5q19 0 38.5 5t35.5 14.5t26 23t10 30.5q0 16 -9.5 29.5t-24.5 22.5t-35 14t-41 5t-40.5 -5t-34.5 -14.5t-24 -23t-9 -29.5z" />
    <glyph glyph-name="ellipsis" unicode="&#x2026;" horiz-adv-x="384" 
d="M70 0v74h31v-74h-31zM177 0v74h31v-74h-31zM283 0v74h31v-74h-31z" />
    <glyph glyph-name="emacron" unicode="&#x113;" horiz-adv-x="581" 
d="M298 -10q-53 0 -99 21.5t-80.5 59t-54 87t-19.5 105.5q0 55 19 103t53 84t79 57t98 21t99 -21t80 -57.5t54 -85.5t20 -104q0 -2 -0.5 -8t-0.5 -7h-466q3 -48 22 -89.5t48.5 -71.5t67.5 -47.5t81 -17.5q29 0 56.5 7.5t51.5 21.5t42 33.5t29 42.5l31 -8
q-11 -27 -32.5 -50.5t-49.5 -40t-61 -26t-68 -9.5zM513 274q-3 49 -21 90t-47.5 71t-67.5 46.5t-82 16.5t-82 -17t-67 -47t-46.5 -71t-20.5 -89h434zM153 679v28h283v-28h-283z" />
    <glyph glyph-name="emdash" unicode="&#x2014;" horiz-adv-x="888" 
d="M70 255v33h748v-33h-748z" />
    <glyph glyph-name="endash" unicode="&#x2013;" horiz-adv-x="554" 
d="M70 255v33h414v-33h-414z" />
    <glyph glyph-name="eng" unicode="&#x14b;" horiz-adv-x="568" 
d="M354 -173q-30 0 -56.5 7.5t-47.5 27.5l21 22q17 -15 38.5 -20t42.5 -5q19 0 38.5 8.5t34.5 23t24.5 34t9.5 42.5v323q0 107 -30 156.5t-96 49.5q-36 0 -70.5 -13t-64 -36t-52 -54t-32.5 -68v-325h-34v520h32v-130q16 31 40.5 56.5t54.5 43.5t63.5 28t68.5 10
q82 0 118 -58.5t36 -175.5v-326q0 -31 -12.5 -57t-32 -44.5t-44.5 -29t-50 -10.5z" />
    <glyph glyph-name="eogonek" unicode="&#x119;" horiz-adv-x="583" 
d="M276 -172q-29 7 -44 24t-15 41t16.5 47t52.5 50q-51 3 -94.5 25.5t-76 59.5t-51 85.5t-18.5 102.5q0 55 19 103t53 84t79 57t98 21t99 -21t80 -57.5t54 -85.5t20 -104q0 -2 -0.5 -8t-0.5 -7h-466q3 -48 22 -89.5t48.5 -71.5t67.5 -47.5t81 -17.5q29 0 56.5 7.5t51.5 21.5
t42 33.5t29 42.5l31 -8q-11 -25 -29.5 -46.5t-43 -37.5t-53.5 -26.5t-60 -13.5q-45 -30 -63 -51t-18 -43q0 -38 47 -47zM514 274q-3 49 -21 90t-47.5 71t-67.5 46.5t-82 16.5t-82 -17t-67 -47t-46.5 -71t-20.5 -89h434z" />
    <glyph glyph-name="equal" unicode="=" horiz-adv-x="444" 
d="M74 220v29h296v-29h-296zM74 303v29h296v-29h-296z" />
    <glyph glyph-name="eth" unicode="&#xf0;" horiz-adv-x="597" 
d="M479 694l-90 -58q50 -45 81 -92t48.5 -95t23.5 -96.5t6 -97.5q0 -56 -20 -104t-54.5 -84t-80 -56.5t-97.5 -20.5t-97.5 19t-79 52t-53 77t-19.5 94q0 49 19.5 93.5t53 77.5t78.5 52.5t95 19.5q37 0 71.5 -10t63 -28.5t50.5 -43.5t35 -55q-4 34 -13 69.5t-26 71
t-43.5 71.5t-66.5 72l-121 -78l-13 19l116 74q-28 23 -61 46.5t-73 46.5h48q32 -20 59.5 -39t51.5 -39l94 61zM81 231q0 -43 17 -81t46 -66.5t68.5 -45t83.5 -16.5q45 0 84.5 18t69 48.5t46.5 71t17 85.5q0 41 -17 77t-46.5 63t-69 43t-83.5 16t-83 -17t-68.5 -46t-47 -68
t-17.5 -82z" />
    <glyph glyph-name="etilde" unicode="&#x1ebd;" horiz-adv-x="581" 
d="M298 -10q-53 0 -99 21.5t-80.5 59t-54 87t-19.5 105.5q0 55 19 103t53 84t79 57t98 21t99 -21t80 -57.5t54 -85.5t20 -104q0 -2 -0.5 -8t-0.5 -7h-466q3 -48 22 -89.5t48.5 -71.5t67.5 -47.5t81 -17.5q29 0 56.5 7.5t51.5 21.5t42 33.5t29 42.5l31 -8
q-11 -27 -32.5 -50.5t-49.5 -40t-61 -26t-68 -9.5zM513 274q-3 49 -21 90t-47.5 71t-67.5 46.5t-82 16.5t-82 -17t-67 -47t-46.5 -71t-20.5 -89h434zM355 656q-22 0 -38.5 6t-31 13t-27.5 13t-29 6t-26 -6.5t-15 -15t-7 -16.5t-2 -10h-27q0 3 2.5 15.5t11 25.5t24 23.5
t41.5 10.5q20 0 35 -6t28.5 -13.5t28 -13.5t33.5 -6q21 0 32.5 7t17.5 15.5t7.5 16t1.5 9.5h26q0 -4 -3 -16t-12 -25t-26 -23t-45 -10z" />
    <glyph glyph-name="exclam" unicode="!" horiz-adv-x="220" 
d="M93 208v509h34v-509h-34zM93 0v92h34v-92h-34z" />
    <glyph glyph-name="exclamdown" unicode="&#xa1;" horiz-adv-x="221" 
d="M128 508v-509h-34v509h34zM128 716v-92h-34v92h34z" />
    <glyph glyph-name="f" unicode="f" horiz-adv-x="327" 
d="M105 0v429h-74v30h74v80q0 95 38 148t104 53q29 0 56 -9.5t43 -24.5l-17 -22q-13 11 -33.5 18t-43.5 7q-55 0 -84 -43.5t-29 -126.5v-80h152v-30h-152v-429h-34z" />
    <glyph glyph-name="five" unicode="5" horiz-adv-x="549" 
d="M276 308q48 0 89.5 -16.5t73 -46.5t49.5 -71.5t18 -90.5q0 -52 -19 -95t-52 -73.5t-76 -47t-91 -16.5q-38 0 -72 10.5t-63.5 29t-52 45t-37.5 58.5l29 10q27 -54 79.5 -87.5t116.5 -33.5q42 0 79.5 14.5t65 41t43.5 63.5t16 81q0 42 -15.5 77.5t-42.5 61t-63 40t-77 14.5
q-54 0 -102.5 -24t-79.5 -69h-35q1 8 5.5 29t10.5 49.5t12.5 62.5t13.5 69q16 80 36 178h339v-33h-312l-61 -304q33 35 78.5 54.5t96.5 19.5z" />
    <glyph glyph-name="five.lnum" horiz-adv-x="560" 
d="M282 447q48 0 89.5 -16.5t73 -46.5t49.5 -71.5t18 -90.5q0 -52 -19 -95t-52 -73.5t-76 -47t-91 -16.5q-75 0 -135 39.5t-90 103.5l29 10q27 -54 79.5 -87.5t116.5 -33.5q43 0 80 14.5t64.5 41t43.5 63.5t16 81q0 42 -15.5 77.5t-42.5 61t-63 40t-77 14.5q-54 0 -102 -24
t-80 -69h-35q1 8 5.5 29t10.5 49.5t12.5 62.5t13.5 69q16 80 36 178h339v-33h-312l-60 -304q33 36 78 55t96 19z" />
    <glyph glyph-name="fiveeighths" unicode="&#x215d;" horiz-adv-x="821" 
d="M779 105q0 -25 -12.5 -45t-33.5 -34.5t-49 -22t-59 -7.5q-34 0 -61.5 9t-47 24.5t-30.5 35.5t-11 42q0 19 8.5 35.5t22 29.5t30.5 22t35 14q-32 11 -56 32t-24 52q0 23 12 41t31.5 30t43.5 18.5t49 6.5t49.5 -6.5t43.5 -18.5t31 -30t12 -41q0 -31 -24 -52t-57 -32
q42 -11 69.5 -38t27.5 -65zM752 108q0 21 -11.5 37.5t-29.5 27.5t-40.5 17t-44.5 6q-23 0 -45 -6.5t-39.5 -18t-28.5 -28t-11 -36.5t11.5 -36t29.5 -27t40.5 -17t43.5 -6q23 0 45.5 6t40 17.5t28.5 27.5t11 36zM518 290q0 -17 10 -30t25.5 -22t35 -14t37.5 -5q19 0 38.5 5
t35.5 14t26 22.5t10 30.5t-9.5 30.5t-24.5 22.5t-35 14t-41 5t-40.5 -5t-34.5 -14.5t-24 -23t-9 -30.5zM190 587q31 0 57.5 -9t46 -25t31 -38.5t11.5 -49.5q0 -29 -12 -52.5t-33 -40.5t-48.5 -26t-58.5 -9q-48 0 -85.5 21t-55.5 56l20 11q18 -29 50 -46t73 -17
q26 0 48.5 7.5t39 21t26 32.5t9.5 41q0 24 -10.5 42.5t-28 31t-39.5 19t-45 6.5q-32 0 -61.5 -13t-46.5 -35h-27q3 14 11 47t16.5 68.5t15 64.5t7.5 35h214v-26h-193l-36 -153q20 18 47 27t57 9zM112 16l279 347l277 349l22 -17l-280 -349l-276 -348z" />
    <glyph glyph-name="fivesuperior" unicode="&#x2075;" horiz-adv-x="367" 
d="M184 587q31 0 57.5 -9t46 -25t31 -38.5t11.5 -49.5q0 -29 -12 -52.5t-33 -40.5t-48.5 -26t-58.5 -9q-48 0 -85.5 21t-55.5 56l20 11q18 -29 50 -46t73 -17q26 0 48.5 7.5t39 21t26 32.5t9.5 41q0 24 -10.5 42.5t-28 31t-39.5 19t-45 6.5q-32 0 -61.5 -13t-46.5 -35h-27
q3 14 11 47t16.5 68.5t15 64.5t7.5 35h214v-26h-193l-36 -153q20 18 47 27t57 9z" />
    <glyph glyph-name="fraction" unicode="&#x2044;" horiz-adv-x="130" 
d="M-224 16l279 347l277 349l22 -17l-280 -349l-276 -348z" />
    <glyph glyph-name="fiveinferior" unicode="&#x2085;" horiz-adv-x="366" 
d="M183 245q31 0 57.5 -9t46 -25t31 -39t11.5 -50q0 -29 -12 -52t-33 -40t-48.5 -26t-58.5 -9q-48 0 -85.5 21t-55.5 55l20 12q18 -29 50 -46t73 -17q26 0 48.5 7.5t39 21t26 32.5t9.5 41q0 24 -10.5 42.5t-28 31t-39.5 19t-45 6.5q-32 0 -61.5 -13t-46.5 -36h-27
q2 9 6.5 27.5t9.5 41.5t11 47.5t11 45t8 35.5t4 19h214v-27h-193l-36 -152q20 18 47 27t57 9z" />
    <glyph glyph-name="florin" unicode="&#x192;" horiz-adv-x="515" 
d="M136 -173q-31 0 -57.5 7.5t-46.5 27.5l21 22q17 -15 38.5 -20t41.5 -5q19 0 38.5 8.5t35 23t25 34t9.5 42.5v462h-74v30h74v80q0 95 37.5 148t103.5 53q29 0 56.5 -9.5t43.5 -24.5l-18 -22q-12 11 -33 18t-44 7q-55 0 -83.5 -43.5t-28.5 -126.5v-80h151v-30h-151v-462
q0 -31 -12.5 -56.5t-32.5 -44t-44.5 -29t-49.5 -10.5z" />
    <glyph glyph-name="four" unicode="4" horiz-adv-x="531" 
d="M377 -127v193h-356v29l366 476h24v-473h88v-32h-88v-193h-34zM62 98h317v416z" />
    <glyph glyph-name="four.lnum" horiz-adv-x="558" 
d="M400 0v205h-375v30l385 475h23v-473h88v-32h-88v-205h-33zM66 237h335v416z" />
    <glyph glyph-name="fourinferior" unicode="&#x2084;" horiz-adv-x="371" 
d="M257 0v108h-232v24l240 256h19v-254h56v-26h-56v-108h-27zM59 134h198v211z" />
    <glyph glyph-name="foursuperior" unicode="&#x2074;" horiz-adv-x="371" 
d="M257 342v108h-232v25l240 255h19v-254h56v-26h-56v-108h-27zM59 476h198v211z" />
    <glyph glyph-name="g" unicode="g" horiz-adv-x="607" 
d="M293 -9q-54 0 -99.5 23t-78.5 60.5t-51.5 85.5t-18.5 98q0 53 17.5 101.5t49.5 86t76.5 60t97.5 22.5q35 0 65 -10t56 -27t48 -40t40 -49v118h32v-536q0 -53 -19.5 -91.5t-52.5 -64.5t-76 -38.5t-89 -12.5t-81.5 9t-62.5 25t-47.5 38.5t-35.5 49.5l25 14q32 -56 86 -81
t116 -25q41 0 78 11t64.5 33.5t44 55.5t16.5 77v122q-16 -26 -38.5 -47t-48.5 -36t-55 -23.5t-58 -8.5zM299 22q35 0 68.5 13.5t60.5 35t44.5 48t20.5 53.5v179q-12 31 -33.5 58t-48.5 46t-58 30t-63 11q-50 0 -89 -21t-66 -55t-41.5 -76.5t-14.5 -85.5q0 -47 17 -89.5
t47 -75t70 -52t86 -19.5z" />
    <glyph glyph-name="gbreve" unicode="&#x11f;" horiz-adv-x="607" 
d="M293 -9q-54 0 -99.5 23t-78.5 60.5t-51.5 85.5t-18.5 98q0 53 17.5 101.5t49.5 86t76.5 60t97.5 22.5q35 0 65 -10t56 -27t48 -40t40 -49v118h32v-536q0 -53 -19.5 -91.5t-52.5 -64.5t-76 -38.5t-89 -12.5t-81.5 9t-62.5 25t-47.5 38.5t-35.5 49.5l25 14q32 -56 86 -81
t116 -25q41 0 78 11t64.5 33.5t44 55.5t16.5 77v122q-16 -26 -38.5 -47t-48.5 -36t-55 -23.5t-58 -8.5zM299 22q35 0 68.5 13.5t60.5 35t44.5 48t20.5 53.5v179q-12 31 -33.5 58t-48.5 46t-58 30t-63 11q-50 0 -89 -21t-66 -55t-41.5 -76.5t-14.5 -85.5q0 -47 17 -89.5
t47 -75t70 -52t86 -19.5zM318 668q20 0 36.5 18t19.5 44h25q0 -17 -6.5 -32.5t-18 -27t-26 -18t-30.5 -6.5q-17 0 -31.5 6.5t-25.5 18t-17.5 27t-6.5 32.5h26q0 -23 17 -42.5t38 -19.5z" />
    <glyph glyph-name="gcircumflex" unicode="&#x11d;" horiz-adv-x="607" 
d="M211 653l94 77h26l95 -77l-23 -15l-85 63l-85 -63zM293 -9q-54 0 -99.5 23t-78.5 60.5t-51.5 85.5t-18.5 98q0 53 17.5 101.5t49.5 86t76.5 60t97.5 22.5q35 0 65 -10t56 -27t48 -40t40 -49v118h32v-536q0 -53 -19.5 -91.5t-52.5 -64.5t-76 -38.5t-89 -12.5t-81.5 9
t-62.5 25t-47.5 38.5t-35.5 49.5l25 14q32 -56 86 -81t116 -25q41 0 78 11t64.5 33.5t44 55.5t16.5 77v122q-16 -26 -38.5 -47t-48.5 -36t-55 -23.5t-58 -8.5zM299 22q35 0 68.5 13.5t60.5 35t44.5 48t20.5 53.5v179q-12 31 -33.5 58t-48.5 46t-58 30t-63 11q-50 0 -89 -21
t-66 -55t-41.5 -76.5t-14.5 -85.5q0 -47 17 -89.5t47 -75t70 -52t86 -19.5z" />
    <glyph glyph-name="gcommaaccent" unicode="&#x123;" horiz-adv-x="607" 
d="M310 638l-24 13l62 79h45zM293 -9q-54 0 -99.5 23t-78.5 60.5t-51.5 85.5t-18.5 98q0 53 17.5 101.5t49.5 86t76.5 60t97.5 22.5q35 0 65 -10t56 -27t48 -40t40 -49v118h32v-536q0 -53 -19.5 -91.5t-52.5 -64.5t-76 -38.5t-89 -12.5t-81.5 9t-62.5 25t-47.5 38.5
t-35.5 49.5l25 14q32 -56 86 -81t116 -25q41 0 78 11t64.5 33.5t44 55.5t16.5 77v122q-16 -26 -38.5 -47t-48.5 -36t-55 -23.5t-58 -8.5zM299 22q35 0 68.5 13.5t60.5 35t44.5 48t20.5 53.5v179q-12 31 -33.5 58t-48.5 46t-58 30t-63 11q-50 0 -89 -21t-66 -55t-41.5 -76.5
t-14.5 -85.5q0 -47 17 -89.5t47 -75t70 -52t86 -19.5z" />
    <glyph glyph-name="gdotaccent" unicode="&#x121;" horiz-adv-x="607" 
d="M293 -9q-54 0 -99.5 23t-78.5 60.5t-51.5 85.5t-18.5 98q0 53 17.5 101.5t49.5 86t76.5 60t97.5 22.5q35 0 65 -10t56 -27t48 -40t40 -49v118h32v-536q0 -53 -19.5 -91.5t-52.5 -64.5t-76 -38.5t-89 -12.5t-81.5 9t-62.5 25t-47.5 38.5t-35.5 49.5l25 14q32 -56 86 -81
t116 -25q41 0 78 11t64.5 33.5t44 55.5t16.5 77v122q-16 -26 -38.5 -47t-48.5 -36t-55 -23.5t-58 -8.5zM299 22q35 0 68.5 13.5t60.5 35t44.5 48t20.5 53.5v179q-12 31 -33.5 58t-48.5 46t-58 30t-63 11q-50 0 -89 -21t-66 -55t-41.5 -76.5t-14.5 -85.5q0 -47 17 -89.5
t47 -75t70 -52t86 -19.5zM302 647v83h32v-83h-32z" />
    <glyph glyph-name="germandbls" unicode="&#xdf;" horiz-adv-x="547" 
d="M231 26q113 2 175 47.5t62 131.5q0 40 -14 73.5t-39.5 57.5t-61.5 37t-79 13h-17v32h16q31 0 57.5 10t46 27.5t30.5 41.5t11 53t-12 53.5t-32 42t-48 27t-59 9.5q-36 0 -64.5 -12.5t-48.5 -35.5t-30.5 -55t-10.5 -71v-508h-33v511q0 45 14 82.5t39 64.5t59.5 41.5
t76.5 14.5q39 0 72 -12t57.5 -33t38.5 -50t14 -63q0 -27 -9 -52.5t-25 -46t-37 -34.5t-45 -19q81 -17 124 -69.5t43 -130.5q0 -99 -70.5 -152t-200.5 -58v32z" />
    <glyph glyph-name="greater" unicode="&#x3e;" horiz-adv-x="505" 
d="M470 247l-418 -250v37l369 225l-369 224v37l418 -250v-23z" />
    <glyph glyph-name="guillemotleft" unicode="&#xab;" horiz-adv-x="541" 
d="M48 270l241 172v-33l-211 -150l211 -150v-33l-241 171v23zM233 270l240 172v-33l-210 -150l210 -150v-33l-240 171v23z" />
    <glyph glyph-name="guillemotright" unicode="&#xbb;" horiz-adv-x="541" 
d="M493 247l-241 -171v33l211 150l-211 150v33l241 -172v-23zM308 247l-240 -171v33l210 150l-210 150v33l240 -172v-23z" />
    <glyph glyph-name="guilsinglleft" unicode="&#x2039;" horiz-adv-x="356" 
d="M48 270l241 172v-33l-211 -150l211 -150v-33l-241 171v23z" />
    <glyph glyph-name="guilsinglright" unicode="&#x203a;" horiz-adv-x="356" 
d="M308 247l-240 -171v33l210 150l-210 150v33l240 -172v-23z" />
    <glyph glyph-name="h" unicode="h" horiz-adv-x="567" 
d="M493 0h-34v290q0 206 -137 206q-34 0 -67 -13t-61 -36t-49 -54.5t-31 -67.5v-325h-34v730h34v-340q16 31 39.5 56.5t51 43.5t59 28t64.5 10q85 0 125 -61t40 -173v-294z" />
    <glyph glyph-name="hbar" unicode="&#x127;" horiz-adv-x="567" 
d="M493 0h-34v290q0 206 -137 206q-34 0 -67 -13t-61 -36t-49 -54.5t-31 -67.5v-325h-34v628h-70v28h70v74h34v-74h125v-28h-125v-238q16 31 39.5 56.5t51 43.5t59 28t64.5 10q85 0 125 -61t40 -173v-294z" />
    <glyph glyph-name="hcircumflex" unicode="&#x125;" horiz-adv-x="567" 
d="M205 652l93 77h25l94 -77l-23 -15l-83 63l-84 -63zM493 0h-34v290q0 206 -137 206q-34 0 -67 -13t-61 -36t-49 -54.5t-31 -67.5v-325h-34v730h34v-340q16 31 39.5 56.5t51 43.5t59 28t64.5 10q85 0 125 -61t40 -173v-294z" />
    <glyph glyph-name="hyphen" unicode="-" horiz-adv-x="426" 
d="M70 255v33h286v-33h-286z" />
    <glyph glyph-name="i" unicode="i" horiz-adv-x="194" 
d="M80 0v520h34v-520h-34zM80 646v84h34v-84h-34z" />
    <glyph glyph-name="iacute" unicode="&#xed;" horiz-adv-x="194" 
d="M89 638l-24 13l62 79h45zM80 0v520h34v-520h-34z" />
    <glyph glyph-name="ibreve" unicode="&#x12d;" horiz-adv-x="194" 
d="M80 0v520h34v-520h-34zM97 668q20 0 36.5 18t19.5 44h25q0 -17 -6.5 -32.5t-18 -27t-26 -18t-30.5 -6.5q-17 0 -31.5 6.5t-25.5 18t-17.5 27t-6.5 32.5h26q0 -23 17 -42.5t38 -19.5z" />
    <glyph glyph-name="icircumflex" unicode="&#xee;" horiz-adv-x="194" 
d="M-10 653l94 77h26l95 -77l-23 -15l-85 63l-85 -63zM80 0v520h34v-520h-34z" />
    <glyph glyph-name="idieresis" unicode="&#xef;" horiz-adv-x="194" 
d="M19 647v82h31v-82h-31zM145 647v82h31v-82h-31zM80 0v520h34v-520h-34z" />
    <glyph glyph-name="igrave" unicode="&#xec;" horiz-adv-x="194" 
d="M80 0v520h34v-520h-34zM22 730h44l63 -79l-24 -13z" />
    <glyph glyph-name="ij" unicode="&#x133;" horiz-adv-x="388" 
d="M80 0v520h34v-520h-34zM80 646v84h34v-84h-34zM169 -173q-30 0 -57 7.5t-47 27.5l21 22q17 -15 38.5 -20t41.5 -5t39.5 8.5t34.5 23t24.5 34t9.5 42.5v553h34v-552q0 -31 -12.5 -57t-32 -44.5t-44.5 -29t-50 -10.5zM274 646v84h34v-84h-34z" />
    <glyph glyph-name="j" unicode="j" horiz-adv-x="194" 
d="M-25 -173q-30 0 -57 7.5t-47 27.5l21 22q17 -15 38.5 -20t41.5 -5t39.5 8.5t34.5 23t24.5 34t9.5 42.5v553h34v-552q0 -31 -12.5 -57t-32 -44.5t-44.5 -29t-50 -10.5zM80 646v84h34v-84h-34z" />
    <glyph glyph-name="imacron" unicode="&#x12b;" horiz-adv-x="194" 
d="M80 0v520h34v-520h-34zM-44 679v28h283v-28h-283z" />
    <glyph glyph-name="iogonek" unicode="&#x12f;" horiz-adv-x="195" 
d="M66 -164q-29 7 -44 24t-15 41q0 25 17.5 48t56.5 52v519h34v-520q-45 -30 -63.5 -51t-18.5 -43q0 -38 47 -47zM81 646v84h34v-84h-34z" />
    <glyph glyph-name="itilde" unicode="&#x129;" horiz-adv-x="194" 
d="M80 0v520h34v-520h-34zM158 656q-22 0 -38.5 6t-31 13t-27.5 13t-29 6t-26 -6.5t-15 -15t-7 -16.5t-2 -10h-27q0 3 2.5 15.5t11 25.5t24 23.5t41.5 10.5q20 0 35 -6t28.5 -13.5t28 -13.5t33.5 -6q21 0 32.5 7t17.5 15.5t7.5 16t1.5 9.5h26q0 -4 -3 -16t-12 -25t-26 -23
t-45 -10z" />
    <glyph glyph-name="j.alt" horiz-adv-x="194" 
d="M80 517h34v-730h-34v730zM80 718h34v-72h-34v72z" />
    <glyph glyph-name="jcircumflex" unicode="&#x135;" horiz-adv-x="194" 
d="M-25 -173q-30 0 -57 7.5t-47 27.5l21 22q17 -15 38.5 -20t41.5 -5t39.5 8.5t34.5 23t24.5 34t9.5 42.5v553h34v-552q0 -31 -12.5 -57t-32 -44.5t-44.5 -29t-50 -10.5zM-10 653l94 77h26l95 -77l-23 -15l-85 63l-85 -63z" />
    <glyph glyph-name="k" unicode="k" horiz-adv-x="512" 
d="M459 0l-212 288l-133 -121v-167h-34v730h34v-523l336 311h42l-222 -208l228 -310h-39z" />
    <glyph glyph-name="kcommaaccent" unicode="&#x137;" horiz-adv-x="512" 
d="M236 -128q16 0 16 14v64h31v-62q0 -21 -12.5 -30.5t-34.5 -9.5v24zM459 0l-212 288l-133 -121v-167h-34v730h34v-523l336 311h42l-222 -208l228 -310h-39z" />
    <glyph glyph-name="kgreenlandic" unicode="&#x138;" horiz-adv-x="512" 
d="M459 0l-212 288l-133 -121v-167h-34v520h34v-313l336 311h42l-222 -208l228 -310h-39z" />
    <glyph glyph-name="l" unicode="l" horiz-adv-x="236" 
d="M85 730h33v-641q0 -29 18 -46t47 -17q11 0 26.5 2.5t28.5 7.5l8 -28q-15 -5 -37.5 -9t-38.5 -4q-38 0 -61.5 23.5t-23.5 63.5v648z" />
    <glyph glyph-name="l.alt" horiz-adv-x="209" 
d="M88 730h33v-730h-33v730z" />
    <glyph glyph-name="lacute" unicode="&#x13a;" horiz-adv-x="236" 
d="M84 778l-24 13l62 79h45zM85 730h33v-641q0 -29 18 -46t47 -17q11 0 26.5 2.5t28.5 7.5l8 -28q-15 -5 -37.5 -9t-38.5 -4q-38 0 -61.5 23.5t-23.5 63.5v648z" />
    <glyph glyph-name="lcaron" unicode="&#x13e;" horiz-adv-x="236" 
d="M192 638l-24 13l62 79h45zM85 730h33v-641q0 -29 18 -46t47 -17q11 0 26.5 2.5t28.5 7.5l8 -28q-15 -5 -37.5 -9t-38.5 -4q-38 0 -61.5 23.5t-23.5 63.5v648z" />
    <glyph glyph-name="lcommaaccent" unicode="&#x13c;" horiz-adv-x="236" 
d="M132 -128q16 0 16 14v64h31v-62q0 -21 -12.5 -30.5t-34.5 -9.5v24zM85 730h33v-641q0 -29 18 -46t47 -17q11 0 26.5 2.5t28.5 7.5l8 -28q-15 -5 -37.5 -9t-38.5 -4q-38 0 -61.5 23.5t-23.5 63.5v648z" />
    <glyph glyph-name="ldot" unicode="&#x140;" horiz-adv-x="270" 
d="M85 730h33v-641q0 -29 18 -46t47 -17q11 0 26.5 2.5t28.5 7.5l8 -28q-15 -5 -37.5 -9t-38.5 -4q-38 0 -61.5 23.5t-23.5 63.5v648zM221 254v91h31v-91h-31z" />
    <glyph glyph-name="less" unicode="&#x3c;" horiz-adv-x="505" 
d="M35 270l417 250v-37l-368 -224l368 -225v-37l-417 250v23z" />
    <glyph glyph-name="logicalnot" unicode="&#xac;" horiz-adv-x="576" 
d="M501 346v-210h-32v177h-381v33h413z" />
    <glyph glyph-name="lslash" unicode="&#x142;" horiz-adv-x="253" 
d="M99 366l-71 -66l-17 21l88 82v327h33v-297l92 86l17 -21l-109 -102v-307q0 -29 18 -46t47 -17q11 0 26.5 2.5t28.5 7.5l8 -28q-15 -5 -37.5 -9t-38.5 -4q-38 0 -61.5 23.5t-23.5 63.5v284z" />
    <glyph glyph-name="m" unicode="m" horiz-adv-x="909" 
d="M835 0h-34v290q0 106 -32.5 156t-99.5 50q-35 0 -66 -13t-56.5 -35.5t-44 -54.5t-28.5 -69v-324h-34v290q0 107 -31.5 156.5t-99.5 49.5q-69 0 -121 -47t-74 -124v-325h-34v520h32v-130q34 66 86 102t115 36q66 0 107.5 -40t49.5 -106q75 146 206 146q83 0 121 -59.5
t38 -174.5v-294z" />
    <glyph glyph-name="minus" unicode="&#x2212;" horiz-adv-x="552" 
d="M74 263v30h403v-30h-403z" />
    <glyph glyph-name="mu" unicode="&#xb5;" horiz-adv-x="578" 
d="M86 520h34v-292q0 -206 140 -206q35 0 68.5 12.5t62 34.5t50 53t33.5 68v330h34v-466q0 -22 19 -22v-32q-5 -1 -11 -1q-17 0 -28 13t-11 30v86q-16 -31 -39.5 -56.5t-52 -43.5t-60.5 -28t-66 -10q-54 0 -88.5 25t-51.5 73v-300h-33v732z" />
    <glyph glyph-name="multiply" unicode="&#xd7;" horiz-adv-x="454" 
d="M381 140l-23 -23l-131 131l-131 -131l-23 24l130 130l-130 131l23 23l131 -131l131 132l23 -24l-132 -131z" />
    <glyph glyph-name="n" unicode="n" horiz-adv-x="568" 
d="M493 0h-34v290q0 107 -30 156.5t-96 49.5q-36 0 -70.5 -13t-64 -36t-52 -54t-32.5 -68v-325h-34v520h32v-130q16 31 40.5 56.5t54.5 43.5t63.5 28t68.5 10q82 0 118 -58.5t36 -175.5v-294z" />
    <glyph glyph-name="nacute" unicode="&#x144;" horiz-adv-x="568" 
d="M275 638l-24 13l62 79h45zM493 0h-34v290q0 107 -30 156.5t-96 49.5q-36 0 -70.5 -13t-64 -36t-52 -54t-32.5 -68v-325h-34v520h32v-130q16 31 40.5 56.5t54.5 43.5t63.5 28t68.5 10q82 0 118 -58.5t36 -175.5v-294z" />
    <glyph glyph-name="napostrophe" unicode="&#x149;" horiz-adv-x="568" 
d="M29 638l-24 13l40 51l2 28h66zM493 0h-34v290q0 107 -30 156.5t-96 49.5q-36 0 -70.5 -13t-64 -36t-52 -54t-32.5 -68v-325h-34v520h32v-130q16 31 40.5 56.5t54.5 43.5t63.5 28t68.5 10q82 0 118 -58.5t36 -175.5v-294z" />
    <glyph glyph-name="ncaron" unicode="&#x148;" horiz-adv-x="568" 
d="M198 730l85 -63l85 63l23 -14l-95 -78h-26l-94 78zM493 0h-34v290q0 107 -30 156.5t-96 49.5q-36 0 -70.5 -13t-64 -36t-52 -54t-32.5 -68v-325h-34v520h32v-130q16 31 40.5 56.5t54.5 43.5t63.5 28t68.5 10q82 0 118 -58.5t36 -175.5v-294z" />
    <glyph glyph-name="ncommaaccent" unicode="&#x146;" horiz-adv-x="568" 
d="M250 -128q16 0 16 14v64h31v-62q0 -21 -12.5 -30.5t-34.5 -9.5v24zM493 0h-34v290q0 107 -30 156.5t-96 49.5q-36 0 -70.5 -13t-64 -36t-52 -54t-32.5 -68v-325h-34v520h32v-130q16 31 40.5 56.5t54.5 43.5t63.5 28t68.5 10q82 0 118 -58.5t36 -175.5v-294z" />
    <glyph glyph-name="ndotaccent" unicode="&#x1e45;" horiz-adv-x="568" 
d="M267 647v83h32v-83h-32zM493 0h-34v290q0 107 -30 156.5t-96 49.5q-36 0 -70.5 -13t-64 -36t-52 -54t-32.5 -68v-325h-34v520h32v-130q16 31 40.5 56.5t54.5 43.5t63.5 28t68.5 10q82 0 118 -58.5t36 -175.5v-294z" />
    <glyph glyph-name="nine" unicode="9" horiz-adv-x="589" 
d="M41 328q0 51 19 95t52.5 77t78.5 52t97 19q54 0 100 -19.5t80 -56t53 -88.5t19 -118q0 -114 -19 -197.5t-52.5 -138t-80.5 -81t-103 -26.5q-72 0 -128 38.5t-80 104.5l27 16q19 -57 68.5 -92t111.5 -35q49 0 90 24.5t70 71t45 114t16 154.5q-11 -35 -33 -63.5t-51 -49
t-64.5 -32t-73.5 -11.5q-50 0 -94 19t-77 52t-52 77t-19 94zM287 539q-44 0 -82.5 -16.5t-67.5 -45t-46 -67t-17 -81.5q0 -44 17 -82.5t46.5 -67t68 -45.5t81.5 -17q44 0 83 17t68 45.5t46 67t17 81.5t-17 81.5t-46.5 67t-68.5 45.5t-82 17z" />
    <glyph glyph-name="nine.lnum" horiz-adv-x="605" 
d="M47 472q0 51 19 95t52.5 77t79 52t97.5 19q54 0 99.5 -19.5t79.5 -56t53 -88.5t19 -118q0 -114 -18.5 -197.5t-52.5 -138t-80.5 -81t-103.5 -26.5q-72 0 -128 38.5t-79 104.5l26 16q20 -57 69 -92t112 -35q49 0 90 24.5t70 71t45 114t16 154.5q-12 -35 -34 -63.5t-51 -49
t-64 -32t-73 -11.5q-51 0 -95 19t-77 52t-52 77t-19 94zM293 684q-44 0 -82.5 -17t-67.5 -45.5t-46 -67t-17 -81.5t17 -81.5t46.5 -67.5t68 -46t82.5 -17q43 0 82 17t68 46t46 67t17 81t-17 81.5t-46.5 67.5t-68.5 46t-82 17z" />
    <glyph glyph-name="nineinferior" unicode="&#x2089;" horiz-adv-x="395" 
d="M36 258q0 28 12 52t33 42t49.5 28.5t61.5 10.5q34 0 63.5 -11t51 -31.5t33.5 -50t12 -66.5q0 -122 -45 -179.5t-118 -57.5q-45 0 -80 20t-50 55l19 15q12 -29 43 -47t69 -18q60 0 97.5 48t37.5 136q-14 -35 -52 -56.5t-84 -21.5q-32 0 -60 10.5t-48.5 28.5t-32.5 42
t-12 51zM191 366q-26 0 -49.5 -8.5t-41 -23t-27.5 -34t-10 -41.5t10.5 -42t28 -35t41 -23.5t49.5 -8.5q27 0 50.5 8.5t41 23.5t28 34.5t10.5 41.5t-10.5 41.5t-28.5 34.5t-41.5 23.5t-50.5 8.5z" />
    <glyph glyph-name="ninesuperior" unicode="&#x2079;" horiz-adv-x="395" 
d="M36 597q0 28 12 52t33 42t49.5 28.5t61.5 10.5q34 0 63.5 -11t51 -31.5t33.5 -49.5t12 -66q0 -122 -45 -180t-118 -58q-45 0 -80 20t-50 55l19 15q12 -29 43 -47t69 -18q60 0 97.5 48t37.5 136q-14 -35 -52 -56.5t-84 -21.5q-32 0 -60 10.5t-48.5 28.5t-32.5 42t-12 51z
M191 705q-26 0 -49.5 -8.5t-41 -23t-27.5 -34t-10 -41.5t10.5 -42t28 -35t41 -23.5t49.5 -8.5q27 0 50.5 8.5t41 23.5t28 34.5t10.5 41.5t-10.5 41.5t-28.5 34.5t-41.5 23.5t-50.5 8.5z" />
    <glyph glyph-name="ntilde" unicode="&#xf1;" horiz-adv-x="568" 
d="M493 0h-34v290q0 107 -30 156.5t-96 49.5q-36 0 -70.5 -13t-64 -36t-52 -54t-32.5 -68v-325h-34v520h32v-130q16 31 40.5 56.5t54.5 43.5t63.5 28t68.5 10q82 0 118 -58.5t36 -175.5v-294zM344 656q-22 0 -38.5 6t-31 13t-27.5 13t-29 6t-26 -6.5t-15 -15t-7 -16.5
t-2 -10h-27q0 3 2.5 15.5t11 25.5t24 23.5t41.5 10.5q20 0 35 -6t28.5 -13.5t28 -13.5t33.5 -6q21 0 32.5 7t17.5 15.5t7.5 16t1.5 9.5h26q0 -4 -3 -16t-12 -25t-26 -23t-45 -10z" />
    <glyph glyph-name="numbersign" unicode="#" horiz-adv-x="663" 
d="M624 474h-122l-55 -227h136v-30h-143l-52 -217h-32l53 217h-225l-52 -217h-32l54 217h-113v30h120l55 227h-135v29h142l50 207h32l-51 -207h225l50 207h32l-51 -207h114v-29zM417 247l55 227h-226l-54 -227h225z" />
    <glyph glyph-name="o" unicode="o" horiz-adv-x="590" 
d="M295 -10q-53 0 -98.5 21.5t-79.5 58t-53 85.5t-19 103q0 55 19.5 104t53.5 86t79.5 58.5t97.5 21.5t98 -21.5t80 -58.5t53.5 -86t19.5 -104q0 -54 -19.5 -103t-53.5 -85.5t-80 -58t-98 -21.5zM79 257q0 -48 17 -91t46 -75t68.5 -50.5t83.5 -18.5t83.5 19t69 51t47 75.5
t17.5 91.5t-17.5 91.5t-47 75.5t-68.5 51t-83 19t-83 -19t-68.5 -51.5t-47 -76t-17.5 -92.5z" />
    <glyph glyph-name="oacute" unicode="&#xf3;" horiz-adv-x="590" 
d="M287 638l-24 13l62 79h45zM295 -10q-53 0 -98.5 21.5t-79.5 58t-53 85.5t-19 103q0 55 19.5 104t53.5 86t79.5 58.5t97.5 21.5t98 -21.5t80 -58.5t53.5 -86t19.5 -104q0 -54 -19.5 -103t-53.5 -85.5t-80 -58t-98 -21.5zM79 257q0 -48 17 -91t46 -75t68.5 -50.5
t83.5 -18.5t83.5 19t69 51t47 75.5t17.5 91.5t-17.5 91.5t-47 75.5t-68.5 51t-83 19t-83 -19t-68.5 -51.5t-47 -76t-17.5 -92.5z" />
    <glyph glyph-name="obreve" unicode="&#x14f;" horiz-adv-x="590" 
d="M295 -10q-53 0 -98.5 21.5t-79.5 58t-53 85.5t-19 103q0 55 19.5 104t53.5 86t79.5 58.5t97.5 21.5t98 -21.5t80 -58.5t53.5 -86t19.5 -104q0 -54 -19.5 -103t-53.5 -85.5t-80 -58t-98 -21.5zM79 257q0 -48 17 -91t46 -75t68.5 -50.5t83.5 -18.5t83.5 19t69 51t47 75.5
t17.5 91.5t-17.5 91.5t-47 75.5t-68.5 51t-83 19t-83 -19t-68.5 -51.5t-47 -76t-17.5 -92.5zM295 668q20 0 36.5 18t19.5 44h25q0 -17 -6.5 -32.5t-18 -27t-26 -18t-30.5 -6.5q-17 0 -31.5 6.5t-25.5 18t-17.5 27t-6.5 32.5h26q0 -23 17 -42.5t38 -19.5z" />
    <glyph glyph-name="ocircumflex" unicode="&#xf4;" horiz-adv-x="590" 
d="M188 653l94 77h26l95 -77l-23 -15l-85 63l-85 -63zM295 -10q-53 0 -98.5 21.5t-79.5 58t-53 85.5t-19 103q0 55 19.5 104t53.5 86t79.5 58.5t97.5 21.5t98 -21.5t80 -58.5t53.5 -86t19.5 -104q0 -54 -19.5 -103t-53.5 -85.5t-80 -58t-98 -21.5zM79 257q0 -48 17 -91
t46 -75t68.5 -50.5t83.5 -18.5t83.5 19t69 51t47 75.5t17.5 91.5t-17.5 91.5t-47 75.5t-68.5 51t-83 19t-83 -19t-68.5 -51.5t-47 -76t-17.5 -92.5z" />
    <glyph glyph-name="odieresis" unicode="&#xf6;" horiz-adv-x="590" 
d="M216 647v82h31v-82h-31zM342 647v82h31v-82h-31zM295 -10q-53 0 -98.5 21.5t-79.5 58t-53 85.5t-19 103q0 55 19.5 104t53.5 86t79.5 58.5t97.5 21.5t98 -21.5t80 -58.5t53.5 -86t19.5 -104q0 -54 -19.5 -103t-53.5 -85.5t-80 -58t-98 -21.5zM79 257q0 -48 17 -91t46 -75
t68.5 -50.5t83.5 -18.5t83.5 19t69 51t47 75.5t17.5 91.5t-17.5 91.5t-47 75.5t-68.5 51t-83 19t-83 -19t-68.5 -51.5t-47 -76t-17.5 -92.5z" />
    <glyph glyph-name="oe" unicode="&#x153;" horiz-adv-x="1048" 
d="M294 -10q-52 0 -97.5 21t-79 57t-52.5 84.5t-19 104.5t19.5 105.5t53.5 86t79.5 58t98.5 21.5q40 0 77 -13.5t67 -37.5t52 -58.5t34 -76.5q23 87 85.5 136.5t149.5 49.5q51 0 97 -20t80 -56.5t54 -89t20 -117.5h-466q4 -48 23 -89t50 -71.5t71 -48t85 -17.5q30 0 58 7.5
t52 21.5t42 33.5t27 42.5l30 -8q-12 -28 -33.5 -51t-49.5 -39.5t-61 -26t-67 -9.5q-41 0 -79.5 13.5t-70.5 38.5t-57 59t-38 75q-13 -42 -36 -76.5t-54 -59t-68 -37.5t-77 -13zM295 22q45 0 84.5 18.5t69 50.5t46.5 75t17 92t-17 92.5t-46.5 76t-68.5 51t-83 18.5
q-45 0 -84.5 -19t-69 -51.5t-46.5 -76.5t-17 -93t17 -92t46 -74.5t68 -49.5t84 -18zM979 272q-3 49 -21 90.5t-47 71.5t-67.5 47t-82.5 17t-82 -17t-66.5 -47t-46 -71.5t-19.5 -90.5h432z" />
    <glyph glyph-name="ograve" unicode="&#xf2;" horiz-adv-x="590" 
d="M295 -10q-53 0 -98.5 21.5t-79.5 58t-53 85.5t-19 103q0 55 19.5 104t53.5 86t79.5 58.5t97.5 21.5t98 -21.5t80 -58.5t53.5 -86t19.5 -104q0 -54 -19.5 -103t-53.5 -85.5t-80 -58t-98 -21.5zM79 257q0 -48 17 -91t46 -75t68.5 -50.5t83.5 -18.5t83.5 19t69 51t47 75.5
t17.5 91.5t-17.5 91.5t-47 75.5t-68.5 51t-83 19t-83 -19t-68.5 -51.5t-47 -76t-17.5 -92.5zM220 730h44l63 -79l-24 -13z" />
    <glyph glyph-name="ohungarumlaut" unicode="&#x151;" horiz-adv-x="590" 
d="M231 638l-22 13l62 79h43zM339 638l-23 13l62 79h43zM295 -10q-53 0 -98.5 21.5t-79.5 58t-53 85.5t-19 103q0 55 19.5 104t53.5 86t79.5 58.5t97.5 21.5t98 -21.5t80 -58.5t53.5 -86t19.5 -104q0 -54 -19.5 -103t-53.5 -85.5t-80 -58t-98 -21.5zM79 257q0 -48 17 -91
t46 -75t68.5 -50.5t83.5 -18.5t83.5 19t69 51t47 75.5t17.5 91.5t-17.5 91.5t-47 75.5t-68.5 51t-83 19t-83 -19t-68.5 -51.5t-47 -76t-17.5 -92.5z" />
    <glyph glyph-name="omacron" unicode="&#x14d;" horiz-adv-x="590" 
d="M154 679v28h283v-28h-283zM295 -10q-53 0 -98.5 21.5t-79.5 58t-53 85.5t-19 103q0 55 19.5 104t53.5 86t79.5 58.5t97.5 21.5t98 -21.5t80 -58.5t53.5 -86t19.5 -104q0 -54 -19.5 -103t-53.5 -85.5t-80 -58t-98 -21.5zM79 257q0 -48 17 -91t46 -75t68.5 -50.5
t83.5 -18.5t83.5 19t69 51t47 75.5t17.5 91.5t-17.5 91.5t-47 75.5t-68.5 51t-83 19t-83 -19t-68.5 -51.5t-47 -76t-17.5 -92.5z" />
    <glyph glyph-name="one" unicode="1" horiz-adv-x="395" 
d="M373 32v-32h-304v32h142v492q-8 -12 -27.5 -26.5t-43 -27t-48.5 -21.5t-45 -9v36q26 0 54.5 14t52.5 31t40 32.5t17 17.5h35v-539h127z" />
    <glyph glyph-name="one.lnum" horiz-adv-x="377" 
d="M358 32v-32h-294v32h133v642q-8 -12 -26 -26.5t-40 -28t-46 -22.5t-44 -9v33q26 0 53.5 15t50 33t37 33.5t15.5 17.5h34v-688h127z" />
    <glyph glyph-name="oneeighth" unicode="&#x215b;" horiz-adv-x="818" 
d="M777 105q0 -25 -12.5 -45t-33.5 -34.5t-49 -22t-59 -7.5q-34 0 -61.5 9t-47 24.5t-30.5 35.5t-11 42q0 19 8.5 35.5t22 29.5t30.5 22t35 14q-32 11 -56 32t-24 52q0 23 12 41t31.5 30t43.5 18.5t49 6.5t49.5 -6.5t43.5 -18.5t31 -30t12 -41q0 -31 -24 -52t-57 -32
q42 -11 69.5 -38t27.5 -65zM750 108q0 21 -11.5 37.5t-29.5 27.5t-40.5 17t-44.5 6q-23 0 -45 -6.5t-39.5 -18t-28.5 -28t-11 -36.5t11.5 -36t29.5 -27t40.5 -17t43.5 -6q23 0 45.5 6t40 17.5t28.5 27.5t11 36zM516 290q0 -17 10 -30t25.5 -22t35 -14t37.5 -5q19 0 38.5 5
t35.5 14t26 22.5t10 30.5t-9.5 30.5t-24.5 22.5t-35 14t-41 5t-40.5 -5t-34.5 -14.5t-24 -23t-9 -30.5zM251 364v-27h-187v27h82v334q-5 -6 -16.5 -14.5t-25 -16t-28 -12.5t-26.5 -5v27q16 0 32.5 8t30.5 18t23 18.5t10 9.5h28v-367h77zM99 16l279 347l277 349l22 -17
l-280 -349l-276 -348z" />
    <glyph glyph-name="onesuperior" unicode="&#xb9;" horiz-adv-x="259" 
d="M236 364v-27h-187v27h82v334q-5 -6 -16.5 -14.5t-25 -16t-28 -12.5t-26.5 -5v27q16 0 32.5 8t30.5 18t23 18.5t10 9.5h28v-367h77z" />
    <glyph glyph-name="onehalf" unicode="&#xbd;" horiz-adv-x="824" 
d="M486 0q0 75 31.5 114.5t91.5 61.5q22 8 46.5 16.5t44.5 20t33.5 28t13.5 41.5q0 33 -27 59t-82 26q-27 0 -48 -6t-36.5 -15t-26.5 -19.5t-17 -18.5l-19 18q2 3 12 13.5t28.5 22.5t46 21.5t63.5 9.5q68 0 101.5 -33.5t33.5 -78.5q0 -30 -14.5 -50t-36.5 -33.5t-46.5 -22
t-45.5 -15.5q-38 -13 -59.5 -30t-33 -35.5t-14.5 -36t-3 -32.5h254v-26h-291zM253 364v-27h-187v27h82v334q-5 -6 -16.5 -14.5t-25 -16t-28 -12.5t-26.5 -5v27q16 0 32.5 8t30.5 18t23 18.5t10 9.5h28v-367h77zM82 16l279 347l277 349l22 -17l-280 -349l-276 -348z" />
    <glyph glyph-name="twoinferior" unicode="&#x2082;" horiz-adv-x="376" 
d="M39 0q0 75 32 114.5t92 61.5q22 8 47 16.5t45 20t33.5 28t13.5 41.5q0 33 -27 59t-83 26q-27 0 -48 -6t-36.5 -15t-26.5 -19.5t-18 -18.5l-19 18q2 3 12 13.5t29 22.5t46.5 21.5t63.5 9.5q69 0 102.5 -33.5t33.5 -78.5q0 -30 -14.5 -50t-36.5 -33.5t-47 -22t-46 -15.5
q-38 -13 -59.5 -30t-33 -35.5t-14.5 -36t-3 -32.5h255v-26h-293z" />
    <glyph glyph-name="oneinferior" unicode="&#x2081;" horiz-adv-x="262" 
d="M240 26v-26h-191v26h84v334q-5 -6 -16.5 -14.5t-25.5 -15.5t-29 -12t-27 -5v26q16 0 33 8t31.5 18t24 19t9.5 10h28v-368h79z" />
    <glyph glyph-name="onequarter" unicode="&#xbc;" horiz-adv-x="778" 
d="M655 0v108h-232v24l240 256h19v-254h56v-26h-56v-108h-27zM457 134h198v211zM249 364v-27h-187v27h82v334q-5 -6 -16.5 -14.5t-25 -16t-28 -12.5t-26.5 -5v27q16 0 32.5 8t30.5 18t23 18.5t10 9.5h28v-367h77zM113 16l279 347l277 349l22 -17l-280 -349l-276 -348z" />
    <glyph glyph-name="onethird" unicode="&#x2153;" horiz-adv-x="819" 
d="M625 -5q-63 0 -104.5 26t-45.5 68l19 13q1 -15 11.5 -30t28 -26t41 -18t50.5 -7q26 0 49 6t39.5 17t26 25.5t9.5 32.5q0 38 -40.5 61t-108.5 23h-22v24h22q65 0 100.5 19t35.5 55q0 38 -33.5 61t-84.5 23q-42 0 -73 -16.5t-45 -42.5l-19 19q16 29 53.5 47t83.5 18
q31 0 58 -8.5t47 -22.5t31 -34t11 -42q0 -68 -90 -88q47 -8 74.5 -34.5t27.5 -64.5q0 -23 -12 -42.5t-32.5 -33t-48.5 -21t-59 -7.5zM252 364v-27h-187v27h82v334q-5 -6 -16.5 -14.5t-25 -16t-28 -12.5t-26.5 -5v27q16 0 32.5 8t30.5 18t23 18.5t10 9.5h28v-367h77zM87 16
l279 347l277 349l22 -17l-280 -349l-276 -348z" />
    <glyph glyph-name="threeinferior" unicode="&#x2083;" horiz-adv-x="383" 
d="M190 -5q-63 0 -104.5 26t-45.5 68l19 13q1 -15 11.5 -30t28 -26t41 -18t50.5 -7q26 0 49 6t39.5 17t26 25.5t9.5 32.5q0 38 -40.5 61t-108.5 23h-22v24h22q65 0 100.5 19t35.5 55q0 38 -33.5 61t-84.5 23q-42 0 -73 -16.5t-45 -42.5l-19 19q16 29 53.5 47t83.5 18
q31 0 58 -8.5t47 -22.5t31 -34t11 -42q0 -68 -90 -88q47 -8 74.5 -34.5t27.5 -64.5q0 -23 -12 -42.5t-32.5 -33t-48.5 -21t-59 -7.5z" />
    <glyph glyph-name="oogonek" unicode="&#x1eb;" horiz-adv-x="592" 
d="M275 -172q-29 7 -44 24t-15 41q0 23 16 46.5t53 50.5q-51 2 -94.5 24.5t-76 59t-50.5 84t-18 100.5q0 55 19.5 104t53.5 86t79.5 58.5t97.5 21.5t98 -21.5t80 -58.5t53.5 -86t19.5 -104q0 -51 -17 -97t-47 -82t-71 -59t-89 -28q-45 -30 -63 -51t-18 -43q0 -38 47 -47z
M80 257q0 -48 17 -91t46 -75t68.5 -50.5t83.5 -18.5t83.5 19t69 51t47 75.5t17.5 91.5t-17.5 91.5t-47 75.5t-68.5 51t-83 19t-83 -19t-68.5 -51.5t-47 -76t-17.5 -92.5z" />
    <glyph glyph-name="ordfeminine" unicode="&#xaa;" horiz-adv-x="429" 
d="M169 350q-25 0 -46.5 8.5t-37.5 22.5t-25 33.5t-9 42.5q0 47 41.5 75.5t107.5 28.5q29 0 58.5 -4.5t52.5 -13.5v33q0 47 -28.5 75t-78.5 28q-53 0 -115 -41l-15 25q70 46 133 46q66 0 104.5 -36t38.5 -101v-163q0 -17 15 -18v-35q-4 -1 -11 -1q-36 0 -38 32l-1 28
q-25 -32 -63 -48.5t-83 -16.5zM178 381q24 0 47.5 6.5t42.5 17t31 24.5t12 29v58q-24 11 -51 14.5t-55 3.5q-52 0 -84.5 -20t-32.5 -55q0 -33 26 -55.5t64 -22.5z" />
    <glyph glyph-name="ordmasculine" unicode="&#xba;" horiz-adv-x="451" 
d="M225 350q-38 0 -70.5 14.5t-56 39t-37 57t-13.5 68.5q0 37 13.5 69.5t37 57t56 39t70.5 14.5t70.5 -14.5t56.5 -39t37.5 -57t13.5 -69.5q0 -36 -13.5 -68.5t-37.5 -57t-56.5 -39t-70.5 -14.5zM88 528q0 -30 10.5 -56.5t29.5 -46t43.5 -30.5t53.5 -11q28 0 53.5 11.5
t44 31.5t29.5 46.5t11 56.5t-11 56t-29.5 45.5t-44 31t-53.5 11.5t-53 -11.5t-43.5 -31t-29.5 -46.5t-11 -57z" />
    <glyph glyph-name="oslash" unicode="&#xf8;" horiz-adv-x="590" 
d="M144 44q-46 37 -72.5 93t-26.5 121q0 55 19.5 104t53.5 86t79.5 58.5t97.5 21.5q35 0 68 -10.5t62 -29.5l20 32h32l-31 -48q45 -38 72.5 -93.5t27.5 -120.5q0 -54 -19.5 -103t-53.5 -85.5t-80 -58t-98 -21.5q-71 0 -130 39l-19 -29h-31zM79 257q0 -57 23 -105.5t61 -80.5
l244 390q-25 17 -53.5 26t-58.5 9q-44 0 -83 -19t-68.5 -51.5t-47 -76t-17.5 -92.5zM294 22q44 0 83.5 19t69 51t47 75.5t17.5 91.5q0 56 -23 104.5t-61 81.5l-244 -389q49 -34 111 -34z" />
    <glyph glyph-name="oslashacute" unicode="&#x1ff;" horiz-adv-x="590" 
d="M144 44q-46 37 -72.5 93t-26.5 121q0 55 19.5 104t53.5 86t79.5 58.5t97.5 21.5q35 0 68 -10.5t62 -29.5l20 32h32l-31 -48q45 -38 72.5 -93.5t27.5 -120.5q0 -54 -19.5 -103t-53.5 -85.5t-80 -58t-98 -21.5q-71 0 -130 39l-19 -29h-31zM79 257q0 -57 23 -105.5t61 -80.5
l244 390q-25 17 -53.5 26t-58.5 9q-44 0 -83 -19t-68.5 -51.5t-47 -76t-17.5 -92.5zM294 22q44 0 83.5 19t69 51t47 75.5t17.5 91.5q0 56 -23 104.5t-61 81.5l-244 -389q49 -34 111 -34zM287 638l-24 13l62 79h45z" />
    <glyph glyph-name="otilde" unicode="&#xf5;" horiz-adv-x="590" 
d="M295 -10q-53 0 -98.5 21.5t-79.5 58t-53 85.5t-19 103q0 55 19.5 104t53.5 86t79.5 58.5t97.5 21.5t98 -21.5t80 -58.5t53.5 -86t19.5 -104q0 -54 -19.5 -103t-53.5 -85.5t-80 -58t-98 -21.5zM79 257q0 -48 17 -91t46 -75t68.5 -50.5t83.5 -18.5t83.5 19t69 51t47 75.5
t17.5 91.5t-17.5 91.5t-47 75.5t-68.5 51t-83 19t-83 -19t-68.5 -51.5t-47 -76t-17.5 -92.5zM356 656q-22 0 -38.5 6t-31 13t-27.5 13t-29 6t-26 -6.5t-15 -15t-7 -16.5t-2 -10h-27q0 3 2.5 15.5t11 25.5t24 23.5t41.5 10.5q20 0 35 -6t28.5 -13.5t28 -13.5t33.5 -6
q21 0 32.5 7t17.5 15.5t7.5 16t1.5 9.5h26q0 -4 -3 -16t-12 -25t-26 -23t-45 -10z" />
    <glyph glyph-name="p" unicode="p" horiz-adv-x="606" 
d="M322 -10q-34 0 -64.5 10t-57 27t-48.5 40t-38 49v-329h-34v733h32v-108q16 25 38 46.5t48.5 37t55 24t58.5 8.5q55 0 101 -23t79 -61t51.5 -86.5t18.5 -98.5q0 -54 -17.5 -103t-49 -85.5t-75.5 -58.5t-98 -22zM317 22q48 0 87 20.5t66 54t42 76t15 86.5q0 46 -17 89
t-46.5 76t-69.5 52.5t-86 19.5q-29 0 -62 -12.5t-61.5 -33t-48 -47.5t-22.5 -57v-179q13 -30 34 -56.5t47.5 -46t57.5 -31t64 -11.5z" />
    <glyph glyph-name="paragraph" unicode="&#xb6;" horiz-adv-x="571" 
d="M37 476q0 109 74.5 171.5t207.5 62.5h212v-30h-70v-760h-31v323h-86v-323h-32v323q-64 1 -115 17.5t-86.5 46.5t-54.5 72.5t-19 96.5zM68 477q0 -53 19.5 -90.5t53 -62t78 -37t93.5 -14.5v407q-119 0 -181.5 -53.5t-62.5 -149.5zM430 680h-86v-407h86v407z" />
    <glyph glyph-name="parenleft" unicode="(" horiz-adv-x="247" 
d="M50 345q0 51 10.5 100t29 96.5t43 94.5t52.5 94l26 -16q-23 -34 -46 -79t-41.5 -94.5t-30 -101t-11.5 -97.5q0 -77 33.5 -171t95.5 -184l-26 -16q-65 95 -100 188.5t-35 185.5z" />
    <glyph glyph-name="parenright" unicode=")" horiz-adv-x="247" 
d="M198 345q0 -92 -35.5 -185.5t-99.5 -188.5l-26 16q61 90 95 184t34 171q0 46 -11.5 97.5t-30.5 101t-42 94.5t-46 79l27 16q28 -47 52.5 -94t43 -94.5t29 -96.5t10.5 -100z" />
    <glyph glyph-name="percent" unicode="%" horiz-adv-x="689" 
d="M190 441q-29 0 -55 11t-45 29.5t-30 44t-11 54.5t11 54.5t30 44.5t45 30t55 11t55 -11t45 -30t30 -44.5t11 -54.5t-11 -54.5t-30 -44t-45 -29.5t-55 -11zM190 466q24 0 44.5 9.5t35.5 25t23.5 36t8.5 43.5q0 24 -9 45t-24.5 36t-36 24t-42.5 9q-24 0 -44.5 -9.5
t-35.5 -25t-23.5 -36.5t-8.5 -43q0 -24 9 -44.5t24 -36t35.5 -24.5t43.5 -9zM500 -10q-29 0 -55 11t-45.5 30t-30.5 44.5t-11 54.5t11 54.5t30.5 44t45.5 29.5t55 11t55 -11t45 -29.5t30 -44t11 -54.5t-11 -54.5t-30 -44.5t-45 -30t-55 -11zM500 16q23 0 43.5 9t35.5 25
t24 36.5t9 43.5t-9 44t-24.5 36.5t-36 24.5t-42.5 9q-24 0 -44.5 -9.5t-35.5 -25t-24 -36.5t-9 -43q0 -24 9 -45t24.5 -36t36 -24t43.5 -9zM55 16l279 347l277 349l22 -17l-280 -349l-276 -348z" />
    <glyph glyph-name="period" unicode="." horiz-adv-x="171" 
d="M70 0v74h31v-74h-31z" />
    <glyph glyph-name="perthousand" unicode="&#x2030;" horiz-adv-x="1018" 
d="M195 441q-29 0 -55 11t-45.5 29.5t-30.5 44t-11 54.5t11 54.5t30.5 44.5t45.5 30t55 11t55 -11t45 -30t30 -44.5t11 -54.5t-11 -54.5t-30 -44t-45 -29.5t-55 -11zM195 466q23 0 43.5 9.5t35.5 25t24 36t9 43.5q0 24 -9 45t-24.5 36t-36 24t-42.5 9q-24 0 -44.5 -9.5
t-35.5 -25t-24 -36.5t-9 -43q0 -24 9 -44.5t24.5 -36t36 -24.5t43.5 -9zM504 -10q-29 0 -55 11t-45 30t-30 44.5t-11 54.5t11 54.5t30 44t45 29.5t55 11t55 -11t45.5 -29.5t30.5 -44t11 -54.5t-11 -54.5t-30.5 -44.5t-45.5 -30t-55 -11zM504 16q24 0 44.5 9t35.5 25t24 36.5
t9 43.5t-9.5 44t-25 36.5t-36 24.5t-42.5 9q-23 0 -43.5 -9.5t-35.5 -25t-24 -36.5t-9 -43q0 -24 9 -45t24 -36t35.5 -24t43.5 -9zM842 -10q-29 0 -55 11t-45.5 30t-30.5 44.5t-11 54.5t11 54.5t30.5 44t45.5 29.5t55 11t55 -11t45 -29.5t30 -44t11 -54.5t-11 -54.5
t-30 -44.5t-45 -30t-55 -11zM842 16q23 0 43.5 9t35.5 25t24 36.5t9 43.5t-9 44t-24.5 36.5t-36 24.5t-42.5 9q-24 0 -44.5 -9.5t-35.5 -25t-24 -36.5t-9 -43q0 -24 9 -45t24.5 -36t36 -24t43.5 -9zM60 16l279 347l277 349l22 -17l-280 -349l-276 -348z" />
    <glyph glyph-name="plus" unicode="+" horiz-adv-x="415" 
d="M359 370v-30h-135v-146h-33v146h-135v30h135v146h33v-146h135z" />
    <glyph glyph-name="plusminus" unicode="&#xb1;" horiz-adv-x="454" 
d="M74 78v31h307v-31h-307zM381 373v-31h-138v-147h-32v147h-137v31h137v147h32v-147h138z" />
    <glyph glyph-name="q" unicode="q" horiz-adv-x="606" 
d="M284 -10q-54 0 -98 23t-75.5 60.5t-48.5 86t-17 99.5q0 53 19.5 102t53 86t79 59t97.5 22q31 0 60.5 -9t55.5 -24.5t47.5 -37t36.5 -45.5v108h32v-678q0 -22 19 -23v-31q-3 -1 -9 -1q-19 0 -31.5 13t-12.5 33v283q-42 -62 -94.5 -94t-113.5 -32zM290 22q35 0 65.5 11.5
t56 31t46 45.5t34.5 54v180q-3 30 -22 57.5t-47 48.5t-61 33.5t-64 12.5q-48 0 -88 -20.5t-69.5 -54t-45.5 -76.5t-16 -87q0 -47 16 -89.5t44 -75t66.5 -52t84.5 -19.5z" />
    <glyph glyph-name="q.alt" horiz-adv-x="606" 
d="M284 -10q-54 0 -98 23t-75.5 60.5t-48.5 86t-17 99.5q0 53 19.5 102t53 86t79 59t97.5 22q31 0 60.5 -9t55.5 -24.5t47.5 -37t36.5 -45.5v108h32v-733h-34v329q-42 -62 -94.5 -94t-113.5 -32zM290 22q35 0 65.5 11.5t56 31t46 45.5t34.5 54v180q-3 30 -22 57.5t-47 48.5
t-61 33.5t-64 12.5q-48 0 -88 -20.5t-69.5 -54t-45.5 -76.5t-16 -87q0 -47 16 -89.5t44 -75t66.5 -52t84.5 -19.5z" />
    <glyph glyph-name="question" unicode="?" horiz-adv-x="473" 
d="M172 186q0 43 6 73t17.5 51t27 34t35.5 24q22 12 47.5 24t47 30t35.5 44.5t14 67.5q0 40 -13.5 69t-35.5 48t-50.5 28t-58.5 9q-58 0 -107.5 -30.5t-74.5 -81.5l-26 14q14 31 36.5 55t50 40.5t58.5 25t63 8.5q36 0 70.5 -12t60.5 -35.5t42 -58.5t16 -82q0 -44 -14 -72.5
t-35.5 -48.5t-48.5 -34t-53 -28q-17 -9 -31 -20t-25 -28.5t-17 -44.5t-6 -69h-31zM172 0v91h32v-91h-32z" />
    <glyph glyph-name="questiondown" unicode="&#xbf;" horiz-adv-x="466" 
d="M297 320q0 -44 -6 -73.5t-17.5 -50.5t-27.5 -34.5t-35 -23.5q-23 -12 -48 -24t-46.5 -30t-35.5 -44.5t-14 -67.5q0 -40 13.5 -69t35.5 -48t50.5 -28t58.5 -9q58 0 107.5 30.5t74.5 81.5l26 -14q-14 -31 -36.5 -55t-50 -40.5t-59 -25t-62.5 -8.5q-36 0 -70.5 12
t-60.5 35.5t-42 58.5t-16 82q0 44 13.5 72.5t35.5 48.5t49 34t53 28q16 9 30.5 20t25.5 28.5t17 44.5t6 69h31zM297 506v-91h-32v91h32z" />
    <glyph glyph-name="quotedbl" unicode="&#x22;" horiz-adv-x="225" 
d="M65 615v97h31v-97h-31zM128 615v97h32v-97h-32z" />
    <glyph glyph-name="quotedblbase" unicode="&#x201e;" horiz-adv-x="272" 
d="M66 -14q16 0 16 16v72h31v-74q0 -22 -13.5 -32.5t-33.5 -10.5v29zM150 -14q16 0 16 16v72h31v-74q0 -22 -13.5 -32.5t-33.5 -10.5v29z" />
    <glyph glyph-name="quotesinglbase" unicode="&#x201a;" horiz-adv-x="189" 
d="M66 -14q16 0 16 16v72h31v-74q0 -22 -13.5 -32.5t-33.5 -10.5v29z" />
    <glyph glyph-name="quotedblleft" unicode="&#x201c;" horiz-adv-x="269" 
d="M110 572q-20 0 -33 11t-13 33v114h31v-113q0 -9 3.5 -12t11.5 -3v-30zM204 572q-20 0 -33 11t-13 33v114h31v-113q0 -9 3.5 -12t11.5 -3v-30z" />
    <glyph glyph-name="quoteleft" unicode="&#x2018;" horiz-adv-x="175" 
d="M110 572q-20 0 -33 11t-13 33v114h31v-113q0 -9 3.5 -12t11.5 -3v-30z" />
    <glyph glyph-name="quotedblright" unicode="&#x201d;" horiz-adv-x="268" 
d="M57 730q20 0 33 -11t13 -33v-114h-31v113q0 9 -3.5 12t-11.5 3v30zM151 730q20 0 33 -11t13 -33v-114h-31v113q0 9 -3.5 12t-11.5 3v30z" />
    <glyph glyph-name="quoteright" unicode="&#x2019;" horiz-adv-x="174" 
d="M57 730q20 0 33 -11t13 -33v-114h-31v113q0 9 -3.5 12t-11.5 3v30z" />
    <glyph glyph-name="quotesingle" unicode="'" horiz-adv-x="143" 
d="M56 634v78h31v-78h-31z" />
    <glyph glyph-name="r" unicode="r" horiz-adv-x="333" 
d="M313 488q-72 -3 -125 -45.5t-74 -115.5v-327h-34v520h33v-132q27 55 72 90t96 41q10 0 18 0.5t14 0.5v-32z" />
    <glyph glyph-name="racute" unicode="&#x155;" horiz-adv-x="333" 
d="M174 638l-24 13l62 79h45zM313 488q-72 -3 -125 -45.5t-74 -115.5v-327h-34v520h33v-132q27 55 72 90t96 41q10 0 18 0.5t14 0.5v-32z" />
    <glyph glyph-name="rcaron" unicode="&#x159;" horiz-adv-x="333" 
d="M97 730l85 -63l85 63l23 -14l-95 -78h-26l-94 78zM313 488q-72 -3 -125 -45.5t-74 -115.5v-327h-34v520h33v-132q27 55 72 90t96 41q10 0 18 0.5t14 0.5v-32z" />
    <glyph glyph-name="rcommaaccent" unicode="&#x157;" horiz-adv-x="333" 
d="M65 -128q16 0 16 14v64h31v-62q0 -21 -12.5 -30.5t-34.5 -9.5v24zM313 488q-72 -3 -125 -45.5t-74 -115.5v-327h-34v520h33v-132q27 55 72 90t96 41q10 0 18 0.5t14 0.5v-32z" />
    <glyph glyph-name="registered" unicode="&#xae;" horiz-adv-x="835" 
d="M417 -7q-78 0 -144.5 27.5t-114.5 76t-75.5 114.5t-27.5 144q0 77 27.5 143t75.5 114t114.5 75.5t144.5 27.5t145 -27.5t115.5 -75.5t76 -114t27.5 -143q0 -78 -27.5 -144t-76 -114.5t-115.5 -76t-145 -27.5zM417 16q72 0 133.5 24.5t107 69t71.5 107t26 138.5
q0 72 -25.5 133.5t-70.5 106.5t-107 70.5t-135 25.5t-134.5 -25.5t-106.5 -70.5t-70.5 -106.5t-25.5 -133.5q0 -73 25.5 -135t70.5 -107.5t106.5 -71t134.5 -25.5zM270 582h189q29 0 53 -12t41.5 -32t27 -45.5t9.5 -51.5t-8 -50t-23 -42.5t-36 -30.5t-46 -15l115 -180h-34
l-113 178h-145v-178h-30v459zM463 328q48 0 73 33.5t25 79.5q0 23 -7.5 43.5t-21 35.5t-32.5 24t-42 9h-158v-225h163z" />
    <glyph glyph-name="s" unicode="s" horiz-adv-x="476" 
d="M239 -10q-60 0 -112 20t-92 62l19 23q42 -38 86 -57t98 -19q73 0 118 31t45 87q0 26 -11.5 43.5t-33.5 30t-54.5 22t-74.5 19.5q-43 10 -74.5 19.5t-52.5 22.5t-31 33t-10 51q0 39 15 67t40.5 46.5t59 27.5t71.5 9q63 0 108.5 -21t66.5 -53l-23 -17q-22 30 -64.5 46
t-90.5 16q-31 0 -58 -6.5t-47.5 -21t-32.5 -36.5t-12 -52q0 -24 8 -40t25.5 -26.5t44 -18t64.5 -16.5q48 -11 85 -22t63 -26t39.5 -37t13.5 -56q0 -35 -14 -62.5t-39.5 -47.5t-62 -30.5t-80.5 -10.5z" />
    <glyph glyph-name="s_t" unicode="&#xfb06;" horiz-adv-x="780" 
d="M773 24q-2 -2 -11 -6.5t-22.5 -9.5t-30.5 -9t-35 -4q-42 0 -70 22.5t-28 63.5v409h-75v30h75q0 62 -3.5 102t-14.5 63t-31 32t-53 9q-36 0 -59.5 -8t-38 -22.5t-20.5 -34t-6 -41.5q0 -33 9 -62.5t20 -52t20 -36.5t9 -15l-22 -17q-14 19 -31 31t-36 19t-38.5 9.5
t-38.5 2.5q-29 0 -57 -5.5t-50.5 -19t-36.5 -35.5t-14 -55q0 -36 16.5 -57.5t41 -32.5t52.5 -15t50 -6q30 -3 65 -8t65 -19t50 -39.5t20 -68.5q0 -41 -18.5 -69.5t-47 -46t-63.5 -25t-69 -7.5q-65 0 -116 23.5t-86 56.5l19 23q83 -74 184 -74q28 0 57 6t53 20t39 36t15 55
q0 36 -18.5 57t-45 32t-56.5 14t-52 5q-35 2 -68.5 8.5t-59.5 21.5t-42.5 40t-16.5 66q0 42 17 70.5t44 45.5t61 24.5t67 7.5q74 0 121 -30q-7 16 -13.5 29.5t-12 27t-8.5 28.5t-3 35q0 27 7.5 51t25 42.5t46.5 29t72 10.5q48 0 75 -14.5t40 -43t16 -72t3 -101.5h123v-30
h-123v-404q0 -29 20.5 -44t49.5 -15q15 0 28.5 3.5t24.5 8t18 8.5t9 5z" />
    <glyph glyph-name="sacute" unicode="&#x15b;" horiz-adv-x="476" 
d="M233 638l-24 13l62 79h45zM239 -10q-60 0 -112 20t-92 62l19 23q42 -38 86 -57t98 -19q73 0 118 31t45 87q0 26 -11.5 43.5t-33.5 30t-54.5 22t-74.5 19.5q-43 10 -74.5 19.5t-52.5 22.5t-31 33t-10 51q0 39 15 67t40.5 46.5t59 27.5t71.5 9q63 0 108.5 -21t66.5 -53
l-23 -17q-22 30 -64.5 46t-90.5 16q-31 0 -58 -6.5t-47.5 -21t-32.5 -36.5t-12 -52q0 -24 8 -40t25.5 -26.5t44 -18t64.5 -16.5q48 -11 85 -22t63 -26t39.5 -37t13.5 -56q0 -35 -14 -62.5t-39.5 -47.5t-62 -30.5t-80.5 -10.5z" />
    <glyph glyph-name="scaron" unicode="&#x161;" horiz-adv-x="476" 
d="M157 730l85 -63l85 63l23 -14l-95 -78h-26l-94 78zM239 -10q-60 0 -112 20t-92 62l19 23q42 -38 86 -57t98 -19q73 0 118 31t45 87q0 26 -11.5 43.5t-33.5 30t-54.5 22t-74.5 19.5q-43 10 -74.5 19.5t-52.5 22.5t-31 33t-10 51q0 39 15 67t40.5 46.5t59 27.5t71.5 9
q63 0 108.5 -21t66.5 -53l-23 -17q-22 30 -64.5 46t-90.5 16q-31 0 -58 -6.5t-47.5 -21t-32.5 -36.5t-12 -52q0 -24 8 -40t25.5 -26.5t44 -18t64.5 -16.5q48 -11 85 -22t63 -26t39.5 -37t13.5 -56q0 -35 -14 -62.5t-39.5 -47.5t-62 -30.5t-80.5 -10.5z" />
    <glyph glyph-name="schwa" unicode="&#x259;" horiz-adv-x="580" 
d="M286 -10q-53 0 -99 21t-80 57.5t-54 85t-20 104.5q0 2 0.5 8t0.5 7h466q-3 48 -22 89t-48.5 71.5t-68 47.5t-81.5 17q-29 0 -56 -7.5t-51 -21.5t-42.5 -33t-28.5 -42l-31 8q11 27 32.5 50t49.5 40t61 26.5t68 9.5q53 0 99 -21.5t80.5 -59t54 -87t19.5 -105.5
q0 -55 -19 -103t-52.5 -84t-79 -57t-98.5 -21zM286 19q44 0 82 17t66.5 47.5t46 72t20.5 90.5h-433q3 -50 21 -91.5t47 -71.5t67.5 -47t82.5 -17z" />
    <glyph glyph-name="scircumflex" unicode="&#x15d;" horiz-adv-x="476" 
d="M135 653l94 77h26l95 -77l-23 -15l-85 63l-85 -63zM239 -10q-60 0 -112 20t-92 62l19 23q42 -38 86 -57t98 -19q73 0 118 31t45 87q0 26 -11.5 43.5t-33.5 30t-54.5 22t-74.5 19.5q-43 10 -74.5 19.5t-52.5 22.5t-31 33t-10 51q0 39 15 67t40.5 46.5t59 27.5t71.5 9
q63 0 108.5 -21t66.5 -53l-23 -17q-22 30 -64.5 46t-90.5 16q-31 0 -58 -6.5t-47.5 -21t-32.5 -36.5t-12 -52q0 -24 8 -40t25.5 -26.5t44 -18t64.5 -16.5q48 -11 85 -22t63 -26t39.5 -37t13.5 -56q0 -35 -14 -62.5t-39.5 -47.5t-62 -30.5t-80.5 -10.5z" />
    <glyph glyph-name="section" unicode="&#xa7;" horiz-adv-x="501" 
d="M400 185q52 -29 52 -106q0 -41 -18 -72.5t-45.5 -52.5t-61.5 -31.5t-66 -10.5q-66 0 -112 25.5t-78 59.5l23 21q40 -37 79 -55t87 -18q28 0 56 9t50.5 26.5t36.5 42t14 55.5q0 34 -13.5 55t-35 33t-48 16t-53.5 5q-39 1 -73 10.5t-60 28.5t-41 47.5t-15 67.5
q0 26 8.5 51.5t22.5 40.5q-26 16 -41.5 47.5t-15.5 72.5q0 38 17 68t43.5 51t60 32t66.5 11q69 0 107.5 -22.5t63.5 -58.5l-28 -13q-10 19 -26.5 31t-36 19t-40 9.5t-39.5 2.5q-28 0 -55.5 -9t-49.5 -25.5t-35.5 -41t-13.5 -54.5q0 -34 11.5 -57t32.5 -37.5t49.5 -21
t62.5 -6.5q35 0 69.5 -8t62 -26t44.5 -46.5t17 -68.5q0 -29 -9.5 -55t-25.5 -42zM112 339q0 -37 13.5 -60t35 -36t49 -19t56 -9.5t55 -6.5t46.5 -11q17 14 26 37t9 48q0 34 -15 57t-38.5 36.5t-51.5 19t-55 5.5t-53.5 4.5t-47.5 13.5q-14 -13 -21.5 -34.5t-7.5 -44.5z" />
    <glyph glyph-name="semicolon" unicode=";" horiz-adv-x="192" 
d="M83 443v74h31v-74h-31zM68 -14q15 0 15 16v72h31v-74q0 -22 -13 -32.5t-33 -10.5v29z" />
    <glyph glyph-name="seven" unicode="7" horiz-adv-x="537" 
d="M464 550h-414v33h469l-362 -710h-39z" />
    <glyph glyph-name="seven.lnum" horiz-adv-x="501" 
d="M445 677h-414v33h469l-362 -710h-39z" />
    <glyph glyph-name="seveneighths" unicode="&#x215e;" horiz-adv-x="818" 
d="M778 105q0 -25 -12.5 -45t-33.5 -34.5t-49 -22t-59 -7.5q-34 0 -61.5 9t-47 24.5t-30.5 35.5t-11 42q0 19 8.5 35.5t22 29.5t30.5 22t35 14q-32 11 -56 32t-24 52q0 23 12 41t31.5 30t43.5 18.5t49 6.5t49.5 -6.5t43.5 -18.5t31 -30t12 -41q0 -31 -24 -52t-57 -32
q42 -11 69.5 -38t27.5 -65zM751 108q0 21 -11.5 37.5t-29.5 27.5t-40.5 17t-44.5 6q-23 0 -45 -6.5t-39.5 -18t-28.5 -28t-11 -36.5t11.5 -36t29.5 -27t40.5 -17t43.5 -6q23 0 45.5 6t40 17.5t28.5 27.5t11 36zM517 290q0 -17 10 -30t25.5 -22t35 -14t37.5 -5q19 0 38.5 5
t35.5 14t26 22.5t10 30.5t-9.5 30.5t-24.5 22.5t-35 14t-41 5t-40.5 -5t-34.5 -14.5t-24 -23t-9 -30.5zM59 16l279 347l277 349l22 -17l-280 -349l-276 -348zM301 704h-255v26h299l-228 -388h-31z" />
    <glyph glyph-name="sevensuperior" unicode="&#x2077;" horiz-adv-x="335" 
d="M283 704h-255v26h299l-228 -388h-31z" />
    <glyph glyph-name="seveninferior" unicode="&#x2087;" horiz-adv-x="334" 
d="M283 361h-255v27h299l-228 -388h-31z" />
    <glyph glyph-name="six" unicode="6" horiz-adv-x="605" 
d="M558 233q0 -51 -19 -95t-52.5 -77t-78.5 -52t-97 -19q-54 0 -100 19.5t-80 56t-53 88.5t-19 118q0 114 18.5 197.5t52.5 138t81 81t103 26.5q72 0 128 -38.5t80 -104.5l-27 -16q-19 57 -68.5 92t-111.5 35q-50 0 -90.5 -24.5t-69.5 -71t-45 -114t-16 -154.5
q11 35 33 63.5t51 49t64.5 32t73.5 11.5q50 0 94 -19t77 -52t52 -77t19 -94zM312 22q44 0 82.5 16.5t67.5 45t46 67t17 81.5t-17 82t-46.5 67.5t-68 45.5t-81.5 17q-44 0 -83 -17t-68 -45.5t-46 -67t-17 -81.5t17 -81.5t46.5 -67t68 -45.5t82.5 -17z" />
    <glyph glyph-name="six.lnum" horiz-adv-x="605" 
d="M558 233q0 -51 -19 -95t-52.5 -77t-78.5 -52t-97 -19q-54 0 -100 19.5t-80 56t-53 88.5t-19 118q0 114 18.5 197.5t52.5 138t81 81t103 26.5q72 0 128 -38.5t80 -104.5l-27 -16q-19 57 -68.5 92t-111.5 35q-50 0 -90.5 -24.5t-69.5 -71t-45 -114t-16 -154.5
q11 35 33 63.5t51 49t64.5 32t73.5 11.5q50 0 94 -19t77 -52t52 -77t19 -94zM312 22q44 0 82.5 16.5t67.5 45t46 67t17 81.5t-17 82t-46.5 67.5t-68 45.5t-81.5 17q-44 0 -83 -17t-68 -45.5t-46 -67t-17 -81.5t17 -81.5t46.5 -67t68 -45.5t82.5 -17z" />
    <glyph glyph-name="sixinferior" unicode="&#x2086;" horiz-adv-x="394" 
d="M359 128q0 -28 -12 -52t-33 -42t-49.5 -28.5t-61.5 -10.5q-35 0 -64 11t-50 31.5t-33 49.5t-12 66q0 122 45 180t117 58q45 0 80 -20t50 -55l-18 -15q-13 29 -44 47t-69 18q-60 0 -97 -48t-38 -137q15 35 53 56.5t83 21.5q32 0 60 -10t48.5 -28t32.5 -42t12 -51zM204 20
q27 0 50.5 8.5t41 23t27.5 34t10 41.5t-10.5 42t-28 35t-41 23.5t-50.5 8.5t-50.5 -8.5t-41 -23.5t-28 -34.5t-10.5 -41.5t10.5 -41.5t28.5 -34.5t41.5 -23.5t50.5 -8.5z" />
    <glyph glyph-name="sixsuperior" unicode="&#x2076;" horiz-adv-x="394" 
d="M359 467q0 -28 -12 -52t-33 -42t-49.5 -28.5t-61.5 -10.5q-35 0 -64 11t-50 31.5t-33 49.5t-12 66q0 122 45 180t117 58q45 0 80 -20t50 -55l-18 -15q-13 29 -44 47t-69 18q-60 0 -97 -48t-38 -137q15 36 53 57t83 21q32 0 60 -10t48.5 -28t32.5 -42t12 -51zM204 359
q27 0 50.5 8.5t41 23t27.5 34t10 41.5t-10.5 42t-28 35t-41 23.5t-50.5 8.5t-50.5 -8.5t-41 -23.5t-28 -34.5t-10.5 -41.5t10.5 -41.5t28.5 -34.5t41.5 -23.5t50.5 -8.5z" />
    <glyph glyph-name="AE" unicode="&#xc6;" horiz-adv-x="997" 
d="M470 710h468v-32h-425v-299h371v-32h-371v-315h434v-32h-468v245h-274l-160 -245h-40zM478 277v386l-256 -386h256z" />
    <glyph glyph-name="sterling" unicode="&#xa3;" horiz-adv-x="483" 
d="M52 368h105q-12 23 -25 44.5t-24.5 43t-18.5 44t-7 48.5q0 34 13.5 64.5t36 53.5t53 36t65.5 13q51 0 96 -28.5t72 -76.5l-24 -21q-24 45 -63 70t-83 25q-27 0 -51 -10.5t-42 -29t-28.5 -43t-10.5 -52.5q0 -24 7.5 -46.5t19 -44.5t25 -44t25.5 -46h174v-30h-161
q8 -20 13 -42.5t5 -48.5t-6 -50.5t-19.5 -50.5t-35 -55t-53.5 -63q37 8 72 8q22 0 41 -3t36 -6.5t33.5 -6.5t35.5 -3q20 0 43 4.5t53 15.5l9 -29q-55 -23 -107 -23q-22 0 -40.5 3.5l-37 7t-37.5 7t-42 3.5q-22 0 -48.5 -3.5t-49.5 -9.5l-12 26q39 40 64.5 71t40.5 57
t21 49.5t6 48.5q0 26 -5.5 49t-14.5 44h-119v30z" />
    <glyph glyph-name="t" unicode="t" horiz-adv-x="306" 
d="M299 24q-2 -1 -10.5 -5.5t-22 -10t-31 -9.5t-38.5 -4q-19 0 -36.5 6t-30.5 17t-21 27t-8 36v409h-74v30h74v179h34v-179h124v-30h-124v-404q2 -29 22 -44t46 -15q16 0 30.5 3.5t26 8t18 8.5t8.5 5z" />
    <glyph glyph-name="t.alt" horiz-adv-x="284" 
d="M102 0v493h-75v32h75v207h34v-207h125v-32h-125v-493h-34z" />
    <glyph glyph-name="tbar" unicode="&#x167;" horiz-adv-x="307" 
d="M300 24q-2 -1 -10.5 -5.5t-22 -10t-31 -9.5t-38.5 -4q-19 0 -36.5 6t-30.5 17t-21 27t-8 36v249h-74v27h74v133h-74v30h74v179h34v-179h124v-30h-124v-133h124v-27h-124v-244q2 -29 22 -44t46 -15q16 0 30.5 3.5t26 8t18 8.5t8.5 5z" />
    <glyph glyph-name="tcaron" unicode="&#x165;" horiz-adv-x="306" 
d="M235 638l-24 13l62 79h45zM299 24q-2 -1 -10.5 -5.5t-22 -10t-31 -9.5t-38.5 -4q-19 0 -36.5 6t-30.5 17t-21 27t-8 36v409h-74v30h74v179h34v-179h124v-30h-124v-404q2 -29 22 -44t46 -15q16 0 30.5 3.5t26 8t18 8.5t8.5 5z" />
    <glyph glyph-name="thorn" unicode="&#xfe;" horiz-adv-x="603" 
d="M558 258q-2 -53 -21.5 -102t-53 -86.5t-79 -59.5t-98.5 -22q-30 0 -58 8.5t-53 23.5t-45.5 35t-34.5 43v-311h-35v923h35v-302q36 52 85 86t115 34q57 0 102.5 -24t76.5 -62.5t47.5 -87t16.5 -96.5zM524 258q0 46 -15 89t-43 76t-66.5 53t-85.5 20q-35 0 -65 -12
t-55.5 -31.5t-45 -45t-33.5 -53.5v-184q0 -30 19 -57t47.5 -47.5t62 -32.5t62.5 -12q48 0 88 20.5t69 53.5t45 75.5t16 87.5z" />
    <glyph glyph-name="three" unicode="3" horiz-adv-x="524" 
d="M319 236q70 -10 112 -61t42 -125q0 -44 -16 -80t-44.5 -62t-68.5 -40.5t-88 -14.5q-75 0 -131.5 33.5t-79.5 90.5l27 18q18 -50 67 -80t118 -30q84 0 133 45t49 122q0 78 -50 123.5t-139 45.5h-23v31h24q85 0 130 37t45 101q0 35 -13 63.5t-35.5 48.5t-53.5 31t-68 11
q-61 0 -108 -29.5t-67 -78.5l-25 17q21 56 76.5 89.5t125.5 33.5q44 0 81 -13.5t64 -37.5t42.5 -57t15.5 -72q0 -63 -38 -107.5t-104 -52.5z" />
    <glyph glyph-name="three.lnum" horiz-adv-x="589" 
d="M294 -9q-50 0 -92.5 13.5t-74.5 37.5t-51 56.5t-22 71.5l27 11q1 -32 18 -60.5t45.5 -50t67 -34t83.5 -12.5q43 0 80.5 12t64.5 33t42.5 50t15.5 64q0 37 -17.5 67t-49 51t-75.5 32.5t-98 11.5h-35v31h35q106 0 163 36.5t57 108.5q0 36 -15 66.5t-41 52.5t-61.5 34.5
t-77.5 12.5q-69 0 -120.5 -30.5t-71.5 -80.5l-26 19q12 28 33.5 51t50 39.5t62.5 25t71 8.5q50 0 92.5 -15t73 -41.5t48 -63t17.5 -78.5q0 -123 -143 -160q37 -7 67 -23.5t51 -40.5t32.5 -54t11.5 -63q0 -41 -18.5 -76t-50.5 -60t-75.5 -39t-93.5 -14z" />
    <glyph glyph-name="threeeighths" unicode="&#x215c;" horiz-adv-x="822" 
d="M199 333q-63 0 -104.5 26t-45.5 68l19 13q1 -15 11.5 -29.5t28 -26t41 -18t50.5 -6.5q26 0 49 6t39.5 16.5t26 25.5t9.5 33q0 38 -40.5 60.5t-108.5 22.5h-22v24h22q65 0 100.5 19t35.5 55q0 38 -33.5 61t-84.5 23q-42 0 -73 -16.5t-45 -42.5l-19 19q16 30 53.5 47.5
t83.5 17.5q31 0 58 -8t47 -22.5t31 -34t11 -42.5q0 -69 -90 -87q47 -8 74.5 -35t27.5 -65q0 -23 -12 -42.5t-32.5 -33t-48.5 -21t-59 -7.5zM779 105q0 -25 -12.5 -45t-33.5 -34.5t-49 -22t-59 -7.5q-34 0 -61.5 9t-47 24.5t-30.5 35.5t-11 42q0 19 8.5 35.5t22 29.5t30.5 22
t35 14q-32 11 -56 32t-24 52q0 23 12 41t31.5 30t43.5 18.5t49 6.5t49.5 -6.5t43.5 -18.5t31 -30t12 -41q0 -31 -24 -52t-57 -32q42 -11 69.5 -38t27.5 -65zM752 108q0 21 -11.5 37.5t-29.5 27.5t-40.5 17t-44.5 6q-23 0 -45 -6.5t-39.5 -18t-28.5 -28t-11 -36.5t11.5 -36
t29.5 -27t40.5 -17t43.5 -6q23 0 45.5 6t40 17.5t28.5 27.5t11 36zM518 290q0 -17 10 -30t25.5 -22t35 -14t37.5 -5q19 0 38.5 5t35.5 14t26 22.5t10 30.5t-9.5 30.5t-24.5 22.5t-35 14t-41 5t-40.5 -5t-34.5 -14.5t-24 -23t-9 -30.5zM120 16l279 347l277 349l22 -17
l-280 -349l-276 -348z" />
    <glyph glyph-name="threesuperior" unicode="&#xb3;" horiz-adv-x="383" 
d="M190 333q-63 0 -104.5 26t-45.5 68l19 13q1 -15 11.5 -29.5t28 -26t41 -18t50.5 -6.5q26 0 49 6t39.5 16.5t26 25.5t9.5 33q0 38 -40.5 60.5t-108.5 22.5h-22v24h22q65 0 100.5 19t35.5 55q0 38 -33.5 61t-84.5 23q-42 0 -73 -16.5t-45 -42.5l-19 19q16 30 53.5 47.5
t83.5 17.5q31 0 58 -8t47 -22.5t31 -34t11 -42.5q0 -69 -90 -87q47 -8 74.5 -35t27.5 -65q0 -23 -12 -42.5t-32.5 -33t-48.5 -21t-59 -7.5z" />
    <glyph glyph-name="threequarters" unicode="&#xbe;" horiz-adv-x="795" 
d="M197 333q-63 0 -104.5 26t-45.5 68l19 13q1 -15 11.5 -29.5t28 -26t41 -18t50.5 -6.5q26 0 49 6t39.5 16.5t26 25.5t9.5 33q0 38 -40.5 60.5t-108.5 22.5h-22v24h22q65 0 100.5 19t35.5 55q0 38 -33.5 61t-84.5 23q-42 0 -73 -16.5t-45 -42.5l-19 19q16 30 53.5 47.5
t83.5 17.5q31 0 58 -8t47 -22.5t31 -34t11 -42.5q0 -69 -90 -87q47 -8 74.5 -35t27.5 -65q0 -23 -12 -42.5t-32.5 -33t-48.5 -21t-59 -7.5zM666 0v108h-232v24l240 256h19v-254h56v-26h-56v-108h-27zM468 134h198v211zM148 16l279 347l277 349l22 -17l-280 -349l-276 -348z
" />
    <glyph glyph-name="trademark" unicode="&#x2122;" horiz-adv-x="673" 
d="M277 684h-95v-254h-28v254h-95v28h218v-28zM556 710h35v-280h-28v233l-94 -191h-24l-94 191v-233h-28v280h34l100 -203z" />
    <glyph glyph-name="two" unicode="2" horiz-adv-x="515" 
d="M57 0q0 23 4.5 57t21.5 71.5t50.5 73t92.5 61.5q28 12 60.5 25.5t60.5 32.5t46.5 44.5t18.5 62.5q0 22 -9.5 43.5t-28.5 38.5t-48 28t-68 11q-36 0 -65 -11t-50 -25.5t-34 -29t-18 -20.5l-25 23q2 2 16 17t39 32.5t60.5 31.5t80.5 14t79.5 -13t58 -34t35.5 -48.5
t12 -55.5q0 -44 -20 -74t-49 -51t-63 -35.5t-61 -26.5q-45 -20 -75.5 -49.5t-49 -60t-27 -58t-9.5 -43.5h365v-32h-401z" />
    <glyph glyph-name="two.lnum" horiz-adv-x="573" 
d="M54 0q-1 8 -1 15v15q0 61 15 107.5t42 81t63.5 59.5t79.5 43q36 15 75.5 29.5t72.5 36t54.5 53t21.5 80.5q0 32 -10.5 62t-33 53t-56.5 37t-80 14q-44 0 -78.5 -12t-60 -29t-43.5 -36.5t-28 -34.5l-25 20q1 3 16.5 23t45 42.5t73.5 41t103 18.5q54 0 94 -17t66.5 -45
t39.5 -64t13 -74q0 -54 -23.5 -90t-58.5 -60.5t-76 -40.5t-76 -31q-65 -27 -102 -60t-56 -68.5t-24 -70.5t-5 -66h422v-32h-460z" />
    <glyph glyph-name="twosuperior" unicode="&#xb2;" horiz-adv-x="376" 
d="M40 338q0 38 8.5 66t24 49t38.5 35.5t53 25.5q22 9 47 17t45 19.5t33.5 28t13.5 41.5q0 34 -27 59.5t-83 25.5q-27 0 -48 -6t-36.5 -15t-26.5 -19.5t-18 -18.5l-19 18q2 3 12 13.5t29 22.5t46.5 21.5t63.5 9.5q69 0 102.5 -33.5t33.5 -78.5q0 -30 -15 -50.5t-36.5 -34
t-46.5 -22t-46 -14.5q-38 -11 -60 -28t-33 -35.5t-14 -37t-3 -33.5h254v-26h-292z" />
    <glyph glyph-name="twothirds" unicode="&#x2154;" horiz-adv-x="834" 
d="M637 -5q-63 0 -104.5 26t-45.5 68l19 13q1 -15 11.5 -30t28 -26t41 -18t50.5 -7q26 0 49 6t39.5 17t26 25.5t9.5 32.5q0 38 -40.5 61t-108.5 23h-22v24h22q65 0 100.5 19t35.5 55q0 38 -33.5 61t-84.5 23q-42 0 -73 -16.5t-45 -42.5l-19 19q16 29 53.5 47t83.5 18
q31 0 58 -8.5t47 -22.5t31 -34t11 -42q0 -68 -90 -88q47 -8 74.5 -34.5t27.5 -64.5q0 -23 -12 -42.5t-32.5 -33t-48.5 -21t-59 -7.5zM51 338q0 76 31.5 115t91.5 61q22 9 46.5 17t44.5 19.5t33.5 28t13.5 41.5q0 34 -27 59.5t-82 25.5q-27 0 -48 -6t-36.5 -15t-26.5 -19.5
t-17 -18.5l-19 18q2 3 12 13.5t28.5 22.5t46 21.5t63.5 9.5q68 0 101.5 -33.5t33.5 -78.5q0 -30 -15 -50.5t-36.5 -34t-46.5 -22t-45 -14.5q-38 -11 -60 -28t-33 -35.5t-14 -37t-3 -33.5h253v-26h-290zM140 16l279 347l277 349l22 -17l-280 -349l-276 -348z" />
    <glyph glyph-name="u" unicode="u" horiz-adv-x="580" 
d="M241 -10q-83 0 -125 59t-42 175v296h34v-292q0 -206 140 -206q35 0 69 12.5t62.5 34.5t50 53t33.5 68v330h34v-466q0 -22 18 -22v-32q-3 -1 -5.5 -1h-4.5q-17 0 -28.5 14t-11.5 29v86q-34 -64 -94 -101t-130 -37z" />
    <glyph glyph-name="u.alt" horiz-adv-x="577" 
d="M463 0v127q-16 -31 -39.5 -56t-52 -43t-61 -28t-65.5 -10q-54 0 -87 20t-52 53t-25.5 75t-6.5 86v296h34v-292q0 -42 6 -79.5t21.5 -65.5t43.5 -44.5t72 -16.5q37 0 71 14t62 37t48.5 53.5t30.5 63.5v330h34v-520h-34z" />
    <glyph glyph-name="uacute" unicode="&#xfa;" horiz-adv-x="580" 
d="M275 638l-24 13l62 79h45zM241 -10q-83 0 -125 59t-42 175v296h34v-292q0 -206 140 -206q35 0 69 12.5t62.5 34.5t50 53t33.5 68v330h34v-466q0 -22 18 -22v-32q-3 -1 -5.5 -1h-4.5q-17 0 -28.5 14t-11.5 29v86q-34 -64 -94 -101t-130 -37z" />
    <glyph glyph-name="ubreve" unicode="&#x16d;" horiz-adv-x="580" 
d="M241 -10q-83 0 -125 59t-42 175v296h34v-292q0 -206 140 -206q35 0 69 12.5t62.5 34.5t50 53t33.5 68v330h34v-466q0 -22 18 -22v-32q-3 -1 -5.5 -1h-4.5q-17 0 -28.5 14t-11.5 29v86q-34 -64 -94 -101t-130 -37zM283 668q20 0 36.5 18t19.5 44h25q0 -17 -6.5 -32.5
t-18 -27t-26 -18t-30.5 -6.5q-17 0 -31.5 6.5t-25.5 18t-17.5 27t-6.5 32.5h26q0 -23 17 -42.5t38 -19.5z" />
    <glyph glyph-name="ucircumflex" unicode="&#xfb;" horiz-adv-x="580" 
d="M176 653l94 77h26l95 -77l-23 -15l-85 63l-85 -63zM241 -10q-83 0 -125 59t-42 175v296h34v-292q0 -206 140 -206q35 0 69 12.5t62.5 34.5t50 53t33.5 68v330h34v-466q0 -22 18 -22v-32q-3 -1 -5.5 -1h-4.5q-17 0 -28.5 14t-11.5 29v86q-34 -64 -94 -101t-130 -37z" />
    <glyph glyph-name="udieresis" unicode="&#xfc;" horiz-adv-x="580" 
d="M205 647v82h31v-82h-31zM331 647v82h31v-82h-31zM241 -10q-83 0 -125 59t-42 175v296h34v-292q0 -206 140 -206q35 0 69 12.5t62.5 34.5t50 53t33.5 68v330h34v-466q0 -22 18 -22v-32q-3 -1 -5.5 -1h-4.5q-17 0 -28.5 14t-11.5 29v86q-34 -64 -94 -101t-130 -37z" />
    <glyph glyph-name="ugrave" unicode="&#xf9;" horiz-adv-x="580" 
d="M241 -10q-83 0 -125 59t-42 175v296h34v-292q0 -206 140 -206q35 0 69 12.5t62.5 34.5t50 53t33.5 68v330h34v-466q0 -22 18 -22v-32q-3 -1 -5.5 -1h-4.5q-17 0 -28.5 14t-11.5 29v86q-34 -64 -94 -101t-130 -37zM208 730h44l63 -79l-24 -13z" />
    <glyph glyph-name="uhungarumlaut" unicode="&#x171;" horiz-adv-x="580" 
d="M241 -10q-83 0 -125 59t-42 175v296h34v-292q0 -206 140 -206q35 0 69 12.5t62.5 34.5t50 53t33.5 68v330h34v-466q0 -22 18 -22v-32q-3 -1 -5.5 -1h-4.5q-17 0 -28.5 14t-11.5 29v86q-34 -64 -94 -101t-130 -37zM219 638l-22 13l62 79h43zM327 638l-23 13l62 79h43z" />
    <glyph glyph-name="umacron" unicode="&#x16b;" horiz-adv-x="580" 
d="M241 -10q-83 0 -125 59t-42 175v296h34v-292q0 -206 140 -206q35 0 69 12.5t62.5 34.5t50 53t33.5 68v330h34v-466q0 -22 18 -22v-32q-3 -1 -5.5 -1h-4.5q-17 0 -28.5 14t-11.5 29v86q-34 -64 -94 -101t-130 -37zM142 679v28h283v-28h-283z" />
    <glyph glyph-name="underscore" unicode="_" horiz-adv-x="432" 
d="M21 -32v32h390v-32h-390z" />
    <glyph glyph-name="uni00A0" unicode="&#xa0;" horiz-adv-x="265" 
 />
    <glyph glyph-name="uni00AD" unicode="&#xad;" horiz-adv-x="554" 
d="M70 255v33h414v-33h-414z" />
    <glyph glyph-name="uni015E" unicode="&#x15e;" horiz-adv-x="611" 
d="M251 -125q14 -7 37.5 -12.5t49.5 -5.5q29 0 43.5 8.5t14.5 28.5q0 21 -13.5 29t-35.5 8q-21 0 -44 -5t-37 -10l45 79q-82 2 -148 28t-122 80l20 25q50 -51 114 -77t145 -26q100 0 157.5 36.5t57.5 111.5q0 38 -14 64.5t-42.5 45t-71.5 32t-102 25.5q-58 12 -103 25
t-75.5 33t-46 49t-15.5 73q0 47 18 83.5t50.5 61t78.5 37.5t103 13q69 0 120.5 -20t94.5 -64l-19 -26q-38 43 -85 60.5t-110 17.5q-114 0 -165 -43t-51 -115q0 -36 12.5 -60.5t39 -41.5t67.5 -28.5t98 -23.5q58 -12 105 -26t80 -35.5t51 -53.5t18 -79q0 -86 -62.5 -131.5
t-168.5 -49.5l-30 -51q10 4 21.5 5t19.5 1q70 0 70 -56q0 -32 -22.5 -46.5t-64.5 -14.5q-27 0 -51.5 5.5t-43.5 13.5z" />
    <glyph glyph-name="uni015F" unicode="&#x15f;" horiz-adv-x="477" 
d="M163 -125q14 -7 37.5 -12.5t49.5 -5.5q29 0 43.5 8.5t14.5 28.5q0 21 -13.5 29t-35.5 8q-21 0 -44 -5t-37 -10l42 75q-54 3 -101 23t-84 58l19 23q42 -38 86 -57t98 -19q73 0 118 31t45 87q0 26 -11.5 43.5t-33.5 30t-54.5 22t-74.5 19.5q-43 10 -74.5 19.5t-52.5 22.5
t-31 33t-10 51q0 39 15 67t40.5 46.5t59 27.5t71.5 9q63 0 108.5 -21t66.5 -53l-23 -17q-22 30 -64.5 46t-90.5 16q-31 0 -58 -6.5t-47.5 -21t-32.5 -36.5t-12 -52q0 -24 8 -40t25.5 -26.5t44 -18t64.5 -16.5q48 -11 85 -22t63 -26t39.5 -37t13.5 -56q0 -68 -50.5 -108
t-135.5 -43l-27 -45q10 4 21.5 5t19.5 1q70 0 70 -56q0 -32 -22.5 -46.5t-64.5 -14.5q-27 0 -51.5 5.5t-43.5 13.5z" />
    <glyph glyph-name="uni0162" unicode="&#x162;" horiz-adv-x="611" 
d="M228 -125q14 -7 37.5 -12.5t49.5 -5.5q29 0 43.5 8.5t14.5 28.5q0 21 -13.5 29t-35.5 8q-21 0 -44 -5t-37 -10l49 84h-4v678h-266v32h567v-32h-266v-678h-4l-32 -55q10 4 21.5 5t19.5 1q70 0 70 -56q0 -32 -22.5 -46.5t-64.5 -14.5q-27 0 -51.5 5.5t-43.5 13.5z" />
    <glyph glyph-name="uni0163" unicode="&#x163;" horiz-adv-x="306" 
d="M121 -125q14 -7 37.5 -12.5t49.5 -5.5q29 0 43.5 8.5t14.5 28.5q0 21 -13.5 29t-35.5 8q-21 0 -44 -5t-37 -10l45 80q-33 5 -56.5 26.5t-23.5 58.5v409h-74v30h74v179h34v-179h124v-30h-124v-404q2 -29 22 -44t46 -15q16 0 30.5 3.5t26 8t18 8.5t8.5 5l13 -28
q-2 -1 -9.5 -5t-19 -8.5t-27 -9t-33.5 -5.5l-30 -51q10 4 21.5 5t19.5 1q70 0 70 -56q0 -32 -22.5 -46.5t-64.5 -14.5q-27 0 -51.5 5.5t-43.5 13.5z" />
    <glyph glyph-name="uni0218" unicode="&#x218;" horiz-adv-x="611" 
d="M289 -128q16 0 16 14v64h31v-62q0 -21 -12.5 -30.5t-34.5 -9.5v24zM511 605q-38 43 -85 60.5t-110 17.5q-114 0 -165 -43t-51 -115q0 -36 12.5 -60.5t39 -41.5t67.5 -28.5t98 -23.5q58 -12 105 -26t80 -35.5t51 -53.5t18 -79q0 -45 -18 -79t-51 -57t-79.5 -34.5
t-103.5 -11.5q-85 0 -153 26.5t-125 81.5l20 25q50 -51 114 -77t145 -26q100 0 157.5 36.5t57.5 111.5q0 38 -14 64.5t-42.5 45t-71.5 32t-102 25.5q-58 12 -103 25t-75.5 33t-46 49t-15.5 73q0 47 18 83.5t50.5 61t78.5 37.5t103 13q69 0 120.5 -20t94.5 -64z" />
    <glyph glyph-name="uni0219" unicode="&#x219;" horiz-adv-x="476" 
d="M208 -128q16 0 16 14v64h31v-62q0 -21 -12.5 -30.5t-34.5 -9.5v24zM239 -10q-60 0 -112 20t-92 62l19 23q42 -38 86 -57t98 -19q73 0 118 31t45 87q0 26 -11.5 43.5t-33.5 30t-54.5 22t-74.5 19.5q-43 10 -74.5 19.5t-52.5 22.5t-31 33t-10 51q0 39 15 67t40.5 46.5
t59 27.5t71.5 9q63 0 108.5 -21t66.5 -53l-23 -17q-22 30 -64.5 46t-90.5 16q-31 0 -58 -6.5t-47.5 -21t-32.5 -36.5t-12 -52q0 -24 8 -40t25.5 -26.5t44 -18t64.5 -16.5q48 -11 85 -22t63 -26t39.5 -37t13.5 -56q0 -35 -14 -62.5t-39.5 -47.5t-62 -30.5t-80.5 -10.5z" />
    <glyph glyph-name="uni021A" unicode="&#x21a;" horiz-adv-x="611" 
d="M275 -128q16 0 16 14v64h31v-62q0 -21 -12.5 -30.5t-34.5 -9.5v24zM589 678h-266v-678h-35v678h-266v32h567v-32z" />
    <glyph glyph-name="uni021B" unicode="&#x21b;" horiz-adv-x="306" 
d="M166 -128q16 0 16 14v64h31v-62q0 -21 -12.5 -30.5t-34.5 -9.5v24zM299 24q-2 -1 -10.5 -5.5t-22 -10t-31 -9.5t-38.5 -4q-19 0 -36.5 6t-30.5 17t-21 27t-8 36v409h-74v30h74v179h34v-179h124v-30h-124v-404q2 -29 22 -44t46 -15q16 0 30.5 3.5t26 8t18 8.5t8.5 5z" />
    <glyph glyph-name="uni03BC" unicode="&#x3bc;" horiz-adv-x="586" 
d="M80 520h34v-292q0 -206 140 -206q35 0 69 12.5t62.5 34.5t50 53t33.5 68v330h34v-466q0 -22 18 -22v-32q-3 -1 -5.5 -1h-4.5q-17 0 -28.5 13t-11.5 30v86q-16 -31 -39.5 -56.5t-52 -43.5t-60.5 -28t-66 -10q-53 0 -88 25t-52 73v-300h-33v732z" />
    <glyph glyph-name="uni2215" unicode="&#x2215;" horiz-adv-x="562" 
d="M-10 17l560 695l23 -19l-559 -695z" />
    <glyph glyph-name="uni2219" unicode="&#x2219;" horiz-adv-x="171" 
d="M70 249v91h31v-91h-31z" />
    <glyph glyph-name="uogonek" unicode="&#x173;" horiz-adv-x="580" 
d="M241 -10q-83 0 -125 59t-42 175v296h34v-292q0 -206 140 -206q35 0 69 12.5t62.5 34.5t50 53t33.5 68v330h34v-466q0 -22 18 -22v-32q-45 -30 -63.5 -51t-18.5 -43q0 -38 47 -47l-14 -23q-29 7 -44 24t-15 41q0 25 18 49.5t60 54.5q-9 6 -14.5 16t-5.5 21v86
q-34 -64 -94 -101t-130 -37z" />
    <glyph glyph-name="uring" unicode="&#x16f;" horiz-adv-x="580" 
d="M222 671q0 26 17.5 42.5t43.5 16.5q27 0 44.5 -16.5t17.5 -42.5t-17.5 -43t-44.5 -17q-26 0 -43.5 17t-17.5 43zM283 711q-17 0 -28.5 -11t-11.5 -29q0 -17 11.5 -29t28.5 -12q16 0 28.5 11.5t12.5 29.5t-12 29t-29 11zM241 -10q-83 0 -125 59t-42 175v296h34v-292
q0 -206 140 -206q35 0 69 12.5t62.5 34.5t50 53t33.5 68v330h34v-466q0 -22 18 -22v-32q-3 -1 -5.5 -1h-4.5q-17 0 -28.5 14t-11.5 29v86q-34 -64 -94 -101t-130 -37z" />
    <glyph glyph-name="utilde" unicode="&#x169;" horiz-adv-x="580" 
d="M241 -10q-83 0 -125 59t-42 175v296h34v-292q0 -206 140 -206q35 0 69 12.5t62.5 34.5t50 53t33.5 68v330h34v-466q0 -22 18 -22v-32q-3 -1 -5.5 -1h-4.5q-17 0 -28.5 14t-11.5 29v86q-34 -64 -94 -101t-130 -37zM344 656q-22 0 -38.5 6t-31 13t-27.5 13t-29 6t-26 -6.5
t-15 -15t-7 -16.5t-2 -10h-27q0 3 2.5 15.5t11 25.5t24 23.5t41.5 10.5q20 0 35 -6t28.5 -13.5t28 -13.5t33.5 -6q21 0 32.5 7t17.5 15.5t7.5 16t1.5 9.5h26q0 -4 -3 -16t-12 -25t-26 -23t-45 -10z" />
    <glyph glyph-name="v" unicode="v" horiz-adv-x="523" 
d="M245 0l-222 520h36l203 -481l203 481h35l-222 -520h-33z" />
    <glyph glyph-name="w" unicode="w" horiz-adv-x="800" 
d="M743 520h35l-226 -520h-29l-123 284l-122 -284h-29l-226 520h34l207 -479l118 273l-88 205h32l74 -175l74 175h32l-87 -205l117 -273z" />
    <glyph glyph-name="w.alt" horiz-adv-x="808" 
d="M561 0l-157 471l-157 -471h-33l-186 520h37l166 -474l156 474h34l156 -474l167 474h36l-185 -520h-34z" />
    <glyph glyph-name="wacute" unicode="&#x1e83;" horiz-adv-x="800" 
d="M392 638l-24 13l62 79h45zM743 520h35l-226 -520h-29l-123 284l-122 -284h-29l-226 520h34l207 -479l118 273l-88 205h32l74 -175l74 175h32l-87 -205l117 -273z" />
    <glyph glyph-name="wcircumflex" unicode="&#x175;" horiz-adv-x="800" 
d="M293 653l94 77h26l95 -77l-23 -15l-85 63l-85 -63zM743 520h35l-226 -520h-29l-123 284l-122 -284h-29l-226 520h34l207 -479l118 273l-88 205h32l74 -175l74 175h32l-87 -205l117 -273z" />
    <glyph glyph-name="wdieresis" unicode="&#x1e85;" horiz-adv-x="800" 
d="M322 647v82h31v-82h-31zM448 647v82h31v-82h-31zM743 520h35l-226 -520h-29l-123 284l-122 -284h-29l-226 520h34l207 -479l118 273l-88 205h32l74 -175l74 175h32l-87 -205l117 -273z" />
    <glyph glyph-name="wgrave" unicode="&#x1e81;" horiz-adv-x="800" 
d="M743 520h35l-226 -520h-29l-123 284l-122 -284h-29l-226 520h34l207 -479l118 273l-88 205h32l74 -175l74 175h32l-87 -205l117 -273zM325 730h44l63 -79l-24 -13z" />
    <glyph glyph-name="x" unicode="x" horiz-adv-x="486" 
d="M57 520l178 -226l8 -13l8 13l178 226h40l-206 -262l204 -258h-40l-176 224l-8 12l-8 -12l-176 -224h-40l204 258l-206 262h40z" />
    <glyph glyph-name="y" unicode="y" horiz-adv-x="541" 
d="M121 -191q18 0 31.5 2t18.5 6q3 2 7.5 10t14 27.5t24.5 54.5l39 91l-237 520h37l218 -484l206 484h34l-298 -696q-12 -28 -30.5 -37t-44.5 -9h-20v31z" />
    <glyph glyph-name="y.alt" horiz-adv-x="540" 
d="M518 520l-311 -733h-35l87 213l-236 520h36l218 -484l206 484h35z" />
    <glyph glyph-name="yacute" unicode="&#xfd;" horiz-adv-x="541" 
d="M121 -191q18 0 31.5 2t18.5 6q3 2 7.5 10t14 27.5t24.5 54.5l39 91l-237 520h37l218 -484l206 484h34l-298 -696q-12 -28 -30.5 -37t-44.5 -9h-20v31zM266 638l-24 13l62 79h45z" />
    <glyph glyph-name="ycircumflex" unicode="&#x177;" horiz-adv-x="541" 
d="M121 -191q18 0 31.5 2t18.5 6q3 2 7.5 10t14 27.5t24.5 54.5l39 91l-237 520h37l218 -484l206 484h34l-298 -696q-12 -28 -30.5 -37t-44.5 -9h-20v31zM167 653l94 77h26l95 -77l-23 -15l-85 63l-85 -63z" />
    <glyph glyph-name="ydieresis" unicode="&#xff;" horiz-adv-x="541" 
d="M121 -191q18 0 31.5 2t18.5 6q3 2 7.5 10t14 27.5t24.5 54.5l39 91l-237 520h37l218 -484l206 484h34l-298 -696q-12 -28 -30.5 -37t-44.5 -9h-20v31zM195 647v82h31v-82h-31zM321 647v82h31v-82h-31z" />
    <glyph glyph-name="yen" unicode="&#xa5;" horiz-adv-x="660" 
d="M395 348h91v-28h-108l-31 -48v-25h139v-28h-139v-219h-35v219h-138v28h138v27l-29 46h-109v28h92l-237 362h39l261 -403l264 403h38z" />
    <glyph glyph-name="ygrave" unicode="&#x1ef3;" horiz-adv-x="541" 
d="M121 -191q18 0 31.5 2t18.5 6q3 2 7.5 10t14 27.5t24.5 54.5l39 91l-237 520h37l218 -484l206 484h34l-298 -696q-12 -28 -30.5 -37t-44.5 -9h-20v31zM199 730h44l63 -79l-24 -13z" />
    <glyph glyph-name="ytilde" unicode="&#x1ef9;" horiz-adv-x="541" 
d="M121 -191q18 0 31.5 2t18.5 6q3 2 7.5 10t14 27.5t24.5 54.5l39 91l-237 520h37l218 -484l206 484h34l-298 -696q-12 -28 -30.5 -37t-44.5 -9h-20v31zM335 656q-22 0 -38.5 6t-31 13t-27.5 13t-29 6t-26 -6.5t-15 -15t-7 -16.5t-2 -10h-27q0 3 2.5 15.5t11 25.5t24 23.5
t41.5 10.5q20 0 35 -6t28.5 -13.5t28 -13.5t33.5 -6q21 0 32.5 7t17.5 15.5t7.5 16t1.5 9.5h26q0 -4 -3 -16t-12 -25t-26 -23t-45 -10z" />
    <glyph glyph-name="z" unicode="z" horiz-adv-x="484" 
d="M30 28l383 463h-377v29h417v-28l-382 -463h379v-29h-420v28z" />
    <glyph glyph-name="zacute" unicode="&#x17a;" horiz-adv-x="484" 
d="M248 638l-24 13l62 79h45zM30 28l383 463h-377v29h417v-28l-382 -463h379v-29h-420v28z" />
    <glyph glyph-name="zcaron" unicode="&#x17e;" horiz-adv-x="484" 
d="M171 730l85 -63l85 63l23 -14l-95 -78h-26l-94 78zM30 28l383 463h-377v29h417v-28l-382 -463h379v-29h-420v28z" />
    <glyph glyph-name="zdotaccent" unicode="&#x17c;" horiz-adv-x="484" 
d="M30 28l383 463h-377v29h417v-28l-382 -463h379v-29h-420v28zM240 647v83h32v-83h-32z" />
    <glyph glyph-name="zero" unicode="0" horiz-adv-x="616" 
d="M555 293q0 -66 -18.5 -121.5t-51.5 -96t-78 -63t-99 -22.5t-99 22.5t-78 63t-51.5 96t-18.5 121.5t18.5 121.5t51.5 96t78 63.5t99 23t99 -23t78 -63.5t51.5 -96t18.5 -121.5zM520 293q0 60 -15.5 110t-43.5 86t-67 55.5t-86 19.5t-86.5 -19.5t-67.5 -55.5t-43.5 -86
t-15.5 -110t15.5 -110t43.5 -85.5t67.5 -55t86.5 -19.5t86 19.5t67 55t43.5 85.5t15.5 110z" />
    <glyph glyph-name="zero.lnum" horiz-adv-x="681" 
d="M340 -10q-71 0 -124 34t-89 86.5t-54 116t-18 123.5q0 64 20 128.5t56.5 116t89.5 83.5t119 32q71 0 124.5 -34.5t89.5 -87.5t54 -116.5t18 -121.5q0 -65 -20 -129.5t-57 -115.5t-90 -83t-119 -32zM90 350q0 -57 16.5 -115.5t48.5 -105.5t78.5 -76.5t106.5 -29.5
q63 0 110 31.5t78.5 80t47 106t15.5 109.5q0 57 -17.5 115.5t-49.5 105.5t-79 76.5t-105 29.5q-63 0 -109.5 -31.5t-78 -80t-47 -106t-15.5 -109.5z" />
    <glyph glyph-name="zeroinferior" unicode="&#x2080;" horiz-adv-x="443" 
d="M222 -5q-45 0 -79 18.5t-56.5 47t-34 63t-11.5 67.5q0 35 12.5 70t36 63.5t57 46t75.5 17.5q45 0 78.5 -19t56 -48t34 -63.5t11.5 -66.5q0 -36 -12.5 -71t-35.5 -62.5t-56.5 -45t-75.5 -17.5zM68 191q0 -30 10.5 -60t30 -54.5t48 -40t65.5 -15.5q38 0 67 16.5t48 42
t28.5 55t9.5 56.5q0 30 -10.5 60.5t-30 54.5t-48 39.5t-64.5 15.5q-39 0 -67.5 -16.5t-48 -41.5t-29 -55t-9.5 -57z" />
    <glyph glyph-name="zerosuperior" unicode="&#x2070;" horiz-adv-x="443" 
d="M222 337q-45 0 -79 19t-56.5 47.5t-34 63t-11.5 67.5q0 35 12.5 70t36 63t57 45.5t75.5 17.5q45 0 78.5 -18.5t56 -47.5t34 -63.5t11.5 -66.5q0 -36 -12.5 -71t-35.5 -63t-56.5 -45.5t-75.5 -17.5zM68 534q0 -30 10.5 -60.5t30 -54.5t48 -39.5t65.5 -15.5q38 0 67 16.5
t48 41.5t28.5 55t9.5 57q0 30 -10.5 60t-30 54.5t-48 40t-64.5 15.5q-39 0 -67.5 -16.5t-48 -42t-29 -55t-9.5 -56.5z" />
    </font>
</defs>
</svg>
