<?xml version="1.0" standalone="no"?>
<!DOCTYPE svg PUBLIC "-//W3C//DTD SVG 1.1//EN" "http://www.w3.org/Graphics/SVG/1.1/DTD/svg11.dtd" >
<svg xmlns="http://www.w3.org/2000/svg" width="100%" height="100%">
<metadata>
Created by FontXChange 20110222 at Fri Dec  5 12:07:13 2014
 By Timothy Brister
Copyright (c) 2009 by Hannes von Dhren. All rights reserved.
</metadata>
<defs>
<font id="BrandonGrotesque-Light" horiz-adv-x="486" >
  <font-face 
    font-family="BrandonGrotesque"
    font-weight="330"
    font-stretch="normal"
    units-per-em="1000"
    panose-1="2 11 3 3 2 2 3 6 2 2"
    ascent="700"
    descent="-300"
    x-height="400"
    cap-height="700"
    bbox="-143.386 -346.385 1036 1026.89"
    underline-thickness="50"
    underline-position="-50"
    stemh="43"
    stemv="44"
    unicode-range="U+0020-FB02"
  />
<missing-glyph horiz-adv-x="599" 
d="M50 30v640c0 21 9 30 30 30h439c21 0 30 -9 30 -30v-640c0 -21 -9 -30 -30 -30h-439c-21 0 -30 9 -30 30zM262 314c0 -7 7 -12 14 -12h36c9 0 15 4 15 13v26c0 48 105 63 105 150c0 65 -54 111 -125 111c-87 0 -130 -61 -130 -61c-4 -6 -6 -13 0 -18l22 -22
c6 -4 11 -4 17 0c13 12 36 41 84 41c40 0 61 -25 61 -52c0 -63 -99 -72 -99 -147v-29zM245 156c0 -26 22 -48 48 -48c27 0 49 22 49 48s-22 48 -49 48c-26 0 -48 -22 -48 -48z" />
    <glyph glyph-name="fi" unicode="fi" horiz-adv-x="517" 
d="M102 13v348h-65c-10 0 -13 7 -13 15v11c0 7 5 13 13 13h65v133c0 118 78 177 164 177c74 0 129 -38 146 -54c4 -3 4 -10 1 -15l-11 -16c-4 -6 -10 -5 -16 -1c-18 12 -59 46 -120 46s-121 -45 -121 -137v-133h283c7 0 13 -6 13 -13v-374c0 -8 -7 -13 -14 -13h-17
c-7 0 -13 6 -13 13v348h-252v-348c0 -7 -6 -13 -13 -13h-17c-7 0 -13 6 -13 13z" />
    <glyph glyph-name="fl" unicode="fl" horiz-adv-x="522" 
d="M103 13v348h-66c-9 0 -13 7 -13 13v13c0 7 6 13 13 13h66v138c0 118 77 172 163 172c78 0 127 -42 139 -54l4 32c2 7 5 12 17 12h7c7 0 13 -6 13 -13v-674c0 -8 -7 -13 -14 -13h-17c-7 0 -13 6 -13 13v592c-10 9 -56 62 -133 62c-61 0 -123 -37 -123 -129v-138h148
c8 0 13 -5 13 -12v-15c0 -7 -4 -12 -13 -12h-148v-348c0 -7 -6 -13 -13 -13h-18c-7 0 -12 6 -12 13z" />
    <glyph glyph-name="f_f" unicode="ff" horiz-adv-x="582" 
d="M101 13v348h-61c-9 0 -13 7 -13 13v13c0 7 6 13 13 13h61v113c0 132 79 187 174 187c67 0 109 -30 128 -46c27 38 68 56 118 56c51 0 97 -24 112 -43c5 -6 5 -12 2 -16l-10 -14c-4 -6 -11 -7 -17 -1c-15 14 -50 34 -87 34c-62 0 -107 -41 -107 -133v-137h148
c8 0 13 -5 13 -12v-15c0 -7 -4 -12 -13 -12h-148v-348c0 -8 -7 -13 -14 -13h-16c-7 0 -13 6 -13 13v348h-227v-348c0 -8 -7 -13 -14 -13h-16c-7 0 -13 6 -13 13zM144 400h227v137c0 31 4 57 12 79c-15 17 -60 44 -109 44c-78 0 -130 -45 -130 -148v-112z" />
    <glyph glyph-name="f_f_i" unicode="ffi" horiz-adv-x="786" 
d="M101 13v348h-61c-9 0 -13 7 -13 13v13c0 7 6 13 13 13h61v113c0 131 79 187 172 187c71 0 115 -33 134 -48c30 38 77 58 127 58c74 0 130 -38 147 -54c4 -3 4 -10 1 -15l-11 -16c-4 -6 -10 -5 -16 -1c-18 12 -59 46 -120 46c-70 0 -121 -51 -121 -138v-132h283
c7 0 13 -6 13 -13v-374c0 -8 -7 -13 -14 -13h-17c-7 0 -13 6 -13 13v348h-252v-348c0 -8 -7 -13 -14 -13h-16c-7 0 -13 6 -13 13v348h-227v-348c0 -8 -7 -13 -14 -13h-16c-7 0 -13 6 -13 13zM144 400h227v133c0 31 6 58 16 81c-16 17 -62 46 -114 46
c-75 0 -129 -45 -129 -147v-113z" />
    <glyph glyph-name="f_f_l" unicode="ffl" horiz-adv-x="790" 
d="M101 13v348h-60c-9 0 -13 7 -13 13v13c0 7 6 13 13 13h60v113c0 132 79 187 174 187c67 0 111 -32 130 -47c30 38 77 57 131 57c76 0 125 -42 138 -54l4 32c1 7 5 12 17 12h6c7 0 13 -6 13 -13v-674c0 -7 -6 -13 -13 -13c-12 0 -30 -2 -30 13v592c-10 9 -57 62 -134 62
c-61 0 -123 -37 -123 -129v-138h148c8 0 13 -5 13 -12v-15c0 -7 -4 -12 -13 -12h-148v-348c0 -8 -7 -13 -14 -13h-16c-7 0 -13 6 -13 13v348h-226l-1 -348c0 -8 -7 -13 -14 -13h-16c-7 0 -13 6 -13 13zM145 400h226v138c0 30 5 55 14 76c-16 18 -62 46 -110 46
c-79 0 -130 -45 -130 -149v-111z" />
    <glyph glyph-name="f_f_h" unicode="ffh" horiz-adv-x="1090" 
d="M101 13v348h-60c-9 0 -13 7 -13 13v13c0 7 6 13 13 13h60v113c0 132 79 187 174 187c67 0 111 -32 130 -47c30 38 77 57 131 57c76 0 125 -42 138 -54l4 32c1 6 5 12 14 12h9c7 0 13 -6 13 -13v-341c13 13 66 64 145 64c112 0 161 -71 161 -183v-214c0 -7 -6 -13 -13 -13
h-18c-7 0 -13 6 -13 13v214c0 92 -43 140 -119 140c-82 0 -139 -65 -143 -70v-284c0 -8 -7 -13 -14 -13h-16c-7 0 -13 6 -13 13v592c-10 9 -57 62 -134 62c-61 0 -123 -37 -123 -129v-138h148c8 0 13 -5 13 -12v-15c0 -7 -4 -12 -13 -12h-148v-348c0 -8 -7 -13 -14 -13h-16
c-7 0 -13 6 -13 13v348h-226v-348c0 -8 -4 -13 -13 -13h-20c-7 0 -11 6 -11 13zM145 400h226v138c0 30 5 55 14 76c-16 18 -62 46 -110 46c-79 0 -130 -45 -130 -146v-114z" />
    <glyph glyph-name="f_k" unicode="fk" horiz-adv-x="753" 
d="M103 13v348h-66c-9 0 -13 7 -13 13v13c0 7 6 13 13 13h66v138c0 118 77 172 163 172c78 0 127 -42 139 -54l4 32c1 6 5 12 13 12h9c7 0 13 -6 13 -13v-448l213 155c5 4 11 6 16 6h29c10 0 11 -13 3 -18l-215 -158l241 -207c8 -7 3 -17 -5 -17h-31c-6 0 -11 1 -20 8
l-231 199v-194c0 -8 -4 -13 -13 -13h-18c-7 0 -11 6 -11 13v592c-10 9 -56 62 -133 62c-61 0 -123 -37 -123 -129v-138h148c8 0 13 -5 13 -12v-15c0 -7 -4 -12 -13 -12h-148v-348c0 -8 -7 -13 -14 -13h-16c-7 0 -13 6 -13 13z" />
    <glyph glyph-name="f_j" unicode="fj" horiz-adv-x="517" 
d="M102 13v348h-65c-9 0 -13 7 -13 13v13c0 7 6 13 13 13h65v133c0 118 78 177 164 177c74 0 129 -38 146 -54c4 -3 4 -10 1 -15l-11 -16c-4 -6 -10 -5 -16 -1c-18 12 -59 46 -120 46c-69 0 -121 -50 -121 -137v-133h283c7 0 13 -6 13 -13l-1 -524
c0 -118 -58 -173 -146 -173c-52 0 -95 26 -112 43c-6 6 -5 10 -2 14l10 16c4 6 11 6 17 0c17 -13 49 -33 87 -33c63 0 103 40 103 133v498h-252v-348c0 -8 -7 -13 -14 -13h-16c-7 0 -13 6 -13 13z" />
    <glyph glyph-name="f_f_j" unicode="ffj" horiz-adv-x="786" 
d="M101 13v348h-61c-9 0 -13 7 -13 13v13c0 7 6 13 13 13h61v113c0 131 79 187 172 187c71 0 115 -33 134 -48c30 38 77 58 127 58c74 0 130 -38 147 -54c4 -3 4 -10 1 -15l-11 -16c-4 -6 -10 -5 -16 -1c-14 11 -59 46 -120 46c-74 0 -121 -54 -121 -155v-115h283
c7 0 13 -6 13 -13v-524c0 -118 -59 -173 -147 -173c-52 0 -95 26 -112 43c-6 6 -5 10 -2 14l10 16c4 6 11 6 17 0c17 -13 49 -33 87 -33c63 0 103 40 103 133v498h-252v-348c0 -8 -7 -13 -14 -13h-16c-7 0 -13 6 -13 13v348h-227v-348c0 -8 -7 -13 -14 -13h-16
c-7 0 -13 6 -13 13zM144 400h227v122c0 42 6 69 16 92c-16 17 -62 46 -114 46c-75 0 -129 -45 -129 -147v-113z" />
    <glyph glyph-name="f_b" unicode="fb" horiz-adv-x="812" 
d="M103 13v348h-66c-9 0 -13 7 -13 13v13c0 7 6 13 13 13h66v138c0 118 77 172 163 172c78 0 127 -42 139 -54l4 32c1 6 5 12 13 12h10c7 0 13 -6 13 -13v-317s48 40 124 40c113 0 196 -91 196 -209c0 -117 -81 -211 -184 -211c-77 0 -127 45 -139 59l-3 -36
c-1 -9 -6 -13 -14 -13h-10c-7 0 -13 6 -13 13v592c-10 9 -56 62 -133 62c-61 0 -123 -37 -123 -129v-138h148c8 0 13 -5 13 -12v-15c0 -7 -4 -12 -13 -12h-148v-348c0 -8 -7 -13 -14 -13h-16c-7 0 -13 6 -13 13zM446 101c2 -4 45 -71 131 -71c84 0 145 77 145 170
c0 95 -66 167 -158 167c-72 0 -118 -42 -118 -42v-224z" />
    <glyph glyph-name="f_f_k" unicode="ffk" horiz-adv-x="1023" 
d="M101 13v348h-60c-9 0 -13 7 -13 13v13c0 7 6 13 13 13h60v113c0 132 79 187 174 187c67 0 111 -32 130 -47c30 38 77 57 131 57c76 0 125 -42 138 -54l4 32c1 6 5 12 13 12h10c7 0 13 -6 13 -13v-448l213 155c5 4 11 6 16 6h29c10 0 11 -13 3 -18l-215 -158l241 -207
c8 -7 3 -17 -5 -17h-31c-6 0 -11 1 -20 8l-231 199v-194c0 -8 -4 -13 -13 -13h-19c-7 0 -11 6 -11 13v592c-10 9 -57 62 -134 62c-61 0 -123 -37 -123 -129v-138h148c8 0 13 -5 13 -12v-15c0 -7 -4 -12 -13 -12h-148v-348c0 -8 -7 -13 -14 -13h-16c-7 0 -13 6 -13 13v348
h-226l-1 -348c0 -8 -7 -13 -14 -13h-16c-7 0 -13 6 -13 13zM145 400h226v138c0 30 5 55 14 76c-16 18 -62 46 -110 46c-79 0 -130 -45 -130 -147v-113z" />
    <glyph glyph-name="f_h" unicode="fh" horiz-adv-x="821" 
d="M103 13v348h-66c-9 0 -13 7 -13 13v13c0 7 6 13 13 13h66v138c0 118 77 172 163 172c78 0 127 -42 139 -54l4 32c1 6 5 12 14 12h10c7 0 13 -6 13 -13v-341c13 13 65 64 144 64c104 0 161 -64 161 -183v-214c0 -7 -6 -13 -13 -13h-18c-7 0 -13 6 -13 13v214
c0 92 -43 140 -119 140c-83 0 -138 -65 -142 -70v-284c0 -8 -4 -13 -13 -13h-20c-7 0 -11 6 -11 13v592c-10 9 -56 62 -133 62c-61 0 -123 -37 -123 -129v-138h148c8 0 13 -5 13 -12v-15c0 -7 -4 -12 -13 -12h-148v-348c0 -8 -7 -13 -14 -13h-16c-7 0 -13 6 -13 13z" />
    <glyph glyph-name="f_f_b" unicode="ffb" horiz-adv-x="1083" 
d="M101 13v348h-60c-9 0 -13 7 -13 13v13c0 7 6 13 13 13h60v113c0 132 79 187 174 187c67 0 111 -32 130 -47c30 38 77 57 131 57c76 0 125 -42 138 -54l4 32c1 6 4 12 12 12h11c7 0 13 -6 13 -13v-317s47 40 123 40c114 0 199 -90 199 -208c0 -117 -83 -212 -186 -212
c-77 0 -127 44 -139 58l-3 -35c-1 -9 -6 -13 -14 -13h-10c-7 0 -13 6 -13 13v592c-10 9 -57 62 -134 62c-61 0 -123 -37 -123 -129v-138h148c8 0 13 -5 13 -12v-15c0 -7 -4 -12 -13 -12h-148v-348c0 -8 -7 -13 -14 -13h-16c-7 0 -13 6 -13 13v348h-226l-1 -348
c0 -8 -7 -13 -14 -13h-16c-7 0 -13 6 -13 13zM145 400h226v138c0 30 5 55 14 76c-16 18 -62 46 -110 46c-79 0 -130 -45 -130 -147v-113zM714 103c2 -4 47 -73 132 -73c84 0 144 77 144 170c0 95 -65 167 -157 167c-73 0 -119 -42 -119 -42v-222z" />
    <glyph glyph-name=".notdef" horiz-adv-x="599" 
d="M50 30v640c0 21 9 30 30 30h439c21 0 30 -9 30 -30v-640c0 -21 -9 -30 -30 -30h-439c-21 0 -30 9 -30 30zM262 314c0 -7 7 -12 14 -12h36c9 0 15 4 15 13v26c0 48 105 63 105 150c0 65 -54 111 -125 111c-87 0 -130 -61 -130 -61c-4 -6 -6 -13 0 -18l22 -22
c6 -4 11 -4 17 0c13 12 36 41 84 41c40 0 61 -25 61 -52c0 -63 -99 -72 -99 -147v-29zM245 156c0 -26 22 -48 48 -48c27 0 49 22 49 48s-22 48 -49 48c-26 0 -48 -22 -48 -48z" />
    <glyph glyph-name=".null" horiz-adv-x="0" 
 />
    <glyph glyph-name="CR" horiz-adv-x="0" 
 />
    <glyph glyph-name="space" unicode=" " horiz-adv-x="217" 
 />
    <glyph glyph-name="exclam" unicode="!" horiz-adv-x="296" 
d="M144 269c-7 0 -13 6 -13 12l-10 284v122c0 11 8 13 15 13h25c7 0 13 -6 13 -13v-121l-9 -285c0 -6 -7 -12 -13 -12h-8zM107 30c0 23 19 40 41 40c23 0 40 -17 40 -40c0 -22 -17 -40 -40 -40c-22 0 -41 18 -41 40z" />
    <glyph glyph-name="quotedbl" unicode="&#x22;" horiz-adv-x="299" 
d="M215 496c-5 0 -9 3 -9 11v180c0 7 6 13 13 13h21c8 0 13 -6 12 -16l-16 -177c-1 -6 -5 -11 -10 -11h-11zM65 496c-5 0 -9 3 -9 11v180c0 7 6 13 13 13h21c8 0 13 -6 12 -16l-16 -177c-1 -6 -5 -11 -10 -11h-11z" />
    <glyph glyph-name="numbersign" unicode="#" horiz-adv-x="550" 
d="M109 15l33 191h-84c-7 0 -12 6 -12 13v5c0 7 5 13 12 13h88l31 182h-90c-7 0 -13 6 -13 13v6c0 7 6 13 13 13h95l40 238c1 8 7 11 13 11h6c8 0 12 -7 11 -15l-39 -234h163l40 238c1 8 7 11 13 11h7c8 0 11 -7 10 -15l-39 -234h83c7 0 12 -6 12 -13v-6
c0 -7 -4 -13 -11 -13h-88l-31 -182h89c7 0 13 -6 13 -13v-5c0 -7 -5 -13 -12 -13h-95l-33 -195c-1 -6 -7 -11 -13 -11h-6c-9 0 -14 4 -12 15l33 191h-164l-32 -195c-1 -6 -7 -11 -13 -11h-6c-9 0 -14 4 -12 15zM178 237h163l30 182h-162z" />
    <glyph glyph-name="dollar" unicode="$" horiz-adv-x="533" 
d="M61 72c-6 5 -11 10 -3 21l11 14c8 10 16 4 25 -3c16 -14 77 -65 163 -71v300c-122 40 -202 84 -202 200c0 72 56 169 202 176v37c0 9 7 13 14 13h4c7 0 13 -5 13 -13v-38c90 -5 155 -50 155 -50c5 -4 12 -10 5 -20l-10 -15c-7 -10 -15 -7 -21 -4c-3 2 -60 40 -129 46
c0 -98 -1 -196 -1 -294c126 -44 204 -94 204 -204c0 -96 -95 -171 -204 -177v-108c0 -8 -7 -12 -14 -12c-8 0 -16 3 -16 12v108c-110 6 -183 71 -196 82zM257 383v283c-114 -5 -156 -77 -156 -132c0 -82 61 -119 156 -151zM287 33c85 5 155 63 155 133
c0 79 -59 119 -155 154v-287z" />
    <glyph glyph-name="percent" unicode="%" horiz-adv-x="688" 
d="M179 434c-76 0 -138 61 -138 138s62 138 138 138s138 -61 138 -138s-62 -138 -138 -138zM120 17l380 678c3 5 8 5 12 5h18c9 0 13 -10 8 -19l-381 -674c-2 -4 -8 -7 -12 -7h-18c-9 0 -12 9 -7 17zM179 471c55 0 100 45 100 101c0 55 -45 100 -100 100
c-56 0 -100 -45 -100 -100c0 -56 44 -101 100 -101zM354 127c0 77 61 139 138 139c76 0 138 -62 138 -139c0 -76 -62 -138 -138 -138c-77 0 -138 62 -138 138zM391 127c0 -56 45 -100 101 -100c55 0 100 44 100 100c0 55 -45 100 -100 100c-56 0 -101 -45 -101 -100z" />
    <glyph glyph-name="ampersand" unicode="&#x26;" horiz-adv-x="678" 
d="M90 173c0 105 77 165 148 203l-15 16c-43 47 -88 97 -86 163c0 69 52 155 171 155c107 0 162 -73 162 -151c0 -83 -86 -149 -165 -190l204 -202c38 61 60 134 60 204c0 5 -1 15 -1 20s2 9 8 9h21c7 0 10 -3 12 -9c2 -7 2 -15 2 -20c0 -79 -27 -164 -72 -233l104 -103
c8 -7 12 -16 4 -23l-16 -15c-8 -8 -15 -3 -20 2l-100 101c-57 -67 -136 -110 -231 -110c-120 0 -190 85 -190 183zM276 398c73 37 150 88 150 160c0 56 -40 113 -121 113c-86 0 -126 -61 -126 -117c-1 -47 32 -90 68 -127c10 -9 19 -19 29 -29zM134 173
c0 -80 61 -143 147 -143c83 0 152 39 202 99l-217 220c-65 -35 -132 -89 -132 -176z" />
    <glyph glyph-name="quotesingle" unicode="'" horiz-adv-x="149" 
d="M65 496c-5 0 -9 3 -9 11v180c0 7 6 13 13 13h21c8 0 13 -6 12 -16l-16 -177c-1 -6 -5 -11 -10 -11h-11z" />
    <glyph glyph-name="parenleft" unicode="(" horiz-adv-x="344" 
d="M307 -43c5 0 9 -5 8 -12l-1 -15c0 -6 -5 -9 -12 -8c-115 5 -239 99 -239 393s124 388 239 394c7 0 12 -3 12 -9l1 -15c1 -7 -3 -12 -8 -12c-117 -16 -200 -119 -200 -358s83 -342 200 -358z" />
    <glyph glyph-name="parenright" unicode=")" horiz-adv-x="344" 
d="M38 -43c117 16 199 119 199 358s-82 342 -199 358c-6 0 -10 5 -9 12l1 15c1 6 5 9 13 9c115 -6 238 -100 238 -394s-123 -388 -238 -393c-8 -1 -12 2 -13 8l-1 15c-1 7 3 12 9 12z" />
    <glyph glyph-name="asterisk" unicode="*" horiz-adv-x="340" 
d="M166 410c-7 0 -13 6 -13 13l1 103l-88 -55c-6 -4 -13 -2 -17 4l-5 8c-4 6 -1 14 4 17l91 55l-92 55c-5 3 -7 11 -4 17l6 10c3 5 9 6 16 2l89 -55l-1 103c0 7 6 13 13 13h8c7 0 13 -6 13 -13l-1 -103l88 56c7 4 13 1 17 -4l5 -8c3 -6 2 -13 -4 -17l-92 -56l93 -56
c5 -3 7 -11 4 -16l-5 -9c-4 -6 -12 -8 -18 -4l-88 56l1 -103c0 -7 -6 -13 -13 -13h-8z" />
    <glyph glyph-name="plus" unicode="+" horiz-adv-x="505" 
d="M232 155v171h-172c-7 0 -13 6 -13 13v15c0 7 6 13 13 13h172v173c0 7 6 12 13 12h16c7 0 13 -5 13 -12v-173h171c7 0 13 -6 13 -13v-15c0 -7 -6 -13 -13 -13h-171v-171c0 -7 -6 -13 -13 -13h-16c-7 0 -13 6 -13 13z" />
    <glyph glyph-name="comma" unicode="," horiz-adv-x="231" 
d="M71 30c0 24 17 39 42 39c29 0 56 -28 56 -94c0 -80 -53 -128 -72 -139c-7 -4 -13 -5 -17 0l-8 10c-4 5 -3 11 4 16c5 4 50 34 56 95c1 15 -1 28 -5 38c-5 -3 -10 -5 -16 -5c-26 0 -40 19 -40 40z" />
    <glyph glyph-name="hyphen" unicode="-" horiz-adv-x="478" 
d="M126 231c-7 0 -12 6 -12 13v11c0 8 5 13 12 13h226c7 0 13 -5 13 -13v-11c0 -7 -6 -13 -13 -13h-226z" />
    <glyph glyph-name="period" unicode="." horiz-adv-x="223" 
d="M71 30c0 23 19 40 41 40c23 0 40 -17 40 -40c0 -22 -17 -40 -40 -40c-22 0 -41 18 -41 40z" />
    <glyph glyph-name="slash" unicode="/" horiz-adv-x="327" 
d="M41 14l221 678c2 5 7 8 13 8h14c9 0 15 -6 12 -14l-221 -677c-2 -6 -8 -9 -13 -9h-15c-8 0 -14 5 -11 14z" />
    <glyph glyph-name="zero" unicode="0" horiz-adv-x="644" 
d="M322 -10c-156 0 -245 132 -245 351s89 351 245 351s245 -132 245 -351s-89 -351 -245 -351zM322 31c128 0 200 113 200 310c0 195 -72 309 -200 309c-129 0 -201 -114 -201 -309c0 -197 72 -310 201 -310z" />
    <glyph glyph-name="one" unicode="1" horiz-adv-x="322" 
d="M166 13v601l-119 -98c-5 -4 -11 -4 -15 1l-12 14c-4 5 -3 11 2 15l160 135h15c8 0 15 -4 15 -12v-656c0 -7 -6 -13 -13 -13h-20c-7 0 -13 6 -13 13z" />
    <glyph glyph-name="two" unicode="2" horiz-adv-x="524" 
d="M40 12v18l265 266c70 70 111 133 111 198c0 76 -53 154 -168 154c-91 0 -139 -67 -152 -81c-6 -7 -13 -8 -20 -3l-12 10c-5 5 -7 11 -2 18c0 0 62 99 186 99c141 0 215 -92 215 -196c0 -88 -54 -155 -126 -227l-228 -227h336c7 0 13 -6 13 -13v-15c0 -7 -6 -13 -13 -13
h-392c-8 0 -13 6 -13 12z" />
    <glyph glyph-name="three" unicode="3" horiz-adv-x="546" 
d="M52 79c-5 6 -5 13 0 17l16 13c7 6 12 3 18 -3c23 -22 62 -76 170 -76c103 0 177 59 177 150c0 97 -92 146 -180 146h-93c-10 0 -13 3 -13 13v18c0 8 4 12 14 12h92c73 0 162 38 162 139c0 84 -67 141 -152 141c-95 0 -146 -61 -157 -74c-4 -5 -11 -7 -17 -2l-15 12
c-6 4 -6 12 -1 17c0 0 70 89 190 89c115 0 199 -72 199 -178c0 -78 -57 -140 -113 -161v-2c65 -20 131 -87 131 -167c0 -110 -87 -193 -226 -193c-123 0 -180 64 -202 89z" />
    <glyph glyph-name="four" unicode="4" horiz-adv-x="583" 
d="M32 156c-10 0 -17 4 -17 15v17l409 504h18c7 0 11 -2 11 -11c0 -162 1 -324 1 -486h76c7 0 13 -5 13 -12v-13c0 -7 -6 -13 -13 -13h-76v-144c0 -7 -6 -13 -13 -13c-12 0 -32 -3 -32 13v143h-377zM71 196h340v416z" />
    <glyph glyph-name="five" unicode="5" horiz-adv-x="545" 
d="M71 74c-8 10 -9 14 -1 22c5 4 9 9 14 13c6 5 12 5 17 -2c17 -21 67 -76 165 -76c112 0 188 90 188 189c0 100 -63 166 -188 166h-166c-12 0 -19 11 -19 21v261c0 7 5 13 13 13h314c7 0 13 -6 13 -13v-16c0 -7 -6 -13 -13 -13h-285v-211h143c153 0 234 -76 234 -208
c0 -126 -98 -230 -235 -230c-111 0 -169 54 -194 84z" />
    <glyph glyph-name="six" unicode="6" horiz-adv-x="554" 
d="M58 275c0 272 239 395 327 429c7 2 13 -1 15 -7l7 -15c3 -8 0 -15 -11 -19c-58 -20 -253 -122 -285 -305c16 21 85 81 187 81c114 0 217 -85 217 -219c0 -127 -102 -230 -223 -230c-156 0 -234 126 -234 285zM101 268c0 -122 63 -238 191 -238c98 0 179 86 179 188
c0 106 -82 180 -177 180c-120 0 -188 -96 -191 -100c-1 -10 -2 -19 -2 -30z" />
    <glyph glyph-name="seven" unicode="7" horiz-adv-x="473" 
d="M117 16l285 623h-369c-11 0 -13 6 -13 14v15c0 9 6 13 13 13h414c9 0 14 -6 14 -12v-5l-294 -648c-6 -13 -8 -16 -19 -16h-24c-10 0 -10 10 -7 16z" />
    <glyph glyph-name="eight" unicode="8" horiz-adv-x="574" 
d="M63 179c0 87 71 150 150 169v2c-70 20 -132 78 -132 158c0 99 71 181 204 181c134 0 208 -82 208 -181c0 -80 -62 -138 -132 -158v-2c79 -19 150 -79 150 -169c0 -119 -92 -189 -226 -189c-131 0 -222 70 -222 189zM287 372c99 7 161 58 161 135s-58 144 -164 144
c-103 0 -158 -67 -158 -144s61 -128 161 -135zM109 175c0 -97 79 -147 176 -147c101 0 180 49 180 147c0 75 -68 139 -178 148c-111 -9 -178 -70 -178 -148z" />
    <glyph glyph-name="nine" unicode="9" horiz-adv-x="553" 
d="M147 4c-3 8 -1 15 11 19c57 20 253 122 284 305c-16 -21 -84 -81 -186 -81c-114 0 -217 85 -217 219c0 127 102 230 223 230c155 0 234 -126 234 -285c0 -272 -239 -395 -328 -429c-6 -2 -12 1 -15 7zM259 288c121 0 188 96 191 100c1 10 2 19 2 30
c0 122 -62 238 -190 238c-99 0 -179 -86 -179 -188c0 -106 81 -180 176 -180z" />
    <glyph glyph-name="colon" unicode=":" horiz-adv-x="263" 
d="M132 329c-22 0 -41 19 -41 40c0 23 19 41 41 41c23 0 40 -18 40 -41c0 -21 -17 -40 -40 -40zM91 30c0 23 19 40 41 40c23 0 40 -17 40 -40c0 -22 -17 -40 -40 -40c-22 0 -41 18 -41 40z" />
    <glyph glyph-name="semicolon" unicode=";" horiz-adv-x="267" 
d="M131 329c-22 0 -40 19 -40 40c0 23 18 41 40 41c23 0 40 -18 40 -41c0 -21 -17 -40 -40 -40zM91 30c0 24 17 39 42 39c29 0 56 -28 56 -94c0 -80 -53 -128 -72 -139c-7 -4 -13 -5 -17 0l-8 10c-4 5 -3 11 4 16c5 4 50 34 56 95c1 15 -1 28 -5 38c-5 -3 -10 -5 -16 -5
c-26 0 -40 19 -40 40z" />
    <glyph glyph-name="less" unicode="&#x3c;" horiz-adv-x="433" 
d="M36 215c-8 5 -10 9 -10 16v1c0 5 2 9 10 14l353 224c7 5 14 1 14 -10v-23c0 -4 -1 -11 -8 -15l-304 -191l304 -185c7 -4 8 -11 8 -15v-23c0 -11 -7 -15 -14 -10z" />
    <glyph glyph-name="equal" unicode="=" horiz-adv-x="561" 
d="M123 366c-11 0 -13 6 -13 13v17c0 7 2 13 13 13h315c7 0 13 -6 13 -13v-17c0 -7 -6 -13 -13 -13h-315zM123 158c-11 0 -13 6 -13 13v17c0 7 2 13 13 13h315c7 0 13 -6 13 -13v-17c0 -7 -6 -13 -13 -13h-315z" />
    <glyph glyph-name="greater" unicode="&#x3e;" horiz-adv-x="433" 
d="M30 8v23c0 4 1 11 8 15l304 185l-304 191c-7 4 -8 11 -8 15v23c0 11 7 15 14 10l353 -224c8 -5 10 -9 10 -14v-1c0 -7 -2 -11 -10 -16l-353 -217c-7 -5 -14 -1 -14 10z" />
    <glyph glyph-name="question" unicode="?" horiz-adv-x="469" 
d="M203 273c-9 0 -12 7 -12 14v58c0 97 167 120 167 221c0 52 -44 104 -123 104c-92 0 -134 -60 -144 -70c-4 -4 -8 -7 -17 -1l-10 7c-10 7 -7 13 -3 19c0 0 55 85 177 85c101 0 165 -59 165 -141c0 -132 -168 -154 -168 -225v-57c0 -9 -4 -14 -13 -14h-19zM172 30
c0 23 18 40 40 40c23 0 41 -17 41 -40c0 -22 -18 -40 -41 -40c-22 0 -40 18 -40 40z" />
    <glyph glyph-name="at" unicode="@" horiz-adv-x="990" 
d="M48 224c0 284 179 486 460 486c267 0 422 -180 422 -421c0 -132 -44 -299 -205 -299c-66 0 -101 35 -112 79c-17 -27 -64 -79 -143 -79c-108 0 -185 88 -185 212c0 126 89 208 196 208c81 0 123 -44 123 -44l3 22c1 8 4 12 14 12h10c7 0 13 -6 13 -13v-251
c0 -76 30 -109 83 -109c112 0 163 122 163 262c0 219 -135 384 -383 384c-256 0 -419 -179 -419 -449c0 -199 116 -342 279 -412c9 -4 10 -7 6 -16l-7 -16c-3 -7 -7 -9 -14 -6c-177 75 -304 233 -304 450zM328 202c0 -102 61 -170 145 -170c89 0 123 72 129 92v189
c-2 4 -41 57 -119 57c-85 0 -155 -66 -155 -168z" />
    <glyph glyph-name="A" unicode="A" horiz-adv-x="653" 
d="M13 0c-7 0 -10 4 -7 12l308 696c2 4 7 7 12 7h3c5 0 10 -1 13 -7l305 -696c2 -6 2 -12 -9 -12h-26c-7 0 -12 5 -14 9l-81 184h-382l-80 -184c-2 -4 -7 -9 -14 -9h-28zM153 232h347l-171 403h-2z" />
    <glyph glyph-name="B" unicode="B" horiz-adv-x="623" 
d="M106 13v674c0 7 6 13 13 13h213c123 0 207 -71 207 -181c0 -79 -48 -137 -110 -162c71 -19 132 -71 132 -167c0 -112 -90 -190 -220 -190h-222c-7 0 -13 6 -13 13zM153 376h186c94 0 149 59 149 141c0 87 -60 139 -156 139h-179v-280zM152 42h193c97 0 165 62 165 149
c0 89 -76 142 -171 142h-187v-291z" />
    <glyph glyph-name="C" unicode="C" horiz-adv-x="718" 
d="M56 349c0 200 162 361 362 361c102 0 178 -34 243 -93c5 -5 6 -13 1 -18l-16 -17c-6 -6 -11 -5 -17 1c-57 51 -129 82 -211 82c-175 0 -312 -143 -312 -316c0 -172 137 -314 312 -314c86 0 151 34 211 84c6 5 12 5 16 2l17 -17c5 -4 5 -12 0 -17
c-68 -66 -155 -97 -244 -97c-200 0 -362 158 -362 359z" />
    <glyph glyph-name="D" unicode="D" horiz-adv-x="738" 
d="M106 13v674c0 7 6 13 12 13h212c194 0 352 -157 352 -349c0 -195 -158 -351 -352 -351h-212c-6 0 -12 6 -12 13zM153 43h169c175 0 310 133 310 308c0 173 -135 306 -310 306h-169v-614z" />
    <glyph glyph-name="E" unicode="E" horiz-adv-x="598" 
d="M106 13v674c0 7 6 13 13 13h401c7 0 13 -6 13 -13v-17c0 -7 -6 -13 -13 -13h-366v-276h317c7 0 13 -6 13 -13v-17c0 -7 -6 -13 -13 -13h-317v-296h366c7 0 13 -6 13 -13v-16c0 -7 -6 -13 -13 -13h-401c-7 0 -13 6 -13 13z" />
    <glyph glyph-name="F" unicode="F" horiz-adv-x="573" 
d="M106 13v674c0 7 6 13 13 13h401c7 0 13 -6 13 -13v-17c0 -7 -6 -13 -13 -13h-366v-304h317c7 0 13 -6 13 -13c0 -11 2 -29 -13 -29h-317l-1 -298c0 -7 -6 -13 -16 -13h-18c-7 0 -13 6 -13 13z" />
    <glyph glyph-name="G" unicode="G" horiz-adv-x="743" 
d="M56 349c0 200 161 361 362 361c101 0 177 -34 242 -93c5 -5 6 -13 1 -18c-5 -6 -11 -12 -16 -17c-6 -7 -11 -6 -17 0c-56 52 -129 84 -211 84c-174 0 -311 -142 -311 -315s137 -315 311 -315c122 0 198 47 208 55v188h-171c-11 0 -13 4 -13 13v20c0 8 2 12 13 12h205
c7 0 13 -6 13 -12v-232c0 -15 -6 -20 -14 -26c-18 -12 -109 -64 -240 -64c-201 0 -362 158 -362 359z" />
    <glyph glyph-name="H" unicode="H" horiz-adv-x="755" 
d="M106 13v674c0 7 6 13 13 13h21c8 0 13 -6 13 -13v-307h449v307c0 7 6 13 13 13h21c8 0 13 -6 13 -13v-674c0 -7 -5 -13 -13 -13h-21c-7 0 -13 6 -13 13v325h-449v-325c0 -7 -5 -13 -13 -13h-21c-7 0 -13 6 -13 13z" />
    <glyph glyph-name="I" unicode="I" horiz-adv-x="260" 
d="M106 13v674c0 7 6 13 13 13h22c7 0 13 -6 13 -13v-674c0 -8 -7 -13 -14 -13h-21c-7 0 -13 6 -13 13z" />
    <glyph glyph-name="J" unicode="J" horiz-adv-x="391" 
d="M-25 65c-4 6 -4 12 1 17l13 12c5 5 10 7 17 0c22 -22 57 -62 123 -62c85 0 146 59 146 178v477c0 8 6 13 14 13h20c7 0 13 -6 13 -13v-476c0 -140 -75 -221 -194 -221c-88 0 -136 54 -153 75z" />
    <glyph glyph-name="K" unicode="K" horiz-adv-x="590" 
d="M106 13v672c0 9 6 15 15 15h18c9 0 15 -6 15 -15v-309l340 317c8 7 11 7 20 7h28c11 0 12 -11 6 -17l-348 -323l359 -343c6 -5 4 -17 -9 -17h-32c-9 0 -14 2 -22 10l-342 332v-329c0 -10 -7 -13 -15 -13h-20c-8 0 -13 5 -13 13z" />
    <glyph glyph-name="L" unicode="L" horiz-adv-x="489" 
d="M106 13v674c0 7 6 13 13 13h22c6 0 12 -6 12 -13v-645h319c12 0 13 -6 13 -13v-18c0 -7 -6 -11 -13 -11h-353c-7 0 -13 6 -13 13z" />
    <glyph glyph-name="M" unicode="M" horiz-adv-x="859" 
d="M50 13l142 690c1 4 5 7 9 7h11c5 0 8 -2 10 -7l206 -614h2l207 614c2 5 5 7 10 7h11c4 0 8 -3 9 -7l142 -690c2 -10 -2 -13 -11 -13h-24c-6 0 -11 5 -12 11l-113 586h-2l-202 -599c-2 -6 -8 -8 -14 -8h-4c-5 0 -11 1 -13 8l-202 599h-2l-113 -586c-1 -6 -6 -11 -12 -11
h-24c-9 0 -13 3 -11 13z" />
    <glyph glyph-name="N" unicode="N" horiz-adv-x="771" 
d="M106 13v684c0 8 7 13 15 13h17l480 -625h1v602c0 7 6 13 13 13h20c7 0 13 -6 13 -13v-684c0 -9 -8 -13 -16 -13h-13c-1 0 -9 3 -484 631h-1v-608c0 -7 -6 -13 -13 -13h-19c-7 0 -13 6 -13 13z" />
    <glyph glyph-name="O" unicode="O" horiz-adv-x="833" 
d="M56 349c0 200 160 361 360 361c201 0 361 -161 361 -361c0 -201 -160 -359 -361 -359c-200 0 -360 158 -360 359zM100 349c0 -175 141 -315 316 -315s317 140 317 315s-142 317 -317 317s-316 -142 -316 -317z" />
    <glyph glyph-name="P" unicode="P" horiz-adv-x="594" 
d="M106 13v674c0 7 6 13 13 13h215c124 0 226 -101 226 -224c0 -125 -102 -227 -225 -227h-182v-236c0 -7 -6 -13 -16 -13h-18c-7 0 -13 6 -13 13zM153 295h179c98 0 181 81 181 182c0 98 -83 176 -182 176h-178v-358z" />
    <glyph glyph-name="Q" unicode="Q" horiz-adv-x="834" 
d="M56 349c0 200 160 361 360 361c201 0 361 -161 361 -361c0 -153 -92 -280 -225 -333l119 -194c3 -5 1 -15 -7 -15h-33c-3 0 -8 2 -13 10l-111 184c-28 -7 -61 -11 -91 -11c-200 0 -360 158 -360 359zM100 349c0 -175 141 -315 316 -315s317 140 317 315
s-142 317 -317 317s-316 -142 -316 -317z" />
    <glyph glyph-name="R" unicode="R" horiz-adv-x="650" 
d="M106 13v674c0 7 5 13 13 13h248c122 0 223 -92 223 -214c0 -101 -70 -182 -165 -209l146 -259c5 -8 3 -18 -7 -18h-31c-7 0 -11 3 -14 9l-145 262c-13 -1 -24 -1 -37 -1h-184v-257c0 -7 -6 -13 -16 -13h-18c-7 0 -13 6 -13 13zM154 312h211c96 0 177 75 177 174
c0 95 -81 168 -178 168h-210v-342z" />
    <glyph glyph-name="S" unicode="S" horiz-adv-x="543" 
d="M67 72c-6 5 -11 10 -3 21l9 12c7 8 14 11 22 4c10 -9 84 -77 185 -77c91 0 168 61 168 134c0 89 -73 129 -194 170c-116 41 -193 82 -193 197c0 75 60 177 216 177c99 0 172 -51 172 -51c4 -3 11 -10 4 -21c-3 -4 -6 -9 -8 -13c-6 -8 -12 -11 -22 -5c-3 2 -70 47 -147 47
c-123 0 -169 -76 -169 -133c0 -85 65 -122 166 -155c137 -47 224 -95 224 -211c0 -100 -103 -178 -218 -178c-119 0 -199 70 -212 82z" />
    <glyph glyph-name="T" unicode="T" horiz-adv-x="472" 
d="M212 13v644h-191c-10 0 -13 6 -13 15v15c0 8 6 13 13 13h430c8 0 13 -6 13 -13v-17c0 -7 -5 -13 -13 -13h-192v-644c0 -7 -6 -13 -16 -13h-18c-7 0 -13 6 -13 13z" />
    <glyph glyph-name="U" unicode="U" horiz-adv-x="720" 
d="M98 255v432c0 7 6 13 13 13h21c7 0 13 -6 13 -13v-427c0 -129 81 -224 214 -224c134 0 216 94 216 223v428c0 8 4 13 14 13h20c7 0 13 -6 13 -13v-432c0 -153 -104 -265 -263 -265c-158 0 -261 112 -261 265z" />
    <glyph glyph-name="V" unicode="V" horiz-adv-x="651" 
d="M308 -1l-302 688c-4 8 -1 13 8 13h27c6 0 10 -4 11 -7l270 -621h2l273 621c1 3 5 7 11 7h26c9 0 13 -6 9 -14l-307 -687c-2 -5 -6 -9 -12 -9h-5c-6 0 -10 6 -11 9z" />
    <glyph glyph-name="W" unicode="W" horiz-adv-x="896" 
d="M237 -3l-198 690c-2 10 2 13 11 13h24c6 0 11 -5 12 -11l168 -586h2l176 598c2 6 9 9 15 9h2c6 0 13 -3 15 -9l177 -598h2l167 586c1 6 6 11 12 11h24c9 0 13 -3 11 -13l-198 -690c-1 -4 -5 -7 -9 -7h-11c-5 0 -8 2 -10 7l-180 609h-2l-180 -609c-2 -5 -5 -7 -10 -7h-11
c-4 0 -8 3 -9 7z" />
    <glyph glyph-name="X" unicode="X" horiz-adv-x="565" 
d="M35 15l217 343l-205 327c-5 8 -2 15 8 15h32c5 0 10 -2 13 -6l181 -294h1l183 294c3 4 8 6 13 6h32c10 0 13 -7 8 -15l-206 -327l219 -343c5 -8 2 -15 -8 -15h-32c-5 0 -10 2 -13 6l-196 309h-1l-193 -309c-3 -4 -8 -6 -13 -6h-32c-10 0 -13 7 -8 15z" />
    <glyph glyph-name="Y" unicode="Y" horiz-adv-x="560" 
d="M253 13v327l-255 345c-6 8 -2 15 8 15h30c5 0 10 -2 13 -6l228 -311l232 311c3 4 8 6 13 6h30c10 0 14 -7 8 -15l-260 -344v-328c0 -7 -6 -13 -13 -13c-13 0 -34 -3 -34 13z" />
    <glyph glyph-name="Z" unicode="Z" horiz-adv-x="533" 
d="M30 12v18l406 624v2h-362c-7 0 -13 6 -13 15v16c0 7 6 13 13 13h412c8 0 13 -6 13 -13v-16l-407 -626v-1h373c8 0 13 -6 13 -13v-18c0 -7 -5 -13 -13 -13h-421c-8 0 -14 5 -14 12z" />
    <glyph glyph-name="bracketleft" unicode="[" horiz-adv-x="330" 
d="M126 -260h165c7 0 13 -6 13 -13v-15c0 -7 -6 -13 -13 -13h-195c-7 0 -13 6 -13 13v975c0 7 6 13 13 13h195c7 0 13 -6 13 -13v-15c0 -7 -6 -13 -13 -13h-165v-919z" />
    <glyph glyph-name="backslash" unicode="\" horiz-adv-x="327" 
d="M247 9l-221 677c-3 8 3 14 12 14h14c6 0 11 -3 13 -8l221 -678c3 -9 -3 -14 -11 -14h-15c-5 0 -11 3 -13 9z" />
    <glyph glyph-name="bracketright" unicode="]" horiz-adv-x="329" 
d="M39 -260h164v919h-164c-7 0 -13 6 -13 13v15c0 7 6 13 13 13h194c7 0 13 -6 13 -13v-975c0 -7 -6 -13 -13 -13h-194c-7 0 -13 6 -13 13v15c0 7 6 13 13 13z" />
    <glyph glyph-name="asciicircum" unicode="^" horiz-adv-x="524" 
d="M46 400c-10 0 -12 8 -6 16l211 291c3 4 6 7 11 7h3c5 0 8 -3 11 -7l210 -291c6 -8 4 -16 -6 -16h-23c-7 0 -13 4 -16 8l-178 247l-178 -247c-3 -4 -9 -8 -16 -8h-23z" />
    <glyph glyph-name="underscore" unicode="_" horiz-adv-x="393" 
d="M26 -23c0 7 5 13 13 13h315c7 0 13 -6 13 -13v-10c0 -7 -6 -12 -13 -12h-315c-8 0 -13 5 -13 12v10z" />
    <glyph glyph-name="grave" unicode="`" horiz-adv-x="302" 
d="M248 559l-172 79c-6 3 -7 9 -4 15l10 20c4 7 13 5 17 3l164 -90c7 -4 8 -9 6 -14l-5 -10c-3 -6 -7 -7 -16 -3z" />
    <glyph glyph-name="a" unicode="a" horiz-adv-x="427" 
d="M44 123c0 77 63 135 168 135c46 0 90 -14 101 -18c0 88 -9 132 -88 132c-66 0 -111 -24 -120 -27c-8 -3 -13 1 -15 8l-5 12c-3 9 1 13 6 15c3 2 54 30 137 30c122 0 127 -73 127 -175v-222c0 -7 -6 -13 -13 -13h-12c-7 0 -10 4 -12 11l-4 36c-26 -24 -75 -57 -139 -57
c-74 0 -131 51 -131 133zM85 124c0 -58 40 -95 95 -95c61 0 114 37 133 62v110c-13 6 -53 21 -101 21c-76 0 -127 -39 -127 -98z" />
    <glyph glyph-name="b" unicode="b" 
d="M76 13v674c0 7 6 13 13 13h17c7 0 13 -6 13 -13v-317s48 40 124 40c113 0 196 -91 196 -209c0 -117 -81 -211 -184 -211c-77 0 -127 45 -139 59l-3 -36c-1 -9 -6 -13 -14 -13h-10c-7 0 -13 6 -13 13zM120 101c2 -4 45 -71 131 -71c84 0 145 77 145 170
c0 95 -66 167 -158 167c-72 0 -118 -42 -118 -42v-224z" />
    <glyph glyph-name="c" unicode="c" horiz-adv-x="459" 
d="M46 200c0 120 97 210 210 210c78 0 130 -40 148 -63c5 -6 4 -13 -2 -18l-10 -10c-7 -7 -15 -4 -21 2c-10 11 -52 46 -115 46c-91 0 -165 -71 -165 -166c0 -97 75 -169 164 -169c75 0 114 47 125 59c7 8 13 8 19 2l11 -10c5 -5 7 -10 3 -16c-15 -24 -74 -77 -157 -77
c-113 0 -210 89 -210 210z" />
    <glyph glyph-name="d" unicode="d" 
d="M47 200c0 118 83 210 197 210c76 0 123 -40 123 -40v317c0 7 5 13 13 13h18c6 0 12 -6 12 -13v-674c0 -7 -6 -13 -13 -13h-10c-8 0 -13 4 -14 13l-3 35c-12 -13 -61 -58 -138 -58c-104 0 -185 93 -185 210zM91 200c0 -93 60 -170 144 -170c87 0 130 67 132 71v224
s-46 42 -119 42c-92 0 -157 -72 -157 -167z" />
    <glyph glyph-name="e" unicode="e" horiz-adv-x="467" 
d="M47 201c0 114 75 209 197 209c105 0 181 -77 181 -183c0 -16 0 -39 -15 -39h-319c4 -86 66 -158 156 -158c53 0 94 21 118 37c9 6 13 7 18 0l10 -14c3 -4 2 -10 -4 -16c-20 -20 -83 -47 -145 -47c-122 0 -197 94 -197 211zM92 224h289c0 78 -47 146 -137 146
c-88 0 -147 -64 -152 -146z" />
    <glyph glyph-name="f" unicode="f" horiz-adv-x="313" 
d="M101 13v348h-60c-9 0 -13 7 -13 13v13c0 7 6 13 13 13h60v137c0 118 64 173 151 173c51 0 97 -24 112 -43c5 -6 5 -12 2 -16l-10 -14c-4 -6 -11 -7 -17 -1c-15 14 -50 34 -87 34c-63 0 -107 -41 -107 -133v-137h148c8 0 13 -5 13 -12v-15c0 -7 -4 -12 -13 -12h-148v-348
c0 -7 -6 -13 -13 -13h-18c-7 0 -13 6 -13 13z" />
    <glyph glyph-name="g" unicode="g" horiz-adv-x="462" 
d="M35 34c0 67 55 101 66 107c-11 14 -31 52 -31 100c0 96 67 169 175 169h164c8 0 13 -6 13 -13v-11c0 -5 -3 -11 -9 -12l-72 -5c19 -10 62 -45 62 -128c0 -89 -64 -166 -166 -166c-60 0 -96 22 -109 36c-8 -3 -51 -25 -51 -72s40 -58 79 -58h145c86 0 148 -39 148 -128
c0 -85 -82 -163 -204 -163c-136 0 -195 80 -195 148c0 59 42 92 63 105c-20 4 -78 31 -78 91zM238 114c75 0 123 57 123 128c0 84 -57 128 -123 128c-77 0 -127 -56 -127 -128c0 -70 43 -128 127 -128zM94 -157c0 -55 53 -112 150 -112c90 0 159 53 159 121
c0 46 -28 88 -102 88h-126c-10 -1 -81 -29 -81 -97z" />
    <glyph glyph-name="h" unicode="h" horiz-adv-x="495" 
d="M76 13v674c0 7 6 13 14 13h16c7 0 13 -6 13 -13v-341c13 13 66 64 145 64c104 0 161 -64 161 -183v-214c0 -7 -6 -13 -13 -13h-18c-7 0 -13 6 -13 13v214c0 92 -43 140 -119 140c-83 0 -139 -65 -143 -70v-284c0 -8 -4 -13 -13 -13h-19c-7 0 -11 6 -11 13z" />
    <glyph glyph-name="i" unicode="i" horiz-adv-x="196" 
d="M98 596c-19 0 -34 15 -34 33c0 19 15 35 34 35s34 -16 34 -35c0 -18 -15 -33 -34 -33zM76 13v374c0 7 6 13 13 13h18c7 0 13 -6 13 -13v-374c0 -8 -4 -13 -13 -13h-20c-7 0 -11 6 -11 13z" />
    <glyph glyph-name="j" unicode="j" horiz-adv-x="195" 
d="M97 596c-19 0 -34 15 -34 33c0 19 15 35 34 35s34 -16 34 -35c0 -18 -15 -33 -34 -33zM76 -137v524c0 7 6 13 13 13h17c7 0 13 -6 13 -13v-524c0 -118 -58 -173 -146 -173c-52 0 -95 26 -112 43c-6 6 -5 10 -2 14l10 16c4 6 11 6 17 0c17 -13 49 -33 87 -33
c63 0 103 40 103 133z" />
    <glyph glyph-name="k" unicode="k" horiz-adv-x="428" 
d="M76 13v674c0 7 6 13 13 13h17c7 0 13 -6 13 -13v-448l213 155c5 4 11 6 16 6h29c10 0 11 -13 3 -18l-215 -158l241 -207c8 -7 3 -17 -5 -17h-31c-6 0 -11 1 -20 8l-231 199v-194c0 -8 -4 -13 -13 -13h-19c-7 0 -11 6 -11 13z" />
    <glyph glyph-name="l" unicode="l" horiz-adv-x="196" 
d="M76 13v674c0 7 6 13 13 13h18c7 0 13 -6 13 -13v-674c0 -8 -4 -13 -13 -13h-20c-7 0 -11 6 -11 13z" />
    <glyph glyph-name="m" unicode="m" horiz-adv-x="763" 
d="M76 13v374c0 7 6 13 13 13h12c6 0 10 -4 11 -10l5 -43c11 15 57 63 138 63c61 0 106 -26 131 -73c12 16 68 73 150 73c109 0 156 -71 156 -183v-214c0 -7 -6 -13 -13 -13h-20c-6 0 -11 5 -11 13v214c0 92 -40 140 -115 140s-119 -52 -132 -68c6 -21 9 -45 9 -72v-214
c0 -7 -6 -13 -13 -13h-19c-7 0 -12 5 -12 13v214c0 92 -41 140 -116 140c-81 0 -125 -61 -130 -69v-285c0 -8 -4 -13 -13 -13h-20c-7 0 -11 6 -11 13z" />
    <glyph glyph-name="n" unicode="n" horiz-adv-x="495" 
d="M76 13v374c0 7 6 13 14 13h10c7 0 11 -4 12 -10l4 -43c13 14 68 63 148 63c112 0 161 -71 161 -183v-214c0 -7 -6 -13 -13 -13h-18c-7 0 -13 6 -13 13v214c0 92 -43 140 -119 140c-82 0 -139 -64 -143 -69v-285c0 -8 -4 -13 -13 -13h-19c-7 0 -11 6 -11 13z" />
    <glyph glyph-name="o" unicode="o" horiz-adv-x="494" 
d="M46 201c0 114 88 209 201 209c112 0 201 -95 201 -209c0 -117 -89 -211 -201 -211c-113 0 -201 94 -201 211zM89 201c0 -95 69 -170 158 -170c88 0 157 75 157 170c0 92 -69 167 -157 167c-89 0 -158 -75 -158 -167z" />
    <glyph glyph-name="p" unicode="p" horiz-adv-x="487" 
d="M119 31v-318c0 -7 -6 -13 -13 -13h-17c-7 0 -13 6 -13 13v674c0 8 7 13 14 13h11c7 0 11 -3 12 -10l3 -28c12 10 58 48 131 48c111 0 193 -93 193 -210c0 -118 -84 -210 -202 -210c-66 0 -108 31 -119 41zM120 79c2 -4 45 -47 113 -47c97 0 163 74 163 169
c0 93 -61 168 -152 168c-78 0 -121 -51 -124 -56v-234z" />
    <glyph glyph-name="q" unicode="q" 
d="M47 200c0 117 81 210 192 210c73 0 119 -38 131 -48l4 27c1 8 6 11 13 11h11c6 0 12 -6 12 -13v-674c0 -7 -6 -13 -12 -13h-18c-7 0 -13 6 -13 13v319c-11 -10 -52 -42 -118 -42c-119 0 -202 92 -202 210zM91 201c0 -95 65 -169 162 -169c68 0 110 41 114 46v235
c-3 4 -46 56 -124 56c-92 0 -152 -75 -152 -168z" />
    <glyph glyph-name="r" unicode="r" horiz-adv-x="324" 
d="M76 13v374c0 7 6 13 13 13h12c6 0 11 -4 12 -11l4 -41c10 14 50 62 125 62c32 0 54 -9 62 -12c9 -3 14 -10 11 -18l-8 -20c-3 -7 -9 -8 -16 -5c-5 2 -25 12 -52 12c-78 0 -116 -63 -119 -69v-285c0 -8 -4 -13 -13 -13h-20c-7 0 -11 6 -11 13z" />
    <glyph glyph-name="s" unicode="s" horiz-adv-x="370" 
d="M57 35c-4 3 -7 9 -4 14l10 16c3 5 11 7 18 1c10 -8 51 -39 107 -39c57 0 96 32 96 71c0 46 -45 65 -112 90c-71 25 -123 56 -123 118c0 44 39 104 131 104c53 0 93 -19 113 -32c6 -4 8 -12 4 -19l-6 -11c-4 -7 -12 -9 -19 -5c-9 6 -49 28 -92 28c-63 0 -86 -37 -86 -64
c0 -40 36 -59 95 -80c75 -28 141 -53 141 -126c0 -60 -62 -111 -142 -111c-68 0 -109 28 -131 45z" />
    <glyph glyph-name="t" unicode="t" horiz-adv-x="329" 
d="M93 103v258h-47c-10 0 -12 5 -12 13v16c0 7 5 10 12 10h47v109c0 8 6 13 13 13l17 1c7 0 13 -6 13 -13v-110h139c8 0 13 -6 13 -13v-13c0 -8 -5 -13 -13 -13h-139v-255c0 -47 5 -73 52 -73c35 0 78 19 91 27c9 5 13 1 16 -4l7 -12c4 -7 3 -13 -3 -17
c-15 -12 -59 -37 -116 -37c-83 0 -90 49 -90 113z" />
    <glyph glyph-name="u" unicode="u" horiz-adv-x="485" 
d="M70 172v215c0 7 6 13 13 13h18c7 0 13 -6 13 -13v-215c0 -93 43 -140 119 -140c83 0 129 65 132 70v285c0 8 5 13 13 13h18c7 0 13 -6 13 -13v-374c0 -7 -6 -13 -13 -13h-12c-8 0 -11 6 -12 12l-4 39c-11 -14 -59 -61 -138 -61c-112 0 -160 69 -160 182z" />
    <glyph glyph-name="v" unicode="v" horiz-adv-x="408" 
d="M189 -1l-172 386c-4 8 -3 15 6 15h22c5 0 10 -2 13 -9l145 -330h1l146 330c3 7 8 9 13 9h22c9 0 10 -7 6 -15l-174 -386c-3 -6 -7 -9 -12 -9h-4c-6 0 -9 2 -12 9z" />
    <glyph glyph-name="w" unicode="w" horiz-adv-x="606" 
d="M154 -1l-120 385c-3 9 -3 16 6 16h22c5 0 11 -2 13 -9l94 -315h1l119 325c2 7 6 9 12 9h4c5 0 10 -3 12 -9l119 -325h1l94 315c2 7 8 9 13 9h22c9 0 9 -7 6 -16l-120 -385c-2 -7 -6 -9 -12 -9h-4c-5 0 -10 3 -12 9l-121 337h-1l-120 -337c-2 -6 -7 -9 -12 -9h-4
c-6 0 -10 2 -12 9z" />
    <glyph glyph-name="x" unicode="x" horiz-adv-x="418" 
d="M35 14l147 191l-139 181c-6 7 -2 14 6 14h26c5 0 11 -3 15 -9l117 -155h1l118 155c4 6 10 9 15 9h26c8 0 12 -7 6 -14l-138 -180l145 -192c6 -7 2 -14 -6 -14h-26c-5 0 -11 3 -15 9l-125 167h-1l-125 -167c-4 -6 -10 -9 -15 -9h-26c-8 0 -12 7 -6 14z" />
    <glyph glyph-name="y" unicode="y" horiz-adv-x="443" 
d="M204 4l-189 380c-4 8 -3 16 6 16h22c5 0 10 -3 13 -9l171 -338h2l156 338c3 6 8 9 13 9h22c9 0 10 -8 6 -16l-314 -676c-2 -5 -8 -8 -13 -8h-23c-8 0 -11 5 -7 14z" />
    <glyph glyph-name="z" unicode="z" horiz-adv-x="371" 
d="M34 11v11l235 335v3h-204c-7 0 -12 6 -12 13v14c0 8 5 13 12 13h259c10 0 17 -10 11 -19l-234 -338v-3h207c8 0 13 -5 13 -13v-14c0 -7 -5 -13 -13 -13h-262c-7 0 -12 5 -12 11z" />
    <glyph glyph-name="braceleft" unicode="{" horiz-adv-x="365" 
d="M108 -68v164c0 64 -52 82 -73 89c-6 2 -9 3 -9 9v16c0 6 3 7 9 9c21 7 73 25 73 89v160c0 184 113 242 217 242c7 0 14 -5 14 -12v-12c0 -7 -4 -11 -10 -12c-107 -8 -178 -70 -178 -207v-159c0 -70 -60 -102 -68 -106v-1c5 -2 68 -33 68 -105v-163
c0 -137 71 -199 178 -207c6 -1 10 -5 10 -12v-12c0 -7 -7 -12 -14 -12c-104 0 -217 58 -217 242z" />
    <glyph glyph-name="bar" unicode="|" horiz-adv-x="195" 
d="M82 -288v1034c0 8 6 13 13 13h6c7 0 12 -5 12 -13v-1034c0 -7 -6 -12 -13 -12h-5c-7 0 -13 5 -13 12z" />
    <glyph glyph-name="braceright" unicode="}" horiz-adv-x="365" 
d="M214 -67v163c0 70 60 101 68 105v1c-6 3 -68 34 -68 106v159c0 137 -71 199 -178 207c-6 1 -10 5 -10 12v12c0 7 7 12 14 12c104 0 217 -58 217 -242v-160c0 -64 52 -82 73 -89c6 -2 9 -3 9 -9v-16c0 -6 -3 -7 -9 -9c-21 -7 -73 -25 -73 -89v-164
c0 -184 -113 -242 -217 -242c-7 0 -14 5 -14 12v12c0 7 4 11 10 12c107 8 178 70 178 207z" />
    <glyph glyph-name="asciitilde" unicode="~" horiz-adv-x="574" 
d="M81 239l-13 10c-5 4 -6 10 -2 16c0 0 49 95 133 95c47 0 81 -29 105 -54c17 -18 46 -45 79 -45c62 0 95 67 101 77c5 7 11 8 17 3l13 -9c6 -4 7 -11 3 -16c0 0 -49 -95 -134 -95c-47 0 -78 30 -102 53c-19 19 -46 45 -82 45c-61 0 -94 -67 -100 -77c-5 -7 -11 -8 -18 -3z
" />
    <glyph glyph-name="uni00A0" unicode="&#xa0;" horiz-adv-x="262" 
d="M202 558l-169 77c-8 4 -13 10 -9 18l10 20c4 7 12 6 17 3l165 -87c7 -4 9 -7 6 -14l-6 -13c-3 -6 -5 -8 -14 -4z" />
    <glyph glyph-name="Agrave" unicode="&#xc0;" horiz-adv-x="653" 
d="M13 0c-7 0 -10 4 -7 12l308 696c2 4 7 7 12 7h3c5 0 10 -1 13 -7l305 -696c2 -6 2 -12 -9 -12h-26c-7 0 -12 5 -14 9l-81 184h-382l-80 -184c-2 -4 -7 -9 -14 -9h-28zM153 232h347l-171 403h-2zM418 782l-172 79c-6 3 -7 9 -4 15l10 20c4 7 13 5 17 3l164 -90
c7 -4 8 -9 6 -14l-5 -10c-3 -6 -7 -7 -16 -3z" />
    <glyph glyph-name="Aacute" unicode="&#xc1;" horiz-adv-x="653" 
d="M13 0c-7 0 -10 4 -7 12l308 696c2 4 7 7 12 7h3c5 0 10 -1 13 -7l305 -696c2 -6 2 -12 -9 -12h-26c-7 0 -12 5 -14 9l-81 184h-382l-80 -184c-2 -4 -7 -9 -14 -9h-28zM153 232h347l-171 403h-2zM262 782c-9 -4 -13 -3 -16 3l-5 10c-2 5 -1 10 6 14l164 90c4 2 13 4 17 -3
l10 -20c3 -6 2 -12 -4 -15z" />
    <glyph glyph-name="Acircumflex" unicode="&#xc2;" horiz-adv-x="653" 
d="M13 0c-7 0 -10 4 -7 12l308 696c2 4 7 7 12 7h3c5 0 10 -1 13 -7l305 -696c2 -6 2 -12 -9 -12h-26c-7 0 -12 5 -14 9l-81 184h-382l-80 -184c-2 -4 -7 -9 -14 -9h-28zM153 232h347l-171 403h-2zM217 768c-8 -6 -12 -2 -15 2l-9 11c-4 5 -1 10 4 14l121 98c3 3 7 5 10 5h3
c3 0 7 -2 10 -5l121 -98c5 -4 8 -9 4 -14l-9 -11c-3 -4 -7 -8 -15 -2l-113 84z" />
    <glyph glyph-name="Atilde" unicode="&#xc3;" horiz-adv-x="653" 
d="M13 0c-7 0 -10 4 -7 12l308 696c2 4 7 7 12 7h3c5 0 10 -1 13 -7l305 -696c2 -6 2 -12 -9 -12h-26c-7 0 -12 5 -14 9l-81 184h-382l-80 -184c-2 -4 -7 -9 -14 -9h-28zM153 232h347l-171 403h-2zM199 799l-12 5c-6 2 -8 8 -6 14c7 18 29 86 93 86c72 0 65 -91 113 -91
c37 0 51 41 57 59c2 7 9 10 15 7l11 -4c4 -2 8 -5 6 -13s-23 -86 -92 -86c-70 0 -66 92 -113 92c-38 0 -51 -43 -57 -62c-2 -7 -8 -10 -15 -7z" />
    <glyph glyph-name="Adieresis" unicode="&#xc4;" horiz-adv-x="653" 
d="M13 0c-7 0 -10 4 -7 12l308 696c2 4 7 7 12 7h3c5 0 10 -1 13 -7l305 -696c2 -6 2 -12 -9 -12h-26c-7 0 -12 5 -14 9l-81 184h-382l-80 -184c-2 -4 -7 -9 -14 -9h-28zM153 232h347l-171 403h-2zM435 801c-19 0 -34 15 -34 33c0 20 15 35 34 35c20 0 35 -15 35 -35
c0 -18 -15 -33 -35 -33zM226 801c-19 0 -34 15 -34 33c0 20 15 35 34 35c20 0 35 -15 35 -35c0 -18 -15 -33 -35 -33z" />
    <glyph glyph-name="Amacron" unicode="&#x100;" horiz-adv-x="653" 
d="M13 0c-7 0 -10 4 -7 12l308 696c2 4 7 7 12 7h3c5 0 10 -1 13 -7l305 -696c2 -6 2 -12 -9 -12h-26c-7 0 -12 5 -14 9l-81 184h-382l-80 -184c-2 -4 -7 -9 -14 -9h-28zM153 232h347l-171 403h-2zM195 831c-8 0 -13 6 -13 13v12c0 8 5 13 13 13h272c7 0 13 -5 13 -13v-12
c0 -7 -6 -13 -13 -13h-272z" />
    <glyph glyph-name="Abreve" unicode="&#x102;" horiz-adv-x="653" 
d="M13 0c-7 0 -10 4 -7 12l308 696c2 4 7 7 12 7h3c5 0 10 -1 13 -7l305 -696c2 -6 2 -12 -9 -12h-26c-7 0 -12 5 -14 9l-81 184h-382l-80 -184c-2 -4 -7 -9 -14 -9h-28zM153 232h347l-171 403h-2zM331 775c-69 0 -122 49 -131 111c-1 7 2 14 10 14h13c7 0 10 -6 12 -12
c12 -44 47 -78 96 -78c46 0 85 34 95 78c2 7 6 12 12 12h14c7 0 11 -7 10 -14c-11 -63 -64 -111 -131 -111z" />
    <glyph glyph-name="Aring" unicode="&#xc5;" horiz-adv-x="653" 
d="M13 0c-7 0 -10 4 -7 12l308 696c2 4 7 7 12 7h3c5 0 10 -1 13 -7l305 -696c2 -6 2 -12 -9 -12h-26c-7 0 -12 5 -14 9l-81 184h-382l-80 -184c-2 -4 -7 -9 -14 -9h-28zM153 232h347l-171 403h-2zM331 754c-60 0 -106 46 -106 106s46 107 106 107c59 0 107 -47 107 -107
s-48 -106 -107 -106zM331 786c40 0 74 34 74 74s-34 74 -74 74s-74 -34 -74 -74s34 -74 74 -74z" />
    <glyph glyph-name="Aringacute" unicode="&#x1fa;" horiz-adv-x="653" 
d="M234 911l-5 10c-2 5 -1 10 6 14l164 90c4 2 13 4 17 -3l10 -20c3 -6 2 -12 -4 -15l-172 -79c-9 -4 -13 -3 -16 3zM13 0c-7 0 -10 4 -7 12l300 679c-47 11 -81 52 -81 104c0 60 46 107 106 107c59 0 107 -47 107 -107c0 -54 -38 -96 -89 -105l298 -678c2 -6 2 -12 -9 -12
h-26c-7 0 -12 5 -14 9l-81 184h-382l-80 -184c-2 -4 -7 -9 -14 -9h-28zM331 721c40 0 74 34 74 74s-34 74 -74 74s-74 -34 -74 -74s34 -74 74 -74zM153 232h347l-171 403h-2z" />
    <glyph glyph-name="Aogonek" unicode="&#x104;" horiz-adv-x="653" 
d="M13 0c-7 0 -10 4 -7 12l308 696c2 4 7 7 12 7h3c5 0 10 -1 13 -7l305 -696c2 -6 2 -12 -9 -12h-14c-21 -15 -66 -53 -66 -113c0 -45 36 -67 74 -67c30 0 51 10 62 15c6 3 12 1 13 -8l1 -10c1 -8 -2 -12 -8 -16c-12 -7 -41 -17 -73 -17c-56 0 -108 28 -108 98
c0 71 59 114 80 126l-82 185h-382l-80 -184c-2 -4 -7 -9 -14 -9h-28zM153 232h347l-171 403h-2z" />
    <glyph glyph-name="AE" unicode="&#xc6;" horiz-adv-x="915" 
d="M-4 0c-9 0 -10 8 -4 17l425 666c6 10 11 17 25 17h393c8 0 13 -6 13 -13v-16c0 -7 -5 -13 -13 -13h-369v-277h321c7 0 13 -6 13 -13v-17c0 -7 -4 -13 -13 -13h-321v-296h369c12 0 13 -7 13 -14v-15c0 -7 -5 -13 -13 -13h-400c-7 0 -13 6 -13 13v180h-266l-116 -184
c-5 -7 -11 -9 -16 -9h-28zM179 232h243v382z" />
    <glyph glyph-name="AEacute" unicode="&#x1fc;" horiz-adv-x="915" 
d="M-4 0c-9 0 -10 8 -4 17l425 666c6 10 11 17 25 17h393c8 0 13 -6 13 -13v-16c0 -7 -5 -13 -13 -13h-369v-277h321c7 0 13 -6 13 -13v-17c0 -7 -4 -13 -13 -13h-321v-296h369c12 0 13 -7 13 -14v-15c0 -7 -5 -13 -13 -13h-400c-7 0 -13 6 -13 13v180h-266l-116 -184
c-5 -7 -11 -9 -16 -9h-28zM179 232h243v382zM537 783c-9 -4 -13 -3 -16 3l-5 10c-2 5 -1 10 6 14l164 90c4 2 13 4 17 -3l10 -20c3 -6 2 -12 -4 -15z" />
    <glyph glyph-name="Cacute" unicode="&#x106;" horiz-adv-x="718" 
d="M56 349c0 200 162 361 362 361c102 0 178 -34 243 -93c5 -5 6 -13 1 -18l-16 -17c-6 -6 -11 -5 -17 1c-57 51 -129 82 -211 82c-175 0 -312 -143 -312 -316c0 -172 137 -314 312 -314c86 0 151 34 211 84c6 5 12 5 16 2l17 -17c5 -4 5 -12 0 -17
c-68 -66 -155 -97 -244 -97c-200 0 -362 158 -362 359zM350 782c-9 -4 -13 -3 -16 3l-5 10c-2 5 -1 10 6 14l164 90c4 2 13 4 17 -3l10 -20c3 -6 2 -12 -4 -15z" />
    <glyph glyph-name="Ccircumflex" unicode="&#x108;" horiz-adv-x="718" 
d="M56 349c0 200 162 361 362 361c102 0 178 -34 243 -93c5 -5 6 -13 1 -18l-16 -17c-6 -6 -11 -5 -17 1c-57 51 -129 82 -211 82c-175 0 -312 -143 -312 -316c0 -172 137 -314 312 -314c86 0 151 34 211 84c6 5 12 5 16 2l17 -17c5 -4 5 -12 0 -17
c-68 -66 -155 -97 -244 -97c-200 0 -362 158 -362 359zM305 768c-8 -6 -12 -2 -15 2l-9 11c-4 5 -1 10 4 14l121 98c3 3 7 5 10 5h3c3 0 7 -2 10 -5l121 -98c5 -4 8 -9 4 -14l-9 -11c-3 -4 -7 -8 -15 -2l-113 84z" />
    <glyph glyph-name="Ccaron" unicode="&#x10c;" horiz-adv-x="718" 
d="M56 349c0 200 162 361 362 361c102 0 178 -34 243 -93c5 -5 6 -13 1 -18l-16 -17c-6 -6 -11 -5 -17 1c-57 51 -129 82 -211 82c-175 0 -312 -143 -312 -316c0 -172 137 -314 312 -314c86 0 151 34 211 84c6 5 12 5 16 2l17 -17c5 -4 5 -12 0 -17
c-68 -66 -155 -97 -244 -97c-200 0 -362 158 -362 359zM417 763c-3 0 -7 2 -10 5l-121 98c-5 4 -8 9 -4 14l9 11c3 4 7 8 15 2l113 -84l112 84c8 6 12 2 15 -2l9 -11c4 -5 1 -10 -4 -14l-121 -98c-3 -3 -7 -5 -10 -5h-3z" />
    <glyph glyph-name="Cdotaccent" unicode="&#x10a;" horiz-adv-x="718" 
d="M56 349c0 200 162 361 362 361c102 0 178 -34 243 -93c5 -5 6 -13 1 -18l-16 -17c-6 -6 -11 -5 -17 1c-57 51 -129 82 -211 82c-175 0 -312 -143 -312 -316c0 -172 137 -314 312 -314c86 0 151 34 211 84c6 5 12 5 16 2l17 -17c5 -4 5 -12 0 -17
c-68 -66 -155 -97 -244 -97c-200 0 -362 158 -362 359zM418 810c-21 0 -38 17 -38 38s17 38 38 38s38 -17 38 -38s-17 -38 -38 -38z" />
    <glyph glyph-name="Ccedilla" unicode="&#xc7;" horiz-adv-x="718" 
d="M56 349c0 200 162 361 362 361c102 0 178 -34 243 -93c5 -5 6 -13 1 -18l-16 -17c-6 -6 -11 -5 -17 1c-57 51 -129 82 -211 82c-175 0 -312 -143 -312 -316c0 -172 137 -314 312 -314c86 0 151 34 211 84c6 5 12 5 16 2l17 -17c5 -4 5 -12 0 -17
c-68 -66 -155 -97 -244 -97c-5 0 -10 1 -15 1v-45c60 -7 107 -38 107 -97c0 -53 -42 -97 -98 -97c-39 0 -69 19 -78 34c-5 8 -4 14 1 18l10 8c4 3 10 3 16 -3c6 -7 22 -21 51 -21c36 0 59 27 59 60c0 48 -49 63 -92 68c-9 2 -12 7 -12 13v65c-176 23 -311 171 -311 355z" />
    <glyph glyph-name="Dcaron" unicode="&#x10e;" horiz-adv-x="738" 
d="M106 13v674c0 7 6 13 12 13h212c194 0 352 -157 352 -349c0 -195 -158 -351 -352 -351h-212c-6 0 -12 6 -12 13zM153 43h169c175 0 310 133 310 308c0 173 -135 306 -310 306h-169v-614zM322 763c-3 0 -7 2 -10 5l-121 98c-5 4 -8 9 -4 14l9 11c3 4 7 8 15 2l113 -84
l112 84c8 6 12 2 15 -2l9 -11c4 -5 1 -10 -4 -14l-121 -98c-3 -3 -7 -5 -10 -5h-3z" />
    <glyph glyph-name="Dcroat" unicode="&#x110;" horiz-adv-x="741" 
d="M109 13v319h-35c-7 0 -12 6 -12 13v5c0 7 5 13 12 13h35v324c0 7 5 13 12 13h212c194 0 352 -157 352 -349c0 -195 -158 -351 -352 -351h-212c-7 0 -12 6 -12 13zM156 43h169c174 0 309 133 309 308c0 173 -135 306 -309 306h-169v-294h250c7 0 13 -6 13 -13v-6
c0 -7 -6 -12 -13 -12h-250v-289z" />
    <glyph glyph-name="Eth" unicode="&#xd0;" horiz-adv-x="741" 
d="M109 13v319h-35c-7 0 -12 6 -12 13v5c0 7 5 13 12 13h35v324c0 7 5 13 12 13h212c194 0 352 -157 352 -349c0 -195 -158 -351 -352 -351h-212c-7 0 -12 6 -12 13zM156 43h169c174 0 309 133 309 308c0 173 -135 306 -309 306h-169v-294h250c7 0 13 -6 13 -13v-6
c0 -7 -6 -12 -13 -12h-250v-289z" />
    <glyph glyph-name="Egrave" unicode="&#xc8;" horiz-adv-x="598" 
d="M106 13v674c0 7 6 13 13 13h401c7 0 13 -6 13 -13v-17c0 -7 -6 -13 -13 -13h-366v-276h317c7 0 13 -6 13 -13v-17c0 -7 -6 -13 -13 -13h-317v-296h366c7 0 13 -6 13 -13v-16c0 -7 -6 -13 -13 -13h-401c-7 0 -13 6 -13 13zM402 782l-172 79c-6 3 -7 9 -4 15l10 20
c4 7 13 5 17 3l164 -90c7 -4 8 -9 6 -14l-5 -10c-3 -6 -7 -7 -16 -3z" />
    <glyph glyph-name="Eacute" unicode="&#xc9;" horiz-adv-x="598" 
d="M106 13v674c0 7 6 13 13 13h401c7 0 13 -6 13 -13v-17c0 -7 -6 -13 -13 -13h-366v-276h317c7 0 13 -6 13 -13v-17c0 -7 -6 -13 -13 -13h-317v-296h366c7 0 13 -6 13 -13v-16c0 -7 -6 -13 -13 -13h-401c-7 0 -13 6 -13 13zM246 782c-9 -4 -13 -3 -16 3l-5 10
c-2 5 -1 10 6 14l164 90c4 2 13 4 17 -3l10 -20c3 -6 2 -12 -4 -15z" />
    <glyph glyph-name="Ecircumflex" unicode="&#xca;" horiz-adv-x="598" 
d="M106 13v674c0 7 6 13 13 13h401c7 0 13 -6 13 -13v-17c0 -7 -6 -13 -13 -13h-366v-276h317c7 0 13 -6 13 -13v-17c0 -7 -6 -13 -13 -13h-317v-296h366c7 0 13 -6 13 -13v-16c0 -7 -6 -13 -13 -13h-401c-7 0 -13 6 -13 13zM201 768c-8 -6 -12 -2 -15 2l-9 11
c-4 5 -1 10 4 14l121 98c3 3 7 5 10 5h3c3 0 7 -2 10 -5l121 -98c5 -4 8 -9 4 -14l-9 -11c-3 -4 -7 -8 -15 -2l-113 84z" />
    <glyph glyph-name="Ecaron" unicode="&#x11a;" horiz-adv-x="598" 
d="M106 13v674c0 7 6 13 13 13h401c7 0 13 -6 13 -13v-17c0 -7 -6 -13 -13 -13h-366v-276h317c7 0 13 -6 13 -13v-17c0 -7 -6 -13 -13 -13h-317v-296h366c7 0 13 -6 13 -13v-16c0 -7 -6 -13 -13 -13h-401c-7 0 -13 6 -13 13zM313 763c-3 0 -7 2 -10 5l-121 98
c-5 4 -8 9 -4 14l9 11c3 4 7 8 15 2l113 -84l112 84c8 6 12 2 15 -2l9 -11c4 -5 1 -10 -4 -14l-121 -98c-3 -3 -7 -5 -10 -5h-3z" />
    <glyph glyph-name="Edieresis" unicode="&#xcb;" horiz-adv-x="598" 
d="M106 13v674c0 7 6 13 13 13h401c7 0 13 -6 13 -13v-17c0 -7 -6 -13 -13 -13h-366v-276h317c7 0 13 -6 13 -13v-17c0 -7 -6 -13 -13 -13h-317v-296h366c7 0 13 -6 13 -13v-16c0 -7 -6 -13 -13 -13h-401c-7 0 -13 6 -13 13zM423 801c-19 0 -34 15 -34 33c0 20 15 35 34 35
c20 0 35 -15 35 -35c0 -18 -15 -33 -35 -33zM214 801c-19 0 -34 15 -34 33c0 20 15 35 34 35c20 0 35 -15 35 -35c0 -18 -15 -33 -35 -33z" />
    <glyph glyph-name="Emacron" unicode="&#x112;" horiz-adv-x="598" 
d="M106 13v674c0 7 6 13 13 13h401c7 0 13 -6 13 -13v-17c0 -7 -6 -13 -13 -13h-366v-276h317c7 0 13 -6 13 -13v-17c0 -7 -6 -13 -13 -13h-317v-296h366c7 0 13 -6 13 -13v-16c0 -7 -6 -13 -13 -13h-401c-7 0 -13 6 -13 13zM190 831c-8 0 -13 6 -13 13v12c0 8 5 13 13 13
h272c7 0 13 -5 13 -13v-12c0 -7 -6 -13 -13 -13h-272z" />
    <glyph glyph-name="Ebreve" unicode="&#x114;" horiz-adv-x="598" 
d="M106 13v674c0 7 6 13 13 13h401c7 0 13 -6 13 -13v-17c0 -7 -6 -13 -13 -13h-366v-276h317c7 0 13 -6 13 -13v-17c0 -7 -6 -13 -13 -13h-317v-296h366c7 0 13 -6 13 -13v-16c0 -7 -6 -13 -13 -13h-401c-7 0 -13 6 -13 13zM315 775c-69 0 -122 49 -131 111
c-1 7 2 14 10 14h13c7 0 10 -6 12 -12c12 -44 47 -78 96 -78c46 0 85 34 95 78c2 7 6 12 12 12h14c7 0 11 -7 10 -14c-11 -63 -64 -111 -131 -111z" />
    <glyph glyph-name="Edotaccent" unicode="&#x116;" horiz-adv-x="598" 
d="M106 13v674c0 7 6 13 13 13h401c7 0 13 -6 13 -13v-17c0 -7 -6 -13 -13 -13h-366v-276h317c7 0 13 -6 13 -13v-17c0 -7 -6 -13 -13 -13h-317v-296h366c7 0 13 -6 13 -13v-16c0 -7 -6 -13 -13 -13h-401c-7 0 -13 6 -13 13zM316 810c-21 0 -38 17 -38 38s17 38 38 38
s38 -17 38 -38s-17 -38 -38 -38z" />
    <glyph glyph-name="Eogonek" unicode="&#x118;" horiz-adv-x="598" 
d="M106 13v674c0 7 6 13 13 13h401c7 0 13 -6 13 -13v-17c0 -7 -6 -13 -13 -13h-366v-276h317c7 0 13 -6 13 -13v-17c0 -7 -6 -13 -13 -13h-317v-296h366c7 0 13 -6 13 -13v-11c0 -8 -8 -14 -14 -18c-21 -15 -66 -53 -66 -113c0 -45 36 -67 74 -67c30 0 51 10 62 15
c6 3 12 1 13 -8l1 -10c1 -8 -2 -12 -8 -16c-12 -7 -41 -17 -73 -17c-56 0 -108 28 -108 98c0 60 41 100 67 118h-362c-7 0 -13 6 -13 13z" />
    <glyph glyph-name="Gcircumflex" unicode="&#x11c;" horiz-adv-x="743" 
d="M56 349c0 200 161 361 362 361c101 0 177 -34 242 -93c5 -5 6 -13 1 -18c-5 -6 -11 -12 -16 -17c-6 -7 -11 -6 -17 0c-56 52 -129 84 -211 84c-174 0 -311 -142 -311 -315s137 -315 311 -315c122 0 198 47 208 55v188h-171c-11 0 -13 4 -13 13v20c0 8 2 12 13 12h205
c7 0 13 -6 13 -12v-232c0 -15 -6 -20 -14 -26c-18 -12 -109 -64 -240 -64c-201 0 -362 158 -362 359zM304 768c-8 -6 -12 -2 -15 2l-9 11c-4 5 -1 10 4 14l121 98c3 3 7 5 10 5h3c3 0 7 -2 10 -5l121 -98c5 -4 8 -9 4 -14l-9 -11c-3 -4 -7 -8 -15 -2l-113 84z" />
    <glyph glyph-name="Gbreve" unicode="&#x11e;" horiz-adv-x="743" 
d="M56 349c0 200 161 361 362 361c101 0 177 -34 242 -93c5 -5 6 -13 1 -18c-5 -6 -11 -12 -16 -17c-6 -7 -11 -6 -17 0c-56 52 -129 84 -211 84c-174 0 -311 -142 -311 -315s137 -315 311 -315c122 0 198 47 208 55v188h-171c-11 0 -13 4 -13 13v20c0 8 2 12 13 12h205
c7 0 13 -6 13 -12v-232c0 -15 -6 -20 -14 -26c-18 -12 -109 -64 -240 -64c-201 0 -362 158 -362 359zM418 775c-69 0 -122 49 -131 111c-1 7 2 14 10 14h13c7 0 10 -6 12 -12c12 -44 47 -78 96 -78c46 0 85 34 95 78c2 7 6 12 12 12h14c7 0 11 -7 10 -14
c-11 -63 -64 -111 -131 -111z" />
    <glyph glyph-name="Gdotaccent" unicode="&#x120;" horiz-adv-x="743" 
d="M56 349c0 200 161 361 362 361c101 0 177 -34 242 -93c5 -5 6 -13 1 -18c-5 -6 -11 -12 -16 -17c-6 -7 -11 -6 -17 0c-56 52 -129 84 -211 84c-174 0 -311 -142 -311 -315s137 -315 311 -315c122 0 198 47 208 55v188h-171c-11 0 -13 4 -13 13v20c0 8 2 12 13 12h205
c7 0 13 -6 13 -12v-232c0 -15 -6 -20 -14 -26c-18 -12 -109 -64 -240 -64c-201 0 -362 158 -362 359zM417 810c-21 0 -38 17 -38 38s17 38 38 38s38 -17 38 -38s-17 -38 -38 -38z" />
    <glyph glyph-name="Gcommaaccent" unicode="&#x122;" horiz-adv-x="743" 
d="M56 349c0 200 161 361 362 361c101 0 177 -34 242 -93c5 -5 6 -13 1 -18c-5 -6 -11 -12 -16 -17c-6 -7 -11 -6 -17 0c-56 52 -129 84 -211 84c-174 0 -311 -142 -311 -315s137 -315 311 -315c122 0 198 47 208 55v188h-171c-11 0 -13 4 -13 13v20c0 8 2 12 13 12h205
c7 0 13 -6 13 -12v-232c0 -15 -6 -20 -14 -26c-18 -12 -109 -64 -240 -64c-201 0 -362 158 -362 359zM373 -141c0 24 17 39 42 39c29 0 56 -28 56 -94c0 -80 -53 -128 -72 -139c-7 -4 -13 -5 -17 0l-8 10c-4 5 -3 11 4 16c5 4 50 34 56 95c1 15 -1 28 -5 38
c-5 -3 -10 -5 -16 -5c-26 0 -40 19 -40 40z" />
    <glyph glyph-name="Hcircumflex" unicode="&#x124;" horiz-adv-x="755" 
d="M106 13v674c0 7 6 13 13 13h21c8 0 13 -6 13 -13v-307h449v307c0 7 6 13 13 13h21c8 0 13 -6 13 -13v-674c0 -7 -5 -13 -13 -13h-21c-7 0 -13 6 -13 13v325h-449v-325c0 -7 -5 -13 -13 -13h-21c-7 0 -13 6 -13 13zM273 768c-8 -6 -12 -2 -15 2l-9 11c-4 5 -1 10 4 14
l121 98c3 3 7 5 10 5h3c3 0 7 -2 10 -5l121 -98c5 -4 8 -9 4 -14l-9 -11c-3 -4 -7 -8 -15 -2l-113 84z" />
    <glyph glyph-name="Hbar" unicode="&#x126;" horiz-adv-x="756" 
d="M106 13v529h-26c-7 0 -12 6 -12 14v4c0 7 5 13 12 13h26v114c0 7 6 13 13 13h21c8 0 13 -6 13 -13v-114h449v114c0 12 12 13 23 13h12c7 0 13 -6 13 -13v-114h26c9 0 13 -7 13 -15v-4c0 -7 -5 -12 -13 -12h-26v-529c0 -7 -6 -13 -13 -13c-14 0 -35 -3 -35 13v325h-449
v-325c0 -7 -6 -13 -16 -13h-18c-7 0 -13 6 -13 13zM153 381h449v161h-449v-161z" />
    <glyph glyph-name="Igrave" unicode="&#xcc;" horiz-adv-x="260" 
d="M106 13v674c0 7 6 13 13 13h22c7 0 13 -6 13 -13v-674c0 -8 -7 -13 -14 -13h-21c-7 0 -13 6 -13 13zM217 782l-172 79c-6 3 -7 9 -4 15l10 20c4 7 13 5 17 3l164 -90c7 -4 8 -9 6 -14l-5 -10c-3 -6 -7 -7 -16 -3z" />
    <glyph glyph-name="Iacute" unicode="&#xcd;" horiz-adv-x="260" 
d="M106 13v674c0 7 6 13 13 13h22c7 0 13 -6 13 -13v-674c0 -8 -7 -13 -14 -13h-21c-7 0 -13 6 -13 13zM61 782c-9 -4 -13 -3 -16 3l-5 10c-2 5 -1 10 6 14l164 90c4 2 13 4 17 -3l10 -20c3 -6 2 -12 -4 -15z" />
    <glyph glyph-name="Ibreve" unicode="&#x12c;" horiz-adv-x="260" 
d="M106 13v674c0 7 6 13 13 13h22c7 0 13 -6 13 -13v-674c0 -8 -7 -13 -14 -13h-21c-7 0 -13 6 -13 13zM130 775c-69 0 -122 49 -131 111c-1 7 2 14 10 14h13c7 0 10 -6 12 -12c12 -44 47 -78 96 -78c46 0 85 34 95 78c2 7 6 12 12 12h14c7 0 11 -7 10 -14
c-11 -63 -64 -111 -131 -111z" />
    <glyph glyph-name="Icircumflex" unicode="&#xce;" horiz-adv-x="260" 
d="M106 13v674c0 7 6 13 13 13h22c7 0 13 -6 13 -13v-674c0 -8 -7 -13 -14 -13h-21c-7 0 -13 6 -13 13zM16 768c-8 -6 -12 -2 -15 2l-9 11c-4 5 -1 10 4 14l121 98c3 3 7 5 10 5h3c3 0 7 -2 10 -5l121 -98c5 -4 8 -9 4 -14l-9 -11c-3 -4 -7 -8 -15 -2l-113 84z" />
    <glyph glyph-name="Itilde" unicode="&#x128;" horiz-adv-x="260" 
d="M105 13v674c0 7 6 13 13 13h22c7 0 13 -6 13 -13v-674c0 -8 -7 -13 -14 -13h-21c-7 0 -13 6 -13 13zM-3 799l-12 5c-6 2 -8 8 -6 14c7 18 29 86 93 86c72 0 65 -91 113 -91c37 0 51 41 57 59c2 7 9 10 15 7l11 -4c4 -2 8 -5 6 -13s-23 -86 -92 -86c-70 0 -66 92 -113 92
c-38 0 -51 -43 -57 -62c-2 -7 -8 -10 -15 -7z" />
    <glyph glyph-name="Idieresis" unicode="&#xcf;" horiz-adv-x="260" 
d="M106 13v674c0 7 6 13 13 13h22c7 0 13 -6 13 -13v-674c0 -8 -7 -13 -14 -13h-21c-7 0 -13 6 -13 13zM234 801c-19 0 -34 15 -34 33c0 20 15 35 34 35c20 0 35 -15 35 -35c0 -18 -15 -33 -35 -33zM25 801c-19 0 -34 15 -34 33c0 20 15 35 34 35c20 0 35 -15 35 -35
c0 -18 -15 -33 -35 -33z" />
    <glyph glyph-name="Imacron" unicode="&#x12a;" horiz-adv-x="260" 
d="M106 13v674c0 7 6 13 13 13h22c7 0 13 -6 13 -13v-674c0 -8 -7 -13 -14 -13h-21c-7 0 -13 6 -13 13zM-6 831c-8 0 -13 6 -13 13v12c0 8 5 13 13 13h272c7 0 13 -5 13 -13v-12c0 -7 -6 -13 -13 -13h-272z" />
    <glyph glyph-name="Idotaccent" unicode="&#x130;" horiz-adv-x="260" 
d="M106 13v674c0 7 6 13 13 13h22c7 0 13 -6 13 -13v-674c0 -8 -7 -13 -14 -13h-21c-7 0 -13 6 -13 13zM129 810c-21 0 -38 17 -38 38s17 38 38 38s38 -17 38 -38s-17 -38 -38 -38z" />
    <glyph glyph-name="Iogonek" unicode="&#x12e;" horiz-adv-x="261" 
d="M107 11v676c0 7 6 13 13 13h22c7 0 13 -6 13 -13v-674c0 -8 -7 -13 -14 -13h-15c-21 -15 -66 -53 -66 -113c0 -45 36 -67 74 -67c30 0 51 10 62 15c6 3 12 1 13 -8l1 -10c1 -8 -2 -12 -8 -16c-12 -7 -41 -17 -73 -17c-56 0 -108 28 -108 98c0 80 74 124 86 129z" />
    <glyph glyph-name="Jcircumflex" unicode="&#x134;" horiz-adv-x="392" 
d="M-25 65c-4 6 -4 12 1 17l13 12c5 5 10 7 17 0c22 -22 57 -62 123 -62c85 0 146 59 146 178v477c0 8 6 13 14 13h20c7 0 13 -6 13 -13v-476c0 -140 -75 -221 -194 -221c-88 0 -136 54 -153 75zM185 768c-8 -6 -12 -2 -15 2l-9 11c-4 5 -1 10 4 14l121 98c3 3 7 5 10 5h3
c3 0 7 -2 10 -5l121 -98c5 -4 8 -9 4 -14l-9 -11c-3 -4 -7 -8 -15 -2l-113 84z" />
    <glyph glyph-name="Kcommaaccent" unicode="&#x136;" horiz-adv-x="590" 
d="M106 13v672c0 9 6 15 15 15h18c9 0 15 -6 15 -15v-309l340 317c8 7 11 7 20 7h28c11 0 12 -11 6 -17l-348 -323l359 -343c6 -5 4 -17 -9 -17h-32c-9 0 -14 2 -22 10l-342 332v-329c0 -10 -7 -13 -15 -13h-20c-8 0 -13 5 -13 13zM279 -141c0 24 17 39 42 39
c29 0 56 -28 56 -94c0 -80 -53 -128 -72 -139c-7 -4 -13 -5 -17 0l-8 10c-4 5 -3 11 4 16c5 4 50 34 56 95c1 15 -1 28 -5 38c-5 -3 -10 -5 -16 -5c-26 0 -40 19 -40 40z" />
    <glyph glyph-name="Lacute" unicode="&#x139;" horiz-adv-x="489" 
d="M106 13v674c0 7 6 13 13 13h22c6 0 12 -6 12 -13v-645h319c12 0 13 -6 13 -13v-18c0 -7 -6 -11 -13 -11h-353c-7 0 -13 6 -13 13zM55 782c-9 -4 -13 -3 -16 3l-5 10c-2 5 -1 10 6 14l164 90c4 2 13 4 17 -3l10 -20c3 -6 2 -12 -4 -15z" />
    <glyph glyph-name="Lcaron" unicode="&#x13d;" horiz-adv-x="489" 
d="M106 13v674c0 7 6 13 13 13h22c6 0 12 -6 12 -13v-645h319c12 0 13 -6 13 -13v-18c0 -7 -6 -11 -13 -11h-353c-7 0 -13 6 -13 13zM349 671c0 24 17 39 42 39c29 0 56 -28 56 -94c0 -80 -53 -128 -72 -139c-7 -4 -13 -5 -17 0l-8 10c-4 5 -3 11 4 16c5 4 50 34 56 95
c1 15 -1 28 -5 38c-5 -3 -10 -5 -16 -5c-26 0 -40 19 -40 40z" />
    <glyph glyph-name="Lcommaaccent" unicode="&#x13b;" horiz-adv-x="490" 
d="M106 13v674c0 7 6 13 13 13h22c6 0 12 -6 12 -13v-645h319c12 0 13 -6 13 -13v-18c0 -7 -6 -11 -13 -11h-353c-7 0 -13 6 -13 13zM254 -141c0 24 17 39 42 39c29 0 56 -28 56 -94c0 -80 -53 -128 -72 -139c-7 -4 -13 -5 -17 0l-8 10c-4 5 -3 11 4 16c5 4 50 34 56 95
c1 15 -1 28 -5 38c-5 -3 -10 -5 -16 -5c-26 0 -40 19 -40 40z" />
    <glyph glyph-name="Lslash" unicode="&#x141;" horiz-adv-x="497" 
d="M114 13v307l-33 -16c-6 -4 -13 -2 -16 4l-4 7c-3 5 -1 13 5 16l48 24v332c0 7 5 13 13 13h21c7 0 13 -6 13 -13v-305l146 74c6 4 14 2 17 -5l3 -6c4 -6 0 -13 -5 -16l-161 -83v-304h329c12 0 13 -11 13 -20v-9c0 -7 -6 -13 -13 -13h-363c-8 0 -13 6 -13 13z" />
    <glyph glyph-name="Ldot" unicode="&#x13f;" horiz-adv-x="549" 
d="M106 13v674c0 7 6 13 13 13h22c6 0 12 -6 12 -13v-645h319c12 0 13 -6 13 -13v-18c0 -7 -6 -11 -13 -11h-353c-7 0 -13 6 -13 13zM460 316c-21 0 -38 17 -38 38s17 38 38 38s38 -17 38 -38s-17 -38 -38 -38z" />
    <glyph glyph-name="Nacute" unicode="&#x143;" horiz-adv-x="771" 
d="M106 13v684c0 8 7 13 15 13h17l480 -625h1v602c0 7 6 13 13 13h20c7 0 13 -6 13 -13v-684c0 -9 -8 -13 -16 -13h-13c-1 0 -9 3 -484 631h-1v-608c0 -7 -6 -13 -13 -13h-19c-7 0 -13 6 -13 13zM323 782c-9 -4 -13 -3 -16 3l-5 10c-2 5 -1 10 6 14l164 90c4 2 13 4 17 -3
l10 -20c3 -6 2 -12 -4 -15z" />
    <glyph glyph-name="Ncaron" unicode="&#x147;" horiz-adv-x="771" 
d="M106 13v684c0 8 7 13 15 13h17l480 -625h1v602c0 7 6 13 13 13h20c7 0 13 -6 13 -13v-684c0 -9 -8 -13 -16 -13h-13c-1 0 -9 3 -484 631h-1v-608c0 -7 -6 -13 -13 -13h-19c-7 0 -13 6 -13 13zM390 763c-3 0 -7 2 -10 5l-121 98c-5 4 -8 9 -4 14l9 11c3 4 7 8 15 2
l113 -84l112 84c8 6 12 2 15 -2l9 -11c4 -5 1 -10 -4 -14l-121 -98c-3 -3 -7 -5 -10 -5h-3z" />
    <glyph glyph-name="Ntilde" unicode="&#xd1;" horiz-adv-x="771" 
d="M106 13v684c0 8 7 13 15 13h17l480 -625h1v602c0 7 6 13 13 13h20c7 0 13 -6 13 -13v-684c0 -9 -8 -13 -16 -13h-13c-1 0 -9 3 -484 631h-1v-608c0 -7 -6 -13 -13 -13h-19c-7 0 -13 6 -13 13zM260 799l-12 5c-6 2 -8 8 -6 14c7 18 29 86 93 86c72 0 65 -91 113 -91
c37 0 51 41 57 59c2 7 9 10 15 7l11 -4c4 -2 8 -5 6 -13s-23 -86 -92 -86c-70 0 -66 92 -113 92c-38 0 -51 -43 -57 -62c-2 -7 -8 -10 -15 -7z" />
    <glyph glyph-name="Ncommaaccent" unicode="&#x145;" horiz-adv-x="771" 
d="M106 13v684c0 8 7 13 15 13h17l480 -625h1v602c0 7 6 13 13 13h20c7 0 13 -6 13 -13v-684c0 -9 -8 -13 -16 -13h-13c-1 0 -9 3 -484 631h-1v-608c0 -7 -6 -13 -13 -13h-19c-7 0 -13 6 -13 13zM354 -141c0 24 17 39 42 39c29 0 56 -28 56 -94c0 -80 -53 -128 -72 -139
c-7 -4 -13 -5 -17 0l-8 10c-4 5 -3 11 4 16c5 4 50 34 56 95c1 15 -1 28 -5 38c-5 -3 -10 -5 -16 -5c-26 0 -40 19 -40 40z" />
    <glyph glyph-name="Ograve" unicode="&#xd2;" horiz-adv-x="833" 
d="M56 349c0 200 160 361 360 361c201 0 361 -161 361 -361c0 -201 -160 -359 -361 -359c-200 0 -360 158 -360 359zM100 349c0 -175 141 -315 316 -315s317 140 317 315s-142 317 -317 317s-316 -142 -316 -317zM504 782l-172 79c-6 3 -7 9 -4 15l10 20c4 7 13 5 17 3
l164 -90c7 -4 8 -9 6 -14l-5 -10c-3 -6 -7 -7 -16 -3z" />
    <glyph glyph-name="Oacute" unicode="&#xd3;" horiz-adv-x="833" 
d="M56 349c0 200 160 361 360 361c201 0 361 -161 361 -361c0 -201 -160 -359 -361 -359c-200 0 -360 158 -360 359zM100 349c0 -175 141 -315 316 -315s317 140 317 315s-142 317 -317 317s-316 -142 -316 -317zM348 782c-9 -4 -13 -3 -16 3l-5 10c-2 5 -1 10 6 14l164 90
c4 2 13 4 17 -3l10 -20c3 -6 2 -12 -4 -15z" />
    <glyph glyph-name="Ocircumflex" unicode="&#xd4;" horiz-adv-x="833" 
d="M56 349c0 200 160 361 360 361c201 0 361 -161 361 -361c0 -201 -160 -359 -361 -359c-200 0 -360 158 -360 359zM100 349c0 -175 141 -315 316 -315s317 140 317 315s-142 317 -317 317s-316 -142 -316 -317zM303 768c-8 -6 -12 -2 -15 2l-9 11c-4 5 -1 10 4 14l121 98
c3 3 7 5 10 5h3c3 0 7 -2 10 -5l121 -98c5 -4 8 -9 4 -14l-9 -11c-3 -4 -7 -8 -15 -2l-113 84z" />
    <glyph glyph-name="Otilde" unicode="&#xd5;" horiz-adv-x="833" 
d="M56 349c0 200 160 361 360 361c201 0 361 -161 361 -361c0 -201 -160 -359 -361 -359c-200 0 -360 158 -360 359zM100 349c0 -175 141 -315 316 -315s317 140 317 315s-142 317 -317 317s-316 -142 -316 -317zM285 799l-12 5c-6 2 -8 8 -6 14c7 18 29 86 93 86
c72 0 65 -91 113 -91c37 0 51 41 57 59c2 7 9 10 15 7l11 -4c4 -2 8 -5 6 -13s-23 -86 -92 -86c-70 0 -66 92 -113 92c-38 0 -51 -43 -57 -62c-2 -7 -8 -10 -15 -7z" />
    <glyph glyph-name="Odieresis" unicode="&#xd6;" horiz-adv-x="833" 
d="M56 349c0 200 160 361 360 361c201 0 361 -161 361 -361c0 -201 -160 -359 -361 -359c-200 0 -360 158 -360 359zM100 349c0 -175 141 -315 316 -315s317 140 317 315s-142 317 -317 317s-316 -142 -316 -317zM521 801c-19 0 -34 15 -34 33c0 20 15 35 34 35
c20 0 35 -15 35 -35c0 -18 -15 -33 -35 -33zM312 801c-19 0 -34 15 -34 33c0 20 15 35 34 35c20 0 35 -15 35 -35c0 -18 -15 -33 -35 -33z" />
    <glyph glyph-name="Omacron" unicode="&#x14c;" horiz-adv-x="833" 
d="M56 349c0 200 160 361 360 361c201 0 361 -161 361 -361c0 -201 -160 -359 -361 -359c-200 0 -360 158 -360 359zM100 349c0 -175 141 -315 316 -315s317 140 317 315s-142 317 -317 317s-316 -142 -316 -317zM281 831c-8 0 -13 6 -13 13v12c0 8 5 13 13 13h272
c7 0 13 -5 13 -13v-12c0 -7 -6 -13 -13 -13h-272z" />
    <glyph glyph-name="Obreve" unicode="&#x14e;" horiz-adv-x="833" 
d="M56 349c0 200 160 361 360 361c201 0 361 -161 361 -361c0 -201 -160 -359 -361 -359c-200 0 -360 158 -360 359zM100 349c0 -175 141 -315 316 -315s317 140 317 315s-142 317 -317 317s-316 -142 -316 -317zM417 775c-69 0 -122 49 -131 111c-1 7 2 14 10 14h13
c7 0 10 -6 12 -12c12 -44 47 -78 96 -78c46 0 85 34 95 78c2 7 6 12 12 12h14c7 0 11 -7 10 -14c-11 -63 -64 -111 -131 -111z" />
    <glyph glyph-name="Ohungarumlaut" unicode="&#x150;" horiz-adv-x="833" 
d="M56 349c0 200 160 361 360 361c201 0 361 -161 361 -361c0 -201 -160 -359 -361 -359c-200 0 -360 158 -360 359zM100 349c0 -175 141 -315 316 -315s317 140 317 315s-142 317 -317 317s-316 -142 -316 -317zM501 766c-7 0 -10 5 -7 12l79 159c3 7 7 11 14 11h22
c11 0 15 -8 10 -17l-93 -157c-3 -6 -8 -8 -13 -8h-12zM335 766c-7 0 -10 5 -7 12l79 159c3 7 7 11 14 11h22c11 0 15 -8 10 -17l-93 -157c-3 -6 -8 -8 -13 -8h-12z" />
    <glyph glyph-name="Oslash" unicode="&#xd8;" horiz-adv-x="833" 
d="M84 28c-5 5 -5 13 0 18l63 62c-56 64 -90 148 -90 241c0 200 159 361 360 361c96 0 183 -37 247 -98l66 64c4 5 12 5 17 0l4 -4c5 -5 5 -13 0 -18l-65 -64c56 -64 92 -149 92 -241c0 -201 -161 -359 -361 -359c-97 0 -184 35 -248 96l-64 -62c-4 -5 -12 -5 -17 0z
M179 140l454 441c-57 53 -133 85 -216 85c-175 0 -316 -142 -316 -317c0 -81 29 -154 78 -209zM201 118c56 -53 132 -84 216 -84c175 0 317 140 317 315c0 80 -30 154 -80 210z" />
    <glyph glyph-name="Oslashacute" unicode="&#x1fe;" horiz-adv-x="833" 
d="M84 28c-5 5 -5 13 0 18l63 62c-56 64 -90 148 -90 241c0 200 159 361 360 361c96 0 183 -37 247 -98l66 64c4 5 12 5 17 0l4 -4c5 -5 5 -13 0 -18l-65 -64c56 -64 92 -149 92 -241c0 -201 -161 -359 -361 -359c-97 0 -184 35 -248 96l-64 -62c-4 -5 -12 -5 -17 0z
M179 140l454 441c-57 53 -133 85 -216 85c-175 0 -316 -142 -316 -317c0 -81 29 -154 78 -209zM201 118c56 -53 132 -84 216 -84c175 0 317 140 317 315c0 80 -30 154 -80 210zM348 782c-9 -4 -13 -3 -16 3l-5 10c-2 5 -1 10 6 14l164 90c4 2 13 4 17 -3l10 -20
c3 -6 2 -12 -4 -15z" />
    <glyph glyph-name="OE" unicode="&#x152;" horiz-adv-x="976" 
d="M56 349c0 200 159 361 359 361c37 0 71 -7 85 -10h399c7 0 12 -6 12 -13v-17c0 -7 -5 -13 -12 -13h-366v-276h317c7 0 13 -6 13 -13v-17c0 -7 -6 -13 -13 -13h-317v-296h366c7 0 12 -6 12 -13v-16c0 -7 -5 -13 -12 -13h-398c-14 -3 -49 -10 -86 -10
c-201 0 -359 158 -359 359zM99 349c0 -175 141 -315 316 -315c24 0 47 2 70 7v616c-23 5 -45 8 -70 8c-175 0 -316 -141 -316 -316z" />
    <glyph glyph-name="Racute" unicode="&#x154;" horiz-adv-x="650" 
d="M106 13v674c0 7 5 13 13 13h248c122 0 223 -92 223 -214c0 -101 -70 -182 -165 -209l146 -259c5 -8 3 -18 -7 -18h-31c-7 0 -11 3 -14 9l-145 262c-13 -1 -24 -1 -37 -1h-184v-257c0 -7 -6 -13 -16 -13h-18c-7 0 -13 6 -13 13zM154 312h211c96 0 177 75 177 174
c0 95 -81 168 -178 168h-210v-342zM229 782c-9 -4 -13 -3 -16 3l-5 10c-2 5 -1 10 6 14l164 90c4 2 13 4 17 -3l10 -20c3 -6 2 -12 -4 -15z" />
    <glyph glyph-name="Rcaron" unicode="&#x158;" horiz-adv-x="650" 
d="M106 13v674c0 7 5 13 13 13h248c122 0 223 -92 223 -214c0 -101 -70 -182 -165 -209l146 -259c5 -8 3 -18 -7 -18h-31c-7 0 -11 3 -14 9l-145 262c-13 -1 -24 -1 -37 -1h-184v-257c0 -7 -6 -13 -16 -13h-18c-7 0 -13 6 -13 13zM154 312h211c96 0 177 75 177 174
c0 95 -81 168 -178 168h-210v-342zM296 763c-3 0 -7 2 -10 5l-121 98c-5 4 -8 9 -4 14l9 11c3 4 7 8 15 2l113 -84l112 84c8 6 12 2 15 -2l9 -11c4 -5 1 -10 -4 -14l-121 -98c-3 -3 -7 -5 -10 -5h-3z" />
    <glyph glyph-name="Rcommaaccent" unicode="&#x156;" horiz-adv-x="650" 
d="M106 13v674c0 7 5 13 13 13h248c122 0 223 -92 223 -214c0 -101 -70 -182 -165 -209l146 -259c5 -8 3 -18 -7 -18h-31c-7 0 -11 3 -14 9l-145 262c-13 -1 -24 -1 -37 -1h-184v-257c0 -7 -6 -13 -16 -13h-18c-7 0 -13 6 -13 13zM154 312h211c96 0 177 75 177 174
c0 95 -81 168 -178 168h-210v-342zM274 -141c0 24 17 39 42 39c29 0 56 -28 56 -94c0 -80 -53 -128 -72 -139c-7 -4 -13 -5 -17 0l-8 10c-4 5 -3 11 4 16c5 4 50 34 56 95c1 15 -1 28 -5 38c-5 -3 -10 -5 -16 -5c-26 0 -40 19 -40 40z" />
    <glyph glyph-name="Sacute" unicode="&#x15a;" horiz-adv-x="543" 
d="M67 72c-6 5 -11 10 -3 21l9 12c7 8 14 11 22 4c10 -9 84 -77 185 -77c91 0 168 61 168 134c0 89 -73 129 -194 170c-116 41 -193 82 -193 197c0 75 60 177 216 177c99 0 172 -51 172 -51c4 -3 11 -10 4 -21c-3 -4 -6 -9 -8 -13c-6 -8 -12 -11 -22 -5c-3 2 -70 47 -147 47
c-123 0 -169 -76 -169 -133c0 -85 65 -122 166 -155c137 -47 224 -95 224 -211c0 -100 -103 -178 -218 -178c-119 0 -199 70 -212 82zM207 774c-9 -4 -13 -3 -16 3l-5 10c-2 5 -1 10 6 14l164 90c4 2 13 4 17 -3l10 -20c3 -6 2 -12 -4 -15z" />
    <glyph glyph-name="Scircumflex" unicode="&#x15c;" horiz-adv-x="543" 
d="M67 72c-6 5 -11 10 -3 21l9 12c7 8 14 11 22 4c10 -9 84 -77 185 -77c91 0 168 61 168 134c0 89 -73 129 -194 170c-116 41 -193 82 -193 197c0 75 60 177 216 177c99 0 172 -51 172 -51c4 -3 11 -10 4 -21c-3 -4 -6 -9 -8 -13c-6 -8 -12 -11 -22 -5c-3 2 -70 47 -147 47
c-123 0 -169 -76 -169 -133c0 -85 65 -122 166 -155c137 -47 224 -95 224 -211c0 -100 -103 -178 -218 -178c-119 0 -199 70 -212 82zM162 760c-8 -6 -12 -2 -15 2l-9 11c-4 5 -1 10 4 14l121 98c3 3 7 5 10 5h3c3 0 7 -2 10 -5l121 -98c5 -4 8 -9 4 -14l-9 -11
c-3 -4 -7 -8 -15 -2l-113 84z" />
    <glyph glyph-name="Scaron" unicode="&#x160;" horiz-adv-x="543" 
d="M67 72c-6 5 -11 10 -3 21l9 12c7 8 14 11 22 4c10 -9 84 -77 185 -77c91 0 168 61 168 134c0 89 -73 129 -194 170c-116 41 -193 82 -193 197c0 75 60 177 216 177c99 0 172 -51 172 -51c4 -3 11 -10 4 -21c-3 -4 -6 -9 -8 -13c-6 -8 -12 -11 -22 -5c-3 2 -70 47 -147 47
c-123 0 -169 -76 -169 -133c0 -85 65 -122 166 -155c137 -47 224 -95 224 -211c0 -100 -103 -178 -218 -178c-119 0 -199 70 -212 82zM274 755c-3 0 -7 2 -10 5l-121 98c-5 4 -8 9 -4 14l9 11c3 4 7 8 15 2l113 -84l112 84c8 6 12 2 15 -2l9 -11c4 -5 1 -10 -4 -14l-121 -98
c-3 -3 -7 -5 -10 -5h-3z" />
    <glyph glyph-name="Scedilla" unicode="&#x15e;" horiz-adv-x="545" 
d="M68 72c-6 5 -11 10 -3 21l9 12c7 8 14 11 22 4c10 -9 84 -77 185 -77c91 0 168 61 168 134c0 89 -73 129 -194 170c-116 41 -193 82 -193 197c0 75 60 177 216 177c99 0 172 -51 172 -51c4 -3 11 -10 4 -21l-8 -13c-6 -8 -12 -11 -22 -5c-3 2 -70 47 -147 47
c-123 0 -169 -76 -169 -133c0 -85 65 -122 166 -155c137 -47 224 -95 224 -211c0 -100 -103 -178 -218 -178v-44c60 -7 107 -38 107 -97c0 -53 -42 -97 -98 -97c-39 0 -69 19 -78 34c-5 8 -4 14 1 18l10 8c4 3 10 3 16 -3c6 -7 22 -21 51 -21c36 0 59 27 59 60
c0 48 -49 63 -92 68c-9 2 -12 7 -12 13v63c-99 12 -165 69 -176 80z" />
    <glyph glyph-name="Scommaaccent" unicode="&#x218;" horiz-adv-x="543" 
d="M67 72c-6 5 -11 10 -3 21l9 12c7 8 14 11 22 4c10 -9 84 -77 185 -77c91 0 168 61 168 134c0 89 -73 129 -194 170c-116 41 -193 82 -193 197c0 75 60 177 216 177c99 0 172 -51 172 -51c4 -3 11 -10 4 -21c-3 -4 -6 -9 -8 -13c-6 -8 -12 -11 -22 -5c-3 2 -70 47 -147 47
c-123 0 -169 -76 -169 -133c0 -85 65 -122 166 -155c137 -47 224 -95 224 -211c0 -100 -103 -178 -218 -178c-119 0 -199 70 -212 82zM239 -149c0 24 17 39 42 39c29 0 56 -28 56 -94c0 -80 -53 -128 -72 -139c-7 -4 -13 -5 -17 0l-8 10c-4 5 -3 11 4 16c5 4 50 34 56 95
c1 15 -1 28 -5 38c-5 -3 -10 -5 -16 -5c-26 0 -40 19 -40 40z" />
    <glyph glyph-name="Tcaron" unicode="&#x164;" horiz-adv-x="472" 
d="M212 13v644h-191c-10 0 -13 6 -13 15v15c0 8 6 13 13 13h430c8 0 13 -6 13 -13v-17c0 -7 -5 -13 -13 -13h-192v-644c0 -7 -6 -13 -16 -13h-18c-7 0 -13 6 -13 13zM234 763c-3 0 -7 2 -10 5l-121 98c-5 4 -8 9 -4 14l9 11c3 4 7 8 15 2l113 -84l112 84c8 6 12 2 15 -2
l9 -11c4 -5 1 -10 -4 -14l-121 -98c-3 -3 -7 -5 -10 -5h-3z" />
    <glyph glyph-name="Tcommaaccent" unicode="&#x162;" horiz-adv-x="470" 
d="M211 13v644h-191c-10 0 -13 6 -13 15v15c0 8 6 13 13 13h430c8 0 13 -6 13 -13v-17c0 -7 -5 -13 -13 -13h-192v-644c0 -7 -6 -13 -16 -13h-18c-7 0 -13 6 -13 13zM195 -141c0 24 17 39 42 39c29 0 56 -28 56 -94c0 -80 -53 -128 -72 -139c-7 -4 -13 -5 -17 0l-8 10
c-4 5 -3 11 4 16c5 4 50 34 56 95c1 15 -1 28 -5 38c-5 -3 -10 -5 -16 -5c-26 0 -40 19 -40 40z" />
    <glyph glyph-name="uni021A" unicode="&#x21a;" horiz-adv-x="470" 
d="M211 13v644h-191c-10 0 -13 6 -13 15v15c0 8 6 13 13 13h430c8 0 13 -6 13 -13v-17c0 -7 -5 -13 -13 -13h-192v-644c0 -7 -6 -13 -16 -13h-18c-7 0 -13 6 -13 13zM195 -141c0 24 17 39 42 39c29 0 56 -28 56 -94c0 -80 -53 -128 -72 -139c-7 -4 -13 -5 -17 0l-8 10
c-4 5 -3 11 4 16c5 4 50 34 56 95c1 15 -1 28 -5 38c-5 -3 -10 -5 -16 -5c-26 0 -40 19 -40 40z" />
    <glyph glyph-name="Tbar" unicode="&#x166;" horiz-adv-x="472" 
d="M212 13v290h-125c-8 0 -13 7 -13 15v4c0 6 6 12 13 12h125v324h-191c-12 0 -13 11 -13 20v9c0 7 6 13 13 13h430c8 0 13 -6 13 -13v-16c0 -7 -5 -13 -13 -13h-192v-324h128c7 0 13 -6 13 -12v-6c0 -7 -6 -13 -13 -13h-128v-290c0 -12 -13 -13 -22 -13h-12
c-7 0 -13 6 -13 13z" />
    <glyph glyph-name="Thorn" unicode="&#xde;" horiz-adv-x="596" 
d="M106 13v674c0 7 6 13 13 13h21c7 0 13 -6 13 -13v-111h181c124 0 226 -101 226 -223c0 -126 -102 -227 -225 -227h-182v-113c0 -7 -6 -13 -16 -13h-18c-7 0 -13 6 -13 13zM153 171h179c98 0 181 81 181 183c0 98 -83 175 -182 175h-178v-358z" />
    <glyph glyph-name="Ugrave" unicode="&#xd9;" horiz-adv-x="720" 
d="M98 255v432c0 7 6 13 13 13h21c7 0 13 -6 13 -13v-427c0 -129 81 -224 214 -224c134 0 216 94 216 223v428c0 8 4 13 14 13h20c7 0 13 -6 13 -13v-432c0 -153 -104 -265 -263 -265c-158 0 -261 112 -261 265zM456 782l-172 79c-6 3 -7 9 -4 15l10 20c4 7 13 5 17 3
l164 -90c7 -4 8 -9 6 -14l-5 -10c-3 -6 -7 -7 -16 -3z" />
    <glyph glyph-name="Uacute" unicode="&#xda;" horiz-adv-x="720" 
d="M98 255v432c0 7 6 13 13 13h21c7 0 13 -6 13 -13v-427c0 -129 81 -224 214 -224c134 0 216 94 216 223v428c0 8 4 13 14 13h20c7 0 13 -6 13 -13v-432c0 -153 -104 -265 -263 -265c-158 0 -261 112 -261 265zM300 782c-9 -4 -13 -3 -16 3l-5 10c-2 5 -1 10 6 14l164 90
c4 2 13 4 17 -3l10 -20c3 -6 2 -12 -4 -15z" />
    <glyph glyph-name="Ucircumflex" unicode="&#xdb;" horiz-adv-x="720" 
d="M98 255v432c0 7 6 13 13 13h21c7 0 13 -6 13 -13v-427c0 -129 81 -224 214 -224c134 0 216 94 216 223v428c0 8 4 13 14 13h20c7 0 13 -6 13 -13v-432c0 -153 -104 -265 -263 -265c-158 0 -261 112 -261 265zM255 768c-8 -6 -12 -2 -15 2l-9 11c-4 5 -1 10 4 14l121 98
c3 3 7 5 10 5h3c3 0 7 -2 10 -5l121 -98c5 -4 8 -9 4 -14l-9 -11c-3 -4 -7 -8 -15 -2l-113 84z" />
    <glyph glyph-name="Utilde" unicode="&#x168;" horiz-adv-x="720" 
d="M98 255v432c0 7 6 13 13 13h21c7 0 13 -6 13 -13v-427c0 -129 81 -224 214 -224c134 0 216 94 216 223v428c0 8 4 13 14 13h20c7 0 13 -6 13 -13v-432c0 -153 -104 -265 -263 -265c-158 0 -261 112 -261 265zM237 799l-12 5c-6 2 -8 8 -6 14c7 18 29 86 93 86
c72 0 65 -91 113 -91c37 0 51 41 57 59c2 7 9 10 15 7l11 -4c4 -2 8 -5 6 -13s-23 -86 -92 -86c-70 0 -66 92 -113 92c-38 0 -51 -43 -57 -62c-2 -7 -8 -10 -15 -7z" />
    <glyph glyph-name="Udieresis" unicode="&#xdc;" horiz-adv-x="720" 
d="M98 255v432c0 7 6 13 13 13h21c7 0 13 -6 13 -13v-427c0 -129 81 -224 214 -224c134 0 216 94 216 223v428c0 8 4 13 14 13h20c7 0 13 -6 13 -13v-432c0 -153 -104 -265 -263 -265c-158 0 -261 112 -261 265zM473 801c-19 0 -34 15 -34 33c0 20 15 35 34 35
c20 0 35 -15 35 -35c0 -18 -15 -33 -35 -33zM264 801c-19 0 -34 15 -34 33c0 20 15 35 34 35c20 0 35 -15 35 -35c0 -18 -15 -33 -35 -33z" />
    <glyph glyph-name="Umacron" unicode="&#x16a;" horiz-adv-x="720" 
d="M98 255v432c0 7 6 13 13 13h21c7 0 13 -6 13 -13v-427c0 -129 81 -224 214 -224c134 0 216 94 216 223v428c0 8 4 13 14 13h20c7 0 13 -6 13 -13v-432c0 -153 -104 -265 -263 -265c-158 0 -261 112 -261 265zM233 831c-8 0 -13 6 -13 13v12c0 8 5 13 13 13h272
c7 0 13 -5 13 -13v-12c0 -7 -6 -13 -13 -13h-272z" />
    <glyph glyph-name="Ubreve" unicode="&#x16c;" horiz-adv-x="720" 
d="M98 255v432c0 7 6 13 13 13h21c7 0 13 -6 13 -13v-427c0 -129 81 -224 214 -224c134 0 216 94 216 223v428c0 8 4 13 14 13h20c7 0 13 -6 13 -13v-432c0 -153 -104 -265 -263 -265c-158 0 -261 112 -261 265zM369 775c-69 0 -122 49 -131 111c-1 7 2 14 10 14h13
c7 0 10 -6 12 -12c12 -44 47 -78 96 -78c46 0 85 34 95 78c2 7 6 12 12 12h14c7 0 11 -7 10 -14c-11 -63 -64 -111 -131 -111z" />
    <glyph glyph-name="Uring" unicode="&#x16e;" horiz-adv-x="720" 
d="M98 255v432c0 7 6 13 13 13h21c7 0 13 -6 13 -13v-427c0 -129 81 -224 214 -224c134 0 216 94 216 223v428c0 8 4 13 14 13h20c7 0 13 -6 13 -13v-432c0 -153 -104 -265 -263 -265c-158 0 -261 112 -261 265zM369 754c-60 0 -106 46 -106 106s46 107 106 107
c59 0 107 -47 107 -107s-48 -106 -107 -106zM369 786c40 0 74 34 74 74s-34 74 -74 74s-74 -34 -74 -74s34 -74 74 -74z" />
    <glyph glyph-name="Uhungarumlaut" unicode="&#x170;" horiz-adv-x="720" 
d="M98 255v432c0 7 6 13 13 13h21c7 0 13 -6 13 -13v-427c0 -129 81 -224 214 -224c134 0 216 94 216 223v428c0 8 4 13 14 13h20c7 0 13 -6 13 -13v-432c0 -153 -104 -265 -263 -265c-158 0 -261 112 -261 265zM443 766c-7 0 -10 5 -7 12l79 159c3 7 7 11 14 11h22
c11 0 15 -8 10 -17l-93 -157c-3 -6 -8 -8 -13 -8h-12zM277 766c-7 0 -10 5 -7 12l79 159c3 7 7 11 14 11h22c11 0 15 -8 10 -17l-93 -157c-3 -6 -8 -8 -13 -8h-12z" />
    <glyph glyph-name="Uogonek" unicode="&#x172;" horiz-adv-x="724" 
d="M100 255v432c0 7 6 13 13 13h21c7 0 13 -6 13 -13v-427c0 -129 81 -224 214 -224c134 0 216 94 216 223v428c0 8 4 13 14 13h20c7 0 13 -6 13 -13v-432c0 -148 -97 -257 -246 -264c-23 -17 -61 -54 -61 -110c0 -45 36 -67 74 -67c30 0 51 10 62 15c6 3 12 1 13 -8l1 -10
c1 -8 -2 -12 -8 -16c-12 -7 -41 -17 -73 -17c-56 0 -108 28 -108 98c0 57 37 95 63 115c-147 9 -241 117 -241 264z" />
    <glyph glyph-name="Wacute" unicode="&#x1e82;" horiz-adv-x="896" 
d="M237 -3l-198 690c-2 10 2 13 11 13h24c6 0 11 -5 12 -11l168 -586h2l176 598c2 6 9 9 15 9h2c6 0 13 -3 15 -9l177 -598h2l167 586c1 6 6 11 12 11h24c9 0 13 -3 11 -13l-198 -690c-1 -4 -5 -7 -9 -7h-11c-5 0 -8 2 -10 7l-180 609h-2l-180 -609c-2 -5 -5 -7 -10 -7h-11
c-4 0 -8 3 -9 7zM370 782c-9 -4 -13 -3 -16 3l-5 10c-2 5 -1 10 6 14l164 90c4 2 13 4 17 -3l10 -20c3 -6 2 -12 -4 -15z" />
    <glyph glyph-name="Wcircumflex" unicode="&#x174;" horiz-adv-x="896" 
d="M237 -3l-198 690c-2 10 2 13 11 13h24c6 0 11 -5 12 -11l168 -586h2l176 598c2 6 9 9 15 9h2c6 0 13 -3 15 -9l177 -598h2l167 586c1 6 6 11 12 11h24c9 0 13 -3 11 -13l-198 -690c-1 -4 -5 -7 -9 -7h-11c-5 0 -8 2 -10 7l-180 609h-2l-180 -609c-2 -5 -5 -7 -10 -7h-11
c-4 0 -8 3 -9 7zM336 768c-8 -6 -12 -2 -15 2l-9 11c-4 5 -1 10 4 14l121 98c3 3 7 5 10 5h3c3 0 7 -2 10 -5l121 -98c5 -4 8 -9 4 -14l-9 -11c-3 -4 -7 -8 -15 -2l-113 84z" />
    <glyph glyph-name="Wdieresis" unicode="&#x1e84;" horiz-adv-x="896" 
d="M237 -3l-198 690c-2 10 2 13 11 13h24c6 0 11 -5 12 -11l168 -586h2l176 598c2 6 9 9 15 9h2c6 0 13 -3 15 -9l177 -598h2l167 586c1 6 6 11 12 11h24c9 0 13 -3 11 -13l-198 -690c-1 -4 -5 -7 -9 -7h-11c-5 0 -8 2 -10 7l-180 609h-2l-180 -609c-2 -5 -5 -7 -10 -7h-11
c-4 0 -8 3 -9 7zM552 801c-19 0 -34 15 -34 33c0 20 15 35 34 35c20 0 35 -15 35 -35c0 -18 -15 -33 -35 -33zM343 801c-19 0 -34 15 -34 33c0 20 15 35 34 35c20 0 35 -15 35 -35c0 -18 -15 -33 -35 -33z" />
    <glyph glyph-name="Wgrave" unicode="&#x1e80;" horiz-adv-x="896" 
d="M237 -3l-198 690c-2 10 2 13 11 13h24c6 0 11 -5 12 -11l168 -586h2l176 598c2 6 9 9 15 9h2c6 0 13 -3 15 -9l177 -598h2l167 586c1 6 6 11 12 11h24c9 0 13 -3 11 -13l-198 -690c-1 -4 -5 -7 -9 -7h-11c-5 0 -8 2 -10 7l-180 609h-2l-180 -609c-2 -5 -5 -7 -10 -7h-11
c-4 0 -8 3 -9 7zM526 782l-172 79c-6 3 -7 9 -4 15l10 20c4 7 13 5 17 3l164 -90c7 -4 8 -9 6 -14l-5 -10c-3 -6 -7 -7 -16 -3z" />
    <glyph glyph-name="Yacute" unicode="&#xdd;" horiz-adv-x="560" 
d="M253 13v327l-255 345c-6 8 -2 15 8 15h30c5 0 10 -2 13 -6l228 -311l232 311c3 4 8 6 13 6h30c10 0 14 -7 8 -15l-260 -344v-328c0 -7 -6 -13 -13 -13c-13 0 -34 -3 -34 13zM199 782c-9 -4 -13 -3 -16 3l-5 10c-2 5 -1 10 6 14l164 90c4 2 13 4 17 -3l10 -20
c3 -6 2 -12 -4 -15z" />
    <glyph glyph-name="Ycircumflex" unicode="&#x176;" horiz-adv-x="560" 
d="M253 13v327l-255 345c-6 8 -2 15 8 15h30c5 0 10 -2 13 -6l228 -311l232 311c3 4 8 6 13 6h30c10 0 14 -7 8 -15l-260 -344v-328c0 -7 -6 -13 -13 -13c-13 0 -34 -3 -34 13zM166 768c-8 -6 -12 -2 -15 2l-9 11c-4 5 -1 10 4 14l121 98c3 3 7 5 10 5h3c3 0 7 -2 10 -5
l121 -98c5 -4 8 -9 4 -14l-9 -11c-3 -4 -7 -8 -15 -2l-113 84z" />
    <glyph glyph-name="Ydieresis" unicode="&#x178;" horiz-adv-x="560" 
d="M253 13v327l-255 345c-6 8 -2 15 8 15h30c5 0 10 -2 13 -6l228 -311l232 311c3 4 8 6 13 6h30c10 0 14 -7 8 -15l-260 -344v-328c0 -7 -6 -13 -13 -13c-13 0 -34 -3 -34 13zM382 801c-19 0 -34 15 -34 33c0 20 15 35 34 35c20 0 35 -15 35 -35c0 -18 -15 -33 -35 -33z
M173 801c-19 0 -34 15 -34 33c0 20 15 35 34 35c20 0 35 -15 35 -35c0 -18 -15 -33 -35 -33z" />
    <glyph glyph-name="Ygrave" unicode="&#x1ef2;" horiz-adv-x="560" 
d="M253 13v327l-255 345c-6 8 -2 15 8 15h30c5 0 10 -2 13 -6l228 -311l232 311c3 4 8 6 13 6h30c10 0 14 -7 8 -15l-260 -344v-328c0 -7 -6 -13 -13 -13c-13 0 -34 -3 -34 13zM355 782l-172 79c-6 3 -7 9 -4 15l10 20c4 7 13 5 17 3l164 -90c7 -4 8 -9 6 -14l-5 -10
c-3 -6 -7 -7 -16 -3z" />
    <glyph glyph-name="Zacute" unicode="&#x179;" horiz-adv-x="533" 
d="M30 12v18l406 624v2h-362c-7 0 -13 6 -13 15v16c0 7 6 13 13 13h412c8 0 13 -6 13 -13v-16l-407 -626v-1h373c8 0 13 -6 13 -13v-18c0 -7 -5 -13 -13 -13h-421c-8 0 -14 5 -14 12zM215 782c-9 -4 -13 -3 -16 3l-5 10c-2 5 -1 10 6 14l164 90c4 2 13 4 17 -3l10 -20
c3 -6 2 -12 -4 -15z" />
    <glyph glyph-name="Zcaron" unicode="&#x17d;" horiz-adv-x="533" 
d="M30 12v18l406 624v2h-362c-7 0 -13 6 -13 15v16c0 7 6 13 13 13h412c8 0 13 -6 13 -13v-16l-407 -626v-1h373c8 0 13 -6 13 -13v-18c0 -7 -5 -13 -13 -13h-421c-8 0 -14 5 -14 12zM282 763c-3 0 -7 2 -10 5l-121 98c-5 4 -8 9 -4 14l9 11c3 4 7 8 15 2l113 -84l112 84
c8 6 12 2 15 -2l9 -11c4 -5 1 -10 -4 -14l-121 -98c-3 -3 -7 -5 -10 -5h-3z" />
    <glyph glyph-name="Zdotaccent" unicode="&#x17b;" horiz-adv-x="533" 
d="M30 12v18l406 624v2h-362c-7 0 -13 6 -13 15v16c0 7 6 13 13 13h412c8 0 13 -6 13 -13v-16l-407 -626v-1h373c8 0 13 -6 13 -13v-18c0 -7 -5 -13 -13 -13h-421c-8 0 -14 5 -14 12zM283 810c-21 0 -38 17 -38 38s17 38 38 38s38 -17 38 -38s-17 -38 -38 -38z" />
    <glyph glyph-name="agrave" unicode="&#xe0;" horiz-adv-x="427" 
d="M44 123c0 77 63 135 168 135c46 0 90 -14 101 -18c0 88 -9 132 -88 132c-66 0 -111 -24 -120 -27c-8 -3 -13 1 -15 8l-5 12c-3 9 1 13 6 15c3 2 54 30 137 30c122 0 127 -73 127 -175v-222c0 -7 -6 -13 -13 -13h-12c-7 0 -10 4 -12 11l-4 36c-26 -24 -75 -57 -139 -57
c-74 0 -131 51 -131 133zM85 124c0 -58 40 -95 95 -95c61 0 114 37 133 62v110c-13 6 -53 21 -101 21c-76 0 -127 -39 -127 -98zM312 559l-172 79c-6 3 -7 9 -4 15l10 20c4 7 13 5 17 3l164 -90c7 -4 8 -9 6 -14l-5 -10c-3 -6 -7 -7 -16 -3z" />
    <glyph glyph-name="aacute" unicode="&#xe1;" horiz-adv-x="427" 
d="M44 123c0 77 63 135 168 135c46 0 90 -14 101 -18c0 88 -9 132 -88 132c-66 0 -111 -24 -120 -27c-8 -3 -13 1 -15 8l-5 12c-3 9 1 13 6 15c3 2 54 30 137 30c122 0 127 -73 127 -175v-222c0 -7 -6 -13 -13 -13h-12c-7 0 -10 4 -12 11l-4 36c-26 -24 -75 -57 -139 -57
c-74 0 -131 51 -131 133zM85 124c0 -58 40 -95 95 -95c61 0 114 37 133 62v110c-13 6 -53 21 -101 21c-76 0 -127 -39 -127 -98zM153 558c-9 -4 -11 -2 -14 4l-6 13c-3 7 -1 10 6 14l165 87c5 3 13 4 17 -3l10 -20c4 -8 -1 -14 -9 -18z" />
    <glyph glyph-name="acircumflex" unicode="&#xe2;" horiz-adv-x="427" 
d="M44 123c0 77 63 135 168 135c46 0 90 -14 101 -18c0 88 -9 132 -88 132c-66 0 -111 -24 -120 -27c-8 -3 -13 1 -15 8l-5 12c-3 9 1 13 6 15c3 2 54 30 137 30c122 0 127 -73 127 -175v-222c0 -7 -6 -13 -13 -13h-12c-7 0 -10 4 -12 11l-4 36c-26 -24 -75 -57 -139 -57
c-74 0 -131 51 -131 133zM85 124c0 -58 40 -95 95 -95c61 0 114 37 133 62v110c-13 6 -53 21 -101 21c-76 0 -127 -39 -127 -98zM101 550c-8 -6 -12 -2 -15 2l-9 11c-4 5 -1 10 4 14l121 98c3 3 7 5 10 5h3c3 0 7 -2 10 -5l121 -98c5 -4 8 -9 4 -14l-9 -11
c-3 -4 -7 -8 -15 -2l-113 84z" />
    <glyph glyph-name="atilde" unicode="&#xe3;" horiz-adv-x="427" 
d="M44 123c0 77 63 135 168 135c46 0 90 -14 101 -18c0 88 -9 132 -88 132c-66 0 -111 -24 -120 -27c-8 -3 -13 1 -15 8l-5 12c-3 9 1 13 6 15c3 2 54 30 137 30c122 0 127 -73 127 -175v-222c0 -7 -6 -13 -13 -13h-12c-7 0 -10 4 -12 11l-4 36c-26 -24 -75 -57 -139 -57
c-74 0 -131 51 -131 133zM85 124c0 -58 40 -95 95 -95c61 0 114 37 133 62v110c-13 6 -53 21 -101 21c-76 0 -127 -39 -127 -98zM78 579l-12 5c-6 2 -8 8 -6 14c7 18 29 86 93 86c72 0 65 -91 113 -91c37 0 51 41 57 59c2 7 9 10 15 7l11 -4c4 -2 8 -5 6 -13
s-23 -86 -92 -86c-70 0 -66 92 -113 92c-38 0 -51 -43 -57 -62c-2 -7 -8 -10 -15 -7z" />
    <glyph glyph-name="adieresis" unicode="&#xe4;" horiz-adv-x="427" 
d="M44 123c0 77 63 135 168 135c46 0 90 -14 101 -18c0 88 -9 132 -88 132c-66 0 -111 -24 -120 -27c-8 -3 -13 1 -15 8l-5 12c-3 9 1 13 6 15c3 2 54 30 137 30c122 0 127 -73 127 -175v-222c0 -7 -6 -13 -13 -13h-12c-7 0 -10 4 -12 11l-4 36c-26 -24 -75 -57 -139 -57
c-74 0 -131 51 -131 133zM85 124c0 -58 40 -95 95 -95c61 0 114 37 133 62v110c-13 6 -53 21 -101 21c-76 0 -127 -39 -127 -98zM322 596c-19 0 -33 15 -33 33c0 20 14 35 33 35c20 0 35 -15 35 -35c0 -18 -15 -33 -35 -33zM131 596c-19 0 -34 15 -34 33c0 20 15 35 34 35
c20 0 34 -15 34 -35c0 -18 -14 -33 -34 -33z" />
    <glyph glyph-name="amacron" unicode="&#x101;" horiz-adv-x="427" 
d="M44 123c0 77 63 135 168 135c46 0 90 -14 101 -18c0 88 -9 132 -88 132c-66 0 -111 -24 -120 -27c-8 -3 -13 1 -15 8l-5 12c-3 9 1 13 6 15c3 2 54 30 137 30c122 0 127 -73 127 -175v-222c0 -7 -6 -13 -13 -13h-12c-7 0 -10 4 -12 11l-4 36c-26 -24 -75 -57 -139 -57
c-74 0 -131 51 -131 133zM85 124c0 -58 40 -95 95 -95c61 0 114 37 133 62v110c-13 6 -53 21 -101 21c-76 0 -127 -39 -127 -98zM76 595c-8 0 -13 5 -13 12v13c0 7 5 13 13 13h272c7 0 13 -6 13 -13v-13c0 -7 -6 -12 -13 -12h-272z" />
    <glyph glyph-name="abreve" unicode="&#x103;" horiz-adv-x="427" 
d="M44 123c0 77 63 135 168 135c46 0 90 -14 101 -18c0 88 -9 132 -88 132c-66 0 -111 -24 -120 -27c-8 -3 -13 1 -15 8l-5 12c-3 9 1 13 6 15c3 2 54 30 137 30c122 0 127 -73 127 -175v-222c0 -7 -6 -13 -13 -13h-12c-7 0 -10 4 -12 11l-4 36c-26 -24 -75 -57 -139 -57
c-74 0 -131 51 -131 133zM85 124c0 -58 40 -95 95 -95c61 0 114 37 133 62v110c-13 6 -53 21 -101 21c-76 0 -127 -39 -127 -98zM215 538c-69 0 -120 49 -131 110c-1 8 2 14 10 14h13c7 0 10 -5 12 -11c11 -45 47 -79 96 -79c46 0 85 34 95 79c2 7 6 11 12 11h14
c7 0 11 -6 10 -14c-10 -62 -64 -110 -131 -110z" />
    <glyph glyph-name="aring" unicode="&#xe5;" horiz-adv-x="427" 
d="M44 123c0 77 63 135 168 135c46 0 90 -14 101 -18c0 88 -9 132 -88 132c-66 0 -111 -24 -120 -27c-8 -3 -13 1 -15 8l-5 12c-3 9 1 13 6 15c3 2 54 30 137 30c122 0 127 -73 127 -175v-222c0 -7 -6 -13 -13 -13h-12c-7 0 -10 4 -12 11l-4 36c-26 -24 -75 -57 -139 -57
c-74 0 -131 51 -131 133zM85 124c0 -58 40 -95 95 -95c61 0 114 37 133 62v110c-13 6 -53 21 -101 21c-76 0 -127 -39 -127 -98zM215 497c-60 0 -107 46 -107 106s47 107 107 107c59 0 106 -47 106 -107s-47 -106 -106 -106zM215 529c39 0 73 34 73 74s-34 74 -73 74
c-40 0 -75 -34 -75 -74s35 -74 75 -74z" />
    <glyph glyph-name="aringacute" unicode="&#x1fb;" horiz-adv-x="427" 
d="M44 123c0 77 63 135 168 135c46 0 90 -14 101 -18c0 88 -9 132 -88 132c-66 0 -111 -24 -120 -27c-8 -3 -13 1 -15 8l-5 12c-3 9 1 13 6 15c3 2 54 30 137 30c122 0 127 -73 127 -175v-222c0 -7 -6 -13 -13 -13h-12c-7 0 -10 4 -12 11l-4 36c-26 -24 -75 -57 -139 -57
c-74 0 -131 51 -131 133zM85 124c0 -58 40 -95 95 -95c61 0 114 37 133 62v110c-13 6 -53 21 -101 21c-76 0 -127 -39 -127 -98zM212 429c-60 0 -107 46 -107 106s47 107 107 107c59 0 106 -47 106 -107s-47 -106 -106 -106zM212 461c39 0 73 34 73 74s-34 74 -73 74
c-40 0 -75 -34 -75 -74s35 -74 75 -74zM133 642c-9 -4 -11 -2 -14 4l-6 13c-3 7 -1 10 6 14l165 87c5 3 13 4 17 -3l10 -20c4 -8 -1 -14 -9 -18z" />
    <glyph glyph-name="aogonek" unicode="&#x105;" horiz-adv-x="427" 
d="M44 123c0 77 63 135 168 135c46 0 90 -14 101 -18c0 88 -9 132 -88 132c-66 0 -111 -24 -120 -27c-8 -3 -13 1 -15 8l-5 12c-3 9 1 13 6 15c3 2 54 30 137 30c122 0 127 -73 127 -175v-222c0 -7 -6 -13 -13 -13h-3c-21 -15 -66 -53 -66 -113c0 -45 36 -67 74 -67
c30 0 51 10 62 15c6 3 12 1 13 -8l1 -10c1 -8 -2 -12 -8 -16c-12 -7 -41 -17 -73 -17c-56 0 -108 28 -108 98c0 76 68 120 84 128l-4 37c-26 -24 -75 -57 -139 -57c-74 0 -131 51 -131 133zM85 124c0 -58 40 -95 95 -95c61 0 114 37 133 62v110c-13 6 -53 21 -101 21
c-76 0 -127 -39 -127 -98z" />
    <glyph glyph-name="ae" unicode="&#xe6;" horiz-adv-x="705" 
d="M45 125c0 77 62 132 162 132c51 0 95 -9 106 -13c0 89 -8 127 -85 127c-69 0 -116 -24 -125 -27c-7 -2 -13 1 -15 8l-4 16c-1 6 3 11 9 13c0 0 57 29 137 29c67 0 100 -20 115 -59c34 37 80 59 137 59c105 0 181 -77 181 -183c0 -16 0 -39 -15 -39h-296v-84
c27 -44 75 -74 133 -74c53 0 94 21 118 37c9 6 13 7 18 0l10 -14c3 -4 2 -10 -4 -16c-20 -20 -83 -47 -145 -47s-111 25 -146 68c-27 -32 -88 -68 -156 -68c-78 0 -135 52 -135 135zM352 224h267c0 78 -47 146 -137 146c-58 0 -104 -28 -130 -70v-76zM85 124
c0 -63 47 -95 101 -95c57 0 109 32 128 57v120c-7 2 -48 15 -102 15c-73 0 -127 -38 -127 -97z" />
    <glyph glyph-name="aeacute" unicode="&#x1fd;" horiz-adv-x="705" 
d="M45 125c0 77 62 132 162 132c51 0 95 -9 106 -13c0 89 -8 127 -85 127c-69 0 -116 -24 -125 -27c-7 -2 -13 1 -15 8l-4 16c-1 6 3 11 9 13c0 0 57 29 137 29c67 0 100 -20 115 -59c34 37 80 59 137 59c105 0 181 -77 181 -183c0 -16 0 -39 -15 -39h-296v-84
c27 -44 75 -74 133 -74c53 0 94 21 118 37c9 6 13 7 18 0l10 -14c3 -4 2 -10 -4 -16c-20 -20 -83 -47 -145 -47s-111 25 -146 68c-27 -32 -88 -68 -156 -68c-78 0 -135 52 -135 135zM352 224h267c0 78 -47 146 -137 146c-58 0 -104 -28 -130 -70v-76zM85 124
c0 -63 47 -95 101 -95c57 0 109 32 128 57v120c-7 2 -48 15 -102 15c-73 0 -127 -38 -127 -97zM304 558c-9 -4 -11 -2 -14 4l-6 13c-3 7 -1 10 6 14l165 87c5 3 13 4 17 -3l10 -20c4 -8 -1 -14 -9 -18z" />
    <glyph glyph-name="cacute" unicode="&#x107;" horiz-adv-x="459" 
d="M46 200c0 120 97 210 210 210c78 0 130 -40 148 -63c5 -6 4 -13 -2 -18l-10 -10c-7 -7 -15 -4 -21 2c-10 11 -52 46 -115 46c-91 0 -165 -71 -165 -166c0 -97 75 -169 164 -169c75 0 114 47 125 59c7 8 13 8 19 2l11 -10c5 -5 7 -10 3 -16c-15 -24 -74 -77 -157 -77
c-113 0 -210 89 -210 210zM175 558c-9 -4 -11 -2 -14 4l-6 13c-3 7 -1 10 6 14l165 87c5 3 13 4 17 -3l10 -20c4 -8 -1 -14 -9 -18z" />
    <glyph glyph-name="ccircumflex" unicode="&#x109;" horiz-adv-x="459" 
d="M46 200c0 120 97 210 210 210c78 0 130 -40 148 -63c5 -6 4 -13 -2 -18l-10 -10c-7 -7 -15 -4 -21 2c-10 11 -52 46 -115 46c-91 0 -165 -71 -165 -166c0 -97 75 -169 164 -169c75 0 114 47 125 59c7 8 13 8 19 2l11 -10c5 -5 7 -10 3 -16c-15 -24 -74 -77 -157 -77
c-113 0 -210 89 -210 210zM138 550c-8 -6 -12 -2 -15 2l-9 11c-4 5 -1 10 4 14l121 98c3 3 7 5 10 5h3c3 0 7 -2 10 -5l121 -98c5 -4 8 -9 4 -14l-9 -11c-3 -4 -7 -8 -15 -2l-113 84z" />
    <glyph glyph-name="ccaron" unicode="&#x10d;" horiz-adv-x="459" 
d="M46 200c0 120 97 210 210 210c78 0 130 -40 148 -63c5 -6 4 -13 -2 -18l-10 -10c-7 -7 -15 -4 -21 2c-10 11 -52 46 -115 46c-91 0 -165 -71 -165 -166c0 -97 75 -169 164 -169c75 0 114 47 125 59c7 8 13 8 19 2l11 -10c5 -5 7 -10 3 -16c-15 -24 -74 -77 -157 -77
c-113 0 -210 89 -210 210zM250 545c-3 0 -7 2 -10 5l-121 98c-5 4 -8 9 -4 14l9 11c3 4 7 8 15 2l113 -84l112 84c8 6 12 2 15 -2l9 -11c4 -5 1 -10 -4 -14l-121 -98c-3 -3 -7 -5 -10 -5h-3z" />
    <glyph glyph-name="cdotaccent" unicode="&#x10b;" horiz-adv-x="459" 
d="M46 200c0 120 97 210 210 210c78 0 130 -40 148 -63c5 -6 4 -13 -2 -18l-10 -10c-7 -7 -15 -4 -21 2c-10 11 -52 46 -115 46c-91 0 -165 -71 -165 -166c0 -97 75 -169 164 -169c75 0 114 47 125 59c7 8 13 8 19 2l11 -10c5 -5 7 -10 3 -16c-15 -24 -74 -77 -157 -77
c-113 0 -210 89 -210 210zM253 582c-21 0 -38 18 -38 38c0 21 17 38 38 38s38 -17 38 -38c0 -20 -17 -38 -38 -38z" />
    <glyph glyph-name="ccedilla" unicode="&#xe7;" horiz-adv-x="461" 
d="M47 200c0 120 97 210 210 210c78 0 130 -40 148 -63c5 -6 4 -13 -2 -18l-10 -10c-7 -7 -15 -4 -21 2c-10 11 -52 46 -115 46c-91 0 -165 -71 -165 -166c0 -97 75 -169 164 -169c75 0 114 47 125 59c7 8 13 8 19 2l11 -10c5 -5 7 -10 3 -16c-15 -24 -74 -77 -157 -77h-7
v-44c60 -7 107 -38 107 -97c0 -53 -42 -97 -98 -97c-39 0 -69 19 -78 34c-5 8 -4 14 1 18l10 8c4 3 10 3 16 -3c6 -7 22 -21 51 -21c36 0 59 27 59 60c0 48 -49 63 -92 68c-9 2 -12 7 -12 13v66c-94 19 -167 99 -167 205z" />
    <glyph glyph-name="dcaron" unicode="&#x10f;" horiz-adv-x="516" 
d="M47 200c0 118 83 210 197 210c76 0 123 -40 123 -40v317c0 7 5 13 13 13h18c6 0 12 -6 12 -13v-674c0 -7 -6 -13 -13 -13h-10c-8 0 -13 4 -14 13l-3 35c-12 -13 -61 -58 -138 -58c-104 0 -185 93 -185 210zM91 200c0 -93 60 -170 144 -170c87 0 130 67 132 71v224
s-46 42 -119 42c-92 0 -157 -72 -157 -167zM524 477l-8 10c-4 5 -3 11 4 16c5 4 50 34 56 95c1 15 -1 28 -5 38c-5 -3 -10 -5 -16 -5c-26 0 -40 19 -40 40c0 24 17 39 42 39c29 0 56 -28 56 -94c0 -80 -53 -128 -72 -139c-7 -4 -13 -5 -17 0z" />
    <glyph glyph-name="dcroat" unicode="&#x111;" 
d="M47 200c0 118 83 210 197 210c76 0 123 -40 123 -40v172h-191c-8 0 -13 6 -13 13v5c0 7 5 13 13 13h191v114c0 8 5 13 14 13h17c6 0 12 -6 12 -13v-114h39c8 0 12 -7 12 -15v-3c0 -7 -5 -13 -12 -13h-39v-529c0 -7 -6 -13 -13 -13h-10c-8 0 -13 4 -14 13l-3 36
c-12 -14 -61 -59 -138 -59c-104 0 -185 93 -185 210zM91 200c0 -93 60 -170 144 -170c87 0 130 67 132 71v224s-46 42 -119 42c-92 0 -157 -72 -157 -167z" />
    <glyph glyph-name="eth" unicode="&#xf0;" horiz-adv-x="553" 
d="M44 220c0 134 103 219 217 219c102 0 170 -60 186 -81c-16 96 -78 170 -142 222l-115 -67c-6 -3 -14 -1 -17 5l-3 5c-4 6 -2 14 4 17l104 60c-54 37 -97 57 -120 66c-8 3 -10 8 -6 16l7 17c2 5 8 7 14 5c30 -11 87 -37 145 -81l69 40c7 4 14 1 18 -5l3 -5
c3 -6 1 -13 -5 -17l-58 -34c80 -69 156 -174 156 -327c0 -159 -79 -285 -234 -285c-121 0 -223 103 -223 230zM88 218c0 -102 80 -186 179 -186c128 0 190 114 190 236c0 11 -1 20 -2 30c-3 4 -70 100 -191 100c-95 0 -176 -74 -176 -180z" />
    <glyph glyph-name="egrave" unicode="&#xe8;" horiz-adv-x="467" 
d="M47 201c0 114 75 209 197 209c105 0 181 -77 181 -183c0 -16 0 -39 -15 -39h-319c4 -86 66 -158 156 -158c53 0 94 21 118 37c9 6 13 7 18 0l10 -14c3 -4 2 -10 -4 -16c-20 -20 -83 -47 -145 -47c-122 0 -197 94 -197 211zM92 224h289c0 78 -47 146 -137 146
c-88 0 -147 -64 -152 -146zM321 559l-172 79c-6 3 -7 9 -4 15l10 20c4 7 13 5 17 3l164 -90c7 -4 8 -9 6 -14l-5 -10c-3 -6 -7 -7 -16 -3z" />
    <glyph glyph-name="eacute" unicode="&#xe9;" horiz-adv-x="467" 
d="M47 201c0 114 75 209 197 209c105 0 181 -77 181 -183c0 -16 0 -39 -15 -39h-319c4 -86 66 -158 156 -158c53 0 94 21 118 37c9 6 13 7 18 0l10 -14c3 -4 2 -10 -4 -16c-20 -20 -83 -47 -145 -47c-122 0 -197 94 -197 211zM92 224h289c0 78 -47 146 -137 146
c-88 0 -147 -64 -152 -146zM165 558c-9 -4 -11 -2 -14 4l-6 13c-3 7 -1 10 6 14l165 87c5 3 13 4 17 -3l10 -20c4 -8 -1 -14 -9 -18z" />
    <glyph glyph-name="ecircumflex" unicode="&#xea;" horiz-adv-x="467" 
d="M47 201c0 114 75 209 197 209c105 0 181 -77 181 -183c0 -16 0 -39 -15 -39h-319c4 -86 66 -158 156 -158c53 0 94 21 118 37c9 6 13 7 18 0l10 -14c3 -4 2 -10 -4 -16c-20 -20 -83 -47 -145 -47c-122 0 -197 94 -197 211zM92 224h289c0 78 -47 146 -137 146
c-88 0 -147 -64 -152 -146zM130 550c-8 -6 -12 -2 -15 2l-9 11c-4 5 -1 10 4 14l121 98c3 3 7 5 10 5h3c3 0 7 -2 10 -5l121 -98c5 -4 8 -9 4 -14l-9 -11c-3 -4 -7 -8 -15 -2l-113 84z" />
    <glyph glyph-name="ecaron" unicode="&#x11b;" horiz-adv-x="467" 
d="M47 201c0 114 75 209 197 209c105 0 181 -77 181 -183c0 -16 0 -39 -15 -39h-319c4 -86 66 -158 156 -158c53 0 94 21 118 37c9 6 13 7 18 0l10 -14c3 -4 2 -10 -4 -16c-20 -20 -83 -47 -145 -47c-122 0 -197 94 -197 211zM92 224h289c0 78 -47 146 -137 146
c-88 0 -147 -64 -152 -146zM244 545c-3 0 -7 2 -10 5l-121 98c-5 4 -8 9 -4 14l9 11c3 4 7 8 15 2l113 -84l112 84c8 6 12 2 15 -2l9 -11c4 -5 1 -10 -4 -14l-121 -98c-3 -3 -7 -5 -10 -5h-3z" />
    <glyph glyph-name="edieresis" unicode="&#xeb;" horiz-adv-x="467" 
d="M47 201c0 114 75 209 197 209c105 0 181 -77 181 -183c0 -16 0 -39 -15 -39h-319c4 -86 66 -158 156 -158c53 0 94 21 118 37c9 6 13 7 18 0l10 -14c3 -4 2 -10 -4 -16c-20 -20 -83 -47 -145 -47c-122 0 -197 94 -197 211zM92 224h289c0 78 -47 146 -137 146
c-88 0 -147 -64 -152 -146zM338 596c-19 0 -33 15 -33 33c0 20 14 35 33 35c20 0 35 -15 35 -35c0 -18 -15 -33 -35 -33zM147 596c-19 0 -34 15 -34 33c0 20 15 35 34 35c20 0 34 -15 34 -35c0 -18 -14 -33 -34 -33z" />
    <glyph glyph-name="emacron" unicode="&#x113;" horiz-adv-x="467" 
d="M47 201c0 114 75 209 197 209c105 0 181 -77 181 -183c0 -16 0 -39 -15 -39h-319c4 -86 66 -158 156 -158c53 0 94 21 118 37c9 6 13 7 18 0l10 -14c3 -4 2 -10 -4 -16c-20 -20 -83 -47 -145 -47c-122 0 -197 94 -197 211zM92 224h289c0 78 -47 146 -137 146
c-88 0 -147 -64 -152 -146zM108 595c-8 0 -13 5 -13 12v13c0 7 5 13 13 13h272c7 0 13 -6 13 -13v-13c0 -7 -6 -12 -13 -12h-272z" />
    <glyph glyph-name="ebreve" unicode="&#x115;" horiz-adv-x="467" 
d="M47 201c0 114 75 209 197 209c105 0 181 -77 181 -183c0 -16 0 -39 -15 -39h-319c4 -86 66 -158 156 -158c53 0 94 21 118 37c9 6 13 7 18 0l10 -14c3 -4 2 -10 -4 -16c-20 -20 -83 -47 -145 -47c-122 0 -197 94 -197 211zM92 224h289c0 78 -47 146 -137 146
c-88 0 -147 -64 -152 -146zM244 538c-69 0 -120 49 -131 110c-1 8 2 14 10 14h13c7 0 10 -5 12 -11c11 -45 47 -79 96 -79c46 0 85 34 95 79c2 7 6 11 12 11h14c7 0 11 -6 10 -14c-10 -62 -64 -110 -131 -110z" />
    <glyph glyph-name="edotaccent" unicode="&#x117;" horiz-adv-x="467" 
d="M47 201c0 114 75 209 197 209c105 0 181 -77 181 -183c0 -16 0 -39 -15 -39h-319c4 -86 66 -158 156 -158c53 0 94 21 118 37c9 6 13 7 18 0l10 -14c3 -4 2 -10 -4 -16c-20 -20 -83 -47 -145 -47c-122 0 -197 94 -197 211zM92 224h289c0 78 -47 146 -137 146
c-88 0 -147 -64 -152 -146zM246 582c-21 0 -38 18 -38 38c0 21 17 38 38 38s38 -17 38 -38c0 -20 -17 -38 -38 -38z" />
    <glyph glyph-name="eogonek" unicode="&#x119;" horiz-adv-x="469" 
d="M168 -118c0 51 30 88 55 109c-109 10 -175 100 -175 210c0 114 75 209 197 209c105 0 181 -77 181 -183c0 -16 0 -39 -15 -39h-319c4 -86 66 -158 156 -158c53 0 94 21 118 37c9 6 13 7 18 0l10 -14c3 -4 2 -10 -4 -16c-19 -19 -73 -42 -130 -46
c-23 -20 -53 -54 -53 -104c0 -45 36 -67 74 -67c30 0 51 10 62 15c6 3 12 1 13 -8l1 -10c1 -8 -2 -12 -8 -16c-12 -7 -41 -17 -73 -17c-56 0 -108 28 -108 98zM93 224h289c0 78 -47 146 -137 146c-88 0 -147 -64 -152 -146z" />
    <glyph glyph-name="gcircumflex" unicode="&#x11d;" horiz-adv-x="462" 
d="M35 34c0 67 55 101 66 107c-11 14 -31 52 -31 100c0 96 67 169 175 169h164c8 0 13 -6 13 -13v-11c0 -5 -3 -11 -9 -12l-72 -5c19 -10 62 -45 62 -128c0 -89 -64 -166 -166 -166c-60 0 -96 22 -109 36c-8 -3 -51 -25 -51 -72s40 -58 79 -58h145c86 0 148 -39 148 -128
c0 -85 -82 -163 -204 -163c-136 0 -195 80 -195 148c0 59 42 92 63 105c-20 4 -78 31 -78 91zM238 114c75 0 123 57 123 128c0 84 -57 128 -123 128c-77 0 -127 -56 -127 -128c0 -70 43 -128 127 -128zM94 -157c0 -55 53 -112 150 -112c90 0 159 53 159 121
c0 46 -28 88 -102 88h-126c-10 -1 -81 -29 -81 -97zM134 550c-8 -6 -12 -2 -15 2l-9 11c-4 5 -1 10 4 14l121 98c3 3 7 5 10 5h3c3 0 7 -2 10 -5l121 -98c5 -4 8 -9 4 -14l-9 -11c-3 -4 -7 -8 -15 -2l-113 84z" />
    <glyph glyph-name="gbreve" unicode="&#x11f;" horiz-adv-x="462" 
d="M35 34c0 67 55 101 66 107c-11 14 -31 52 -31 100c0 96 67 169 175 169h164c8 0 13 -6 13 -13v-11c0 -5 -3 -11 -9 -12l-72 -5c19 -10 62 -45 62 -128c0 -89 -64 -166 -166 -166c-60 0 -96 22 -109 36c-8 -3 -51 -25 -51 -72s40 -58 79 -58h145c86 0 148 -39 148 -128
c0 -85 -82 -163 -204 -163c-136 0 -195 80 -195 148c0 59 42 92 63 105c-20 4 -78 31 -78 91zM238 114c75 0 123 57 123 128c0 84 -57 128 -123 128c-77 0 -127 -56 -127 -128c0 -70 43 -128 127 -128zM94 -157c0 -55 53 -112 150 -112c90 0 159 53 159 121
c0 46 -28 88 -102 88h-126c-10 -1 -81 -29 -81 -97zM255 538c-69 0 -120 49 -131 110c-1 8 2 14 10 14h13c7 0 10 -5 12 -11c11 -45 47 -79 96 -79c46 0 85 34 95 79c2 7 6 11 12 11h14c7 0 11 -6 10 -14c-10 -62 -64 -110 -131 -110z" />
    <glyph glyph-name="gdotaccent" unicode="&#x121;" horiz-adv-x="462" 
d="M35 34c0 67 55 101 66 107c-11 14 -31 52 -31 100c0 96 67 169 175 169h164c8 0 13 -6 13 -13v-11c0 -5 -3 -11 -9 -12l-72 -5c19 -10 62 -45 62 -128c0 -89 -64 -166 -166 -166c-60 0 -96 22 -109 36c-8 -3 -51 -25 -51 -72s40 -58 79 -58h145c86 0 148 -39 148 -128
c0 -85 -82 -163 -204 -163c-136 0 -195 80 -195 148c0 59 42 92 63 105c-20 4 -78 31 -78 91zM238 114c75 0 123 57 123 128c0 84 -57 128 -123 128c-77 0 -127 -56 -127 -128c0 -70 43 -128 127 -128zM94 -157c0 -55 53 -112 150 -112c90 0 159 53 159 121
c0 46 -28 88 -102 88h-126c-10 -1 -81 -29 -81 -97zM252 582c-21 0 -38 18 -38 38c0 21 17 38 38 38s38 -17 38 -38c0 -20 -17 -38 -38 -38z" />
    <glyph glyph-name="gcommaaccent" unicode="&#x123;" horiz-adv-x="462" 
d="M248 538c-29 0 -56 28 -56 94c0 80 53 128 72 139c7 4 13 5 17 0l8 -10c4 -5 3 -11 -4 -16c-5 -4 -50 -34 -56 -95c-1 -15 1 -28 5 -38c5 3 10 5 16 5c26 0 40 -19 40 -40c0 -24 -17 -39 -42 -39zM35 34c0 67 55 101 66 107c-11 14 -31 52 -31 100c0 96 67 169 175 169
h164c8 0 13 -6 13 -13v-11c0 -5 -3 -11 -9 -12l-72 -5c19 -10 62 -45 62 -128c0 -89 -64 -166 -166 -166c-60 0 -96 22 -109 36c-8 -3 -51 -25 -51 -72s40 -58 79 -58h145c86 0 148 -39 148 -128c0 -85 -82 -163 -204 -163c-136 0 -195 80 -195 148c0 59 42 92 63 105
c-20 4 -78 31 -78 91zM238 114c75 0 123 57 123 128c0 84 -57 128 -123 128c-77 0 -127 -56 -127 -128c0 -70 43 -128 127 -128zM94 -157c0 -55 53 -112 150 -112c90 0 159 53 159 121c0 46 -28 88 -102 88h-126c-10 -1 -81 -29 -81 -97z" />
    <glyph glyph-name="hcircumflex" unicode="&#x125;" horiz-adv-x="495" 
d="M76 13v674c0 7 6 13 14 13h16c7 0 13 -6 13 -13v-341c13 13 66 64 145 64c104 0 161 -64 161 -183v-214c0 -7 -6 -13 -13 -13h-18c-7 0 -13 6 -13 13v214c0 92 -43 140 -119 140c-83 0 -139 -65 -143 -70v-284c0 -8 -4 -13 -13 -13h-19c-7 0 -11 6 -11 13zM-14 767
c-8 -6 -12 -2 -15 2l-9 11c-4 5 -1 10 4 14l121 98c3 3 7 5 10 5h3c3 0 7 -2 10 -5l121 -98c5 -4 8 -9 4 -14l-9 -11c-3 -4 -7 -8 -15 -2l-113 84z" />
    <glyph glyph-name="hbar" unicode="&#x127;" horiz-adv-x="495" 
d="M76 13v529h-39c-8 0 -12 7 -12 14v4c0 7 5 13 12 13h39v114c0 7 6 13 13 13h17c7 0 13 -6 13 -13v-114h191c9 0 13 -7 13 -15v-4c0 -6 -6 -12 -13 -12h-191v-196c13 13 66 64 145 64c104 0 161 -64 161 -183v-214c0 -7 -6 -13 -13 -13h-18c-7 0 -13 6 -13 13v214
c0 92 -43 140 -119 140c-83 0 -139 -65 -143 -70v-284c0 -8 -7 -13 -14 -13h-16c-7 0 -13 6 -13 13z" />
    <glyph glyph-name="dotlessi" unicode="&#x131;" horiz-adv-x="196" 
d="M76 13v374c0 7 6 13 13 13h18c7 0 13 -6 13 -13v-374c0 -8 -7 -13 -14 -13h-17c-7 0 -13 6 -13 13z" />
    <glyph glyph-name="igrave" unicode="&#xec;" horiz-adv-x="196" 
d="M176 559l-172 79c-6 3 -7 9 -4 15l10 20c4 7 13 5 17 3l164 -90c7 -4 8 -9 6 -14l-5 -10c-3 -6 -7 -7 -16 -3zM76 13v374c0 7 6 13 13 13h18c7 0 13 -6 13 -13v-374c0 -8 -7 -13 -14 -13h-17c-7 0 -13 6 -13 13z" />
    <glyph glyph-name="iacute" unicode="&#xed;" horiz-adv-x="196" 
d="M20 558c-9 -4 -11 -2 -14 4l-6 13c-3 7 -1 10 6 14l165 87c5 3 13 4 17 -3l10 -20c4 -8 -1 -14 -9 -18zM76 13v374c0 7 6 13 13 13h18c7 0 13 -6 13 -13v-374c0 -8 -7 -13 -14 -13h-17c-7 0 -13 6 -13 13z" />
    <glyph glyph-name="ibreve" unicode="&#x12d;" horiz-adv-x="196" 
d="M99 538c-69 0 -120 49 -131 110c-1 8 2 14 10 14h13c7 0 10 -5 12 -11c11 -45 47 -79 96 -79c46 0 85 34 95 79c2 7 6 11 12 11h14c7 0 11 -6 10 -14c-10 -62 -64 -110 -131 -110zM76 13v374c0 7 6 13 13 13h18c7 0 13 -6 13 -13v-374c0 -8 -7 -13 -14 -13h-17
c-7 0 -13 6 -13 13z" />
    <glyph glyph-name="icircumflex" unicode="&#xee;" horiz-adv-x="196" 
d="M76 13v374c0 7 6 13 13 13h18c7 0 13 -6 13 -13v-374c0 -8 -7 -13 -14 -13h-17c-7 0 -13 6 -13 13zM-15 550c-8 -6 -12 -2 -15 2l-9 11c-4 5 -1 10 4 14l121 98c3 3 7 5 10 5h3c3 0 7 -2 10 -5l121 -98c5 -4 8 -9 4 -14l-9 -11c-3 -4 -7 -8 -15 -2l-113 84z" />
    <glyph glyph-name="itilde" unicode="&#x129;" horiz-adv-x="196" 
d="M-33 579l-12 5c-6 2 -8 8 -6 14c7 18 29 86 93 86c72 0 65 -91 113 -91c37 0 51 41 57 59c2 7 9 10 15 7l11 -4c4 -2 8 -5 6 -13s-23 -86 -92 -86c-70 0 -66 92 -113 92c-38 0 -51 -43 -57 -62c-2 -7 -8 -10 -15 -7zM75 13v374c0 7 6 13 13 13h18c7 0 13 -6 13 -13v-374
c0 -8 -7 -13 -14 -13h-17c-7 0 -13 6 -13 13z" />
    <glyph glyph-name="idieresis" unicode="&#xef;" horiz-adv-x="196" 
d="M193 596c-19 0 -33 15 -33 33c0 20 14 35 33 35c20 0 35 -15 35 -35c0 -18 -15 -33 -35 -33zM2 596c-19 0 -34 15 -34 33c0 20 15 35 34 35c20 0 34 -15 34 -35c0 -18 -14 -33 -34 -33zM76 13v374c0 7 6 13 13 13h18c7 0 13 -6 13 -13v-374c0 -8 -7 -13 -14 -13h-17
c-7 0 -13 6 -13 13z" />
    <glyph glyph-name="imacron" unicode="&#x12b;" horiz-adv-x="196" 
d="M-37 595c-8 0 -13 5 -13 12v13c0 7 5 13 13 13h272c7 0 13 -6 13 -13v-13c0 -7 -6 -12 -13 -12h-272zM76 13v374c0 7 6 13 13 13h18c7 0 13 -6 13 -13v-374c0 -8 -7 -13 -14 -13h-17c-7 0 -13 6 -13 13z" />
    <glyph glyph-name="iogonek" unicode="&#x12f;" horiz-adv-x="197" 
d="M99 596c-19 0 -34 15 -34 33c0 19 15 35 34 35s34 -16 34 -35c0 -18 -15 -33 -34 -33zM77 11v376c0 7 6 13 13 13h18c7 0 13 -6 13 -13v-374c0 -8 -4 -13 -13 -13h-11c-21 -15 -66 -53 -66 -113c0 -45 36 -67 74 -67c30 0 51 10 62 15c6 3 12 1 13 -8l1 -10
c1 -8 -2 -12 -8 -16c-12 -7 -41 -17 -73 -17c-56 0 -108 28 -108 98c0 78 71 122 85 129z" />
    <glyph glyph-name="dotlessj" unicode="&#x237;" horiz-adv-x="195" 
d="M76 -137v524c0 7 6 13 13 13h17c7 0 13 -6 13 -13v-524c0 -118 -58 -173 -146 -173c-52 0 -95 26 -112 43c-6 6 -5 10 -2 14l10 16c4 6 11 6 17 0c17 -13 49 -33 87 -33c63 0 103 40 103 133z" />
    <glyph glyph-name="jcircumflex" unicode="&#x135;" horiz-adv-x="195" 
d="M76 -137v524c0 7 6 13 13 13h17c7 0 13 -6 13 -13v-524c0 -118 -58 -173 -146 -173c-52 0 -95 26 -112 43c-6 6 -5 10 -2 14l10 16c4 6 11 6 17 0c17 -13 49 -33 87 -33c63 0 103 40 103 133zM-15 550c-8 -6 -12 -2 -15 2l-9 11c-4 5 -1 10 4 14l121 98c3 3 7 5 10 5h3
c3 0 7 -2 10 -5l121 -98c5 -4 8 -9 4 -14l-9 -11c-3 -4 -7 -8 -15 -2l-113 84z" />
    <glyph glyph-name="kcommaaccent" unicode="&#x137;" horiz-adv-x="428" 
d="M76 13v674c0 7 6 13 13 13h17c7 0 13 -6 13 -13v-448l213 155c5 4 11 6 16 6h29c10 0 11 -13 3 -18l-215 -158l241 -207c8 -7 3 -17 -5 -17h-31c-6 0 -11 1 -20 8l-231 199v-194c0 -8 -4 -13 -13 -13h-19c-7 0 -11 6 -11 13zM174 -141c0 24 17 39 42 39
c29 0 56 -28 56 -94c0 -80 -53 -128 -72 -139c-7 -4 -13 -5 -17 0l-8 10c-4 5 -3 11 4 16c5 4 50 34 56 95c1 15 -1 28 -5 38c-5 -3 -10 -5 -16 -5c-26 0 -40 19 -40 40z" />
    <glyph glyph-name="kgreenlandic" unicode="&#x138;" horiz-adv-x="432" 
d="M76 13v374c0 7 6 13 13 13h17c7 0 13 -6 13 -13v-170l223 177c5 4 11 6 16 6h29c10 0 11 -12 3 -18l-227 -180l243 -185c8 -6 3 -17 -5 -17h-31c-6 0 -11 1 -20 8l-231 177v-172c0 -8 -4 -13 -13 -13h-19c-7 0 -11 6 -11 13z" />
    <glyph glyph-name="lacute" unicode="&#x13a;" horiz-adv-x="196" 
d="M76 13v674c0 7 6 13 13 13h18c7 0 13 -6 13 -13v-674c0 -8 -4 -13 -13 -13h-20c-7 0 -11 6 -11 13zM19 775c-9 -4 -11 -2 -14 4l-6 13c-3 7 -1 10 6 14l165 87c5 3 13 4 17 -3l10 -20c4 -8 -1 -14 -9 -18z" />
    <glyph glyph-name="lcaron" unicode="&#x13e;" horiz-adv-x="226" 
d="M76 13v674c0 7 6 13 13 13h18c7 0 13 -6 13 -13v-674c0 -8 -4 -13 -13 -13h-20c-7 0 -11 6 -11 13zM241 477l-8 10c-4 5 -3 11 4 16c5 4 50 34 56 95c1 15 -1 28 -5 38c-5 -3 -10 -5 -16 -5c-26 0 -40 19 -40 40c0 24 17 39 42 39c29 0 56 -28 56 -94
c0 -80 -53 -128 -72 -139c-7 -4 -13 -5 -17 0z" />
    <glyph glyph-name="lcommaaccent" unicode="&#x13c;" horiz-adv-x="196" 
d="M76 13v674c0 7 6 13 13 13h18c7 0 13 -6 13 -13v-674c0 -8 -4 -13 -13 -13h-20c-7 0 -11 6 -11 13zM55 -141c0 24 17 39 42 39c29 0 56 -28 56 -94c0 -80 -53 -128 -72 -139c-7 -4 -13 -5 -17 0l-8 10c-4 5 -3 11 4 16c5 4 50 34 56 95c1 15 -1 28 -5 38
c-5 -3 -10 -5 -16 -5c-26 0 -40 19 -40 40z" />
    <glyph glyph-name="lslash" unicode="&#x142;" horiz-adv-x="234" 
d="M94 13v322l-68 -34c-6 -3 -13 -2 -16 4l-3 6c-4 6 -1 14 4 17l83 42v317c0 7 6 13 13 13h17c7 0 13 -6 13 -13v-293l115 59c6 4 13 1 16 -5l3 -6c3 -5 2 -12 -5 -16l-129 -67v-346c0 -8 -7 -13 -14 -13h-16c-7 0 -13 6 -13 13z" />
    <glyph glyph-name="ldot" unicode="&#x140;" horiz-adv-x="300" 
d="M76 13v674c0 7 6 13 13 13h18c7 0 13 -6 13 -13v-674c0 -8 -4 -13 -13 -13h-20c-7 0 -11 6 -11 13zM248 321c-21 0 -38 18 -38 38c0 21 17 38 38 38s38 -17 38 -38c0 -20 -17 -38 -38 -38z" />
    <glyph glyph-name="nacute" unicode="&#x144;" horiz-adv-x="495" 
d="M76 13v374c0 7 6 13 14 13h10c7 0 11 -4 12 -10l4 -43c13 14 68 63 148 63c112 0 161 -71 161 -183v-214c0 -7 -6 -13 -13 -13h-18c-7 0 -13 6 -13 13v214c0 92 -43 140 -119 140c-82 0 -139 -64 -143 -69v-285c0 -8 -4 -13 -13 -13h-19c-7 0 -11 6 -11 13zM173 558
c-9 -4 -11 -2 -14 4l-6 13c-3 7 -1 10 6 14l165 87c5 3 13 4 17 -3l10 -20c4 -8 -1 -14 -9 -18z" />
    <glyph glyph-name="ncaron" unicode="&#x148;" horiz-adv-x="495" 
d="M76 13v374c0 7 6 13 14 13h10c7 0 11 -4 12 -10l4 -43c13 14 68 63 148 63c112 0 161 -71 161 -183v-214c0 -7 -6 -13 -13 -13h-18c-7 0 -13 6 -13 13v214c0 92 -43 140 -119 140c-82 0 -139 -64 -143 -69v-285c0 -8 -4 -13 -13 -13h-19c-7 0 -11 6 -11 13zM250 545
c-3 0 -7 2 -10 5l-121 98c-5 4 -8 9 -4 14l9 11c3 4 7 8 15 2l113 -84l112 84c8 6 12 2 15 -2l9 -11c4 -5 1 -10 -4 -14l-121 -98c-3 -3 -7 -5 -10 -5h-3z" />
    <glyph glyph-name="ntilde" unicode="&#xf1;" horiz-adv-x="495" 
d="M76 13v374c0 7 6 13 14 13h10c7 0 11 -4 12 -10l4 -43c13 14 68 63 148 63c112 0 161 -71 161 -183v-214c0 -7 -6 -13 -13 -13h-18c-7 0 -13 6 -13 13v214c0 92 -43 140 -119 140c-82 0 -139 -64 -143 -69v-285c0 -8 -4 -13 -13 -13h-19c-7 0 -11 6 -11 13zM116 579
l-12 5c-6 2 -8 8 -6 14c7 18 29 86 93 86c72 0 65 -91 113 -91c37 0 51 41 57 59c2 7 9 10 15 7l11 -4c4 -2 8 -5 6 -13s-23 -86 -92 -86c-70 0 -66 92 -113 92c-38 0 -51 -43 -57 -62c-2 -7 -8 -10 -15 -7z" />
    <glyph glyph-name="ncommaaccent" unicode="&#x146;" horiz-adv-x="496" 
d="M76 13v374c0 7 6 13 14 13h10c7 0 11 -4 12 -10l4 -43c13 14 68 63 148 63c112 0 161 -71 161 -183v-214c0 -7 -6 -13 -13 -13h-18c-7 0 -13 6 -13 13v214c0 92 -43 140 -119 140c-82 0 -139 -64 -143 -69v-285c0 -8 -4 -13 -13 -13h-19c-7 0 -11 6 -11 13zM206 -141
c0 24 17 39 42 39c29 0 56 -28 56 -94c0 -80 -53 -128 -72 -139c-7 -4 -13 -5 -17 0l-8 10c-4 5 -3 11 4 16c5 4 50 34 56 95c1 15 -1 28 -5 38c-5 -3 -10 -5 -16 -5c-26 0 -40 19 -40 40z" />
    <glyph glyph-name="napostrophe" unicode="&#x149;" horiz-adv-x="495" 
d="M76 13v374c0 7 6 13 14 13h10c7 0 11 -4 12 -10l4 -43c13 14 68 63 148 63c112 0 161 -71 161 -183v-214c0 -7 -6 -13 -13 -13h-18c-7 0 -13 6 -13 13v214c0 92 -43 140 -119 140c-82 0 -139 -64 -143 -69v-285c0 -8 -4 -13 -13 -13h-19c-7 0 -11 6 -11 13zM-105 671
c0 24 17 39 42 39c29 0 56 -28 56 -94c0 -80 -53 -128 -72 -139c-7 -4 -13 -5 -17 0l-8 10c-4 5 -3 11 4 16c5 4 50 34 56 95c1 15 -1 28 -5 38c-5 -3 -10 -5 -16 -5c-26 0 -40 19 -40 40z" />
    <glyph glyph-name="ograve" unicode="&#xf2;" horiz-adv-x="494" 
d="M46 201c0 114 88 209 201 209c112 0 201 -95 201 -209c0 -117 -89 -211 -201 -211c-113 0 -201 94 -201 211zM89 201c0 -95 69 -170 158 -170c88 0 157 75 157 170c0 92 -69 167 -157 167c-89 0 -158 -75 -158 -167zM324 559l-172 79c-6 3 -7 9 -4 15l10 20
c4 7 13 5 17 3l164 -90c7 -4 8 -9 6 -14l-5 -10c-3 -6 -7 -7 -16 -3z" />
    <glyph glyph-name="oacute" unicode="&#xf3;" horiz-adv-x="494" 
d="M46 201c0 114 88 209 201 209c112 0 201 -95 201 -209c0 -117 -89 -211 -201 -211c-113 0 -201 94 -201 211zM89 201c0 -95 69 -170 158 -170c88 0 157 75 157 170c0 92 -69 167 -157 167c-89 0 -158 -75 -158 -167zM168 558c-9 -4 -11 -2 -14 4l-6 13c-3 7 -1 10 6 14
l165 87c5 3 13 4 17 -3l10 -20c4 -8 -1 -14 -9 -18z" />
    <glyph glyph-name="ocircumflex" unicode="&#xf4;" horiz-adv-x="494" 
d="M46 201c0 114 88 209 201 209c112 0 201 -95 201 -209c0 -117 -89 -211 -201 -211c-113 0 -201 94 -201 211zM89 201c0 -95 69 -170 158 -170c88 0 157 75 157 170c0 92 -69 167 -157 167c-89 0 -158 -75 -158 -167zM133 550c-8 -6 -12 -2 -15 2l-9 11c-4 5 -1 10 4 14
l121 98c3 3 7 5 10 5h3c3 0 7 -2 10 -5l121 -98c5 -4 8 -9 4 -14l-9 -11c-3 -4 -7 -8 -15 -2l-113 84z" />
    <glyph glyph-name="otilde" unicode="&#xf5;" horiz-adv-x="494" 
d="M46 201c0 114 88 209 201 209c112 0 201 -95 201 -209c0 -117 -89 -211 -201 -211c-113 0 -201 94 -201 211zM89 201c0 -95 69 -170 158 -170c88 0 157 75 157 170c0 92 -69 167 -157 167c-89 0 -158 -75 -158 -167zM117 579l-12 5c-6 2 -8 8 -6 14c7 18 29 86 93 86
c72 0 65 -91 113 -91c37 0 51 41 57 59c2 7 9 10 15 7l11 -4c4 -2 8 -5 6 -13s-23 -86 -92 -86c-70 0 -66 92 -113 92c-38 0 -51 -43 -57 -62c-2 -7 -8 -10 -15 -7z" />
    <glyph glyph-name="odieresis" unicode="&#xf6;" horiz-adv-x="494" 
d="M46 201c0 114 88 209 201 209c112 0 201 -95 201 -209c0 -117 -89 -211 -201 -211c-113 0 -201 94 -201 211zM89 201c0 -95 69 -170 158 -170c88 0 157 75 157 170c0 92 -69 167 -157 167c-89 0 -158 -75 -158 -167zM341 596c-19 0 -33 15 -33 33c0 20 14 35 33 35
c20 0 35 -15 35 -35c0 -18 -15 -33 -35 -33zM150 596c-19 0 -34 15 -34 33c0 20 15 35 34 35c20 0 34 -15 34 -35c0 -18 -14 -33 -34 -33z" />
    <glyph glyph-name="omacron" unicode="&#x14d;" horiz-adv-x="494" 
d="M46 201c0 114 88 209 201 209c112 0 201 -95 201 -209c0 -117 -89 -211 -201 -211c-113 0 -201 94 -201 211zM89 201c0 -95 69 -170 158 -170c88 0 157 75 157 170c0 92 -69 167 -157 167c-89 0 -158 -75 -158 -167zM111 595c-8 0 -13 5 -13 12v13c0 7 5 13 13 13h272
c7 0 13 -6 13 -13v-13c0 -7 -6 -12 -13 -12h-272z" />
    <glyph glyph-name="obreve" unicode="&#x14f;" horiz-adv-x="494" 
d="M46 201c0 114 88 209 201 209c112 0 201 -95 201 -209c0 -117 -89 -211 -201 -211c-113 0 -201 94 -201 211zM89 201c0 -95 69 -170 158 -170c88 0 157 75 157 170c0 92 -69 167 -157 167c-89 0 -158 -75 -158 -167zM247 538c-69 0 -120 49 -131 110c-1 8 2 14 10 14h13
c7 0 10 -5 12 -11c11 -45 47 -79 96 -79c46 0 85 34 95 79c2 7 6 11 12 11h14c7 0 11 -6 10 -14c-10 -62 -64 -110 -131 -110z" />
    <glyph glyph-name="ohungarumlaut" unicode="&#x151;" horiz-adv-x="494" 
d="M46 201c0 114 88 209 201 209c112 0 201 -95 201 -209c0 -117 -89 -211 -201 -211c-113 0 -201 94 -201 211zM89 201c0 -95 69 -170 158 -170c88 0 157 75 157 170c0 92 -69 167 -157 167c-89 0 -158 -75 -158 -167zM327 518c-7 0 -10 5 -7 12l79 159c3 7 7 11 14 11h22
c11 0 15 -8 10 -17l-93 -157c-3 -6 -8 -8 -13 -8h-12zM161 518c-7 0 -10 5 -7 12l79 159c3 7 7 11 14 11h22c11 0 15 -8 10 -17l-93 -157c-3 -6 -8 -8 -13 -8h-12z" />
    <glyph glyph-name="oslash" unicode="&#xf8;" horiz-adv-x="493" 
d="M69 36c-6 5 -6 13 -1 18l18 18c-25 36 -40 79 -40 128c0 114 88 210 201 210c57 0 103 -23 138 -58l23 22c5 5 13 5 18 0l4 -4c6 -5 6 -13 0 -18l-24 -24c26 -36 41 -81 41 -128c0 -117 -88 -210 -200 -210c-55 0 -104 22 -140 58l-17 -17c-5 -5 -13 -4 -18 1zM118 102
l236 220c-28 29 -65 46 -107 46c-89 0 -157 -76 -157 -168c0 -38 9 -69 28 -98zM138 78c28 -29 66 -47 109 -47c88 0 157 74 157 169c0 36 -11 70 -30 98z" />
    <glyph glyph-name="oslashacute" unicode="&#x1ff;" horiz-adv-x="493" 
d="M169 558c-9 -4 -11 -2 -14 4l-6 13c-3 7 -1 10 6 14l165 87c5 3 13 4 17 -3l10 -20c4 -8 -1 -14 -9 -18zM69 36c-6 5 -6 13 -1 18l18 18c-25 36 -40 79 -40 128c0 114 88 210 201 210c57 0 103 -23 138 -58l23 22c5 5 13 5 18 0l4 -4c6 -5 6 -13 0 -18l-24 -24
c26 -36 41 -81 41 -128c0 -117 -88 -210 -200 -210c-55 0 -104 22 -140 58l-17 -17c-5 -5 -13 -4 -18 1zM118 102l236 220c-28 29 -65 46 -107 46c-89 0 -157 -76 -157 -168c0 -38 9 -69 28 -98zM138 78c28 -29 66 -47 109 -47c88 0 157 74 157 169c0 36 -11 70 -30 98z" />
    <glyph glyph-name="oe" unicode="&#x153;" horiz-adv-x="788" 
d="M46 201c0 114 88 209 200 209c65 0 126 -30 163 -80c34 51 85 80 155 80c103 0 182 -77 182 -186c0 -16 -1 -39 -15 -39h-303v-66c20 -44 77 -89 139 -89c53 0 94 21 118 37c9 6 13 7 18 0l10 -14c3 -4 2 -10 -4 -16c-20 -20 -83 -47 -145 -47c-76 0 -123 35 -159 83
c-37 -51 -93 -83 -159 -83c-112 0 -200 94 -200 211zM428 221h274c0 78 -48 148 -138 148c-56 0 -114 -31 -136 -81v-67zM89 201c0 -95 69 -170 157 -170c66 0 124 49 141 88v170c-21 33 -75 79 -141 79c-88 0 -157 -75 -157 -167z" />
    <glyph glyph-name="racute" unicode="&#x155;" horiz-adv-x="324" 
d="M76 13v374c0 7 6 13 13 13h12c6 0 11 -4 12 -11l4 -41c10 14 50 62 125 62c32 0 54 -9 62 -12c9 -3 14 -10 11 -18l-8 -20c-3 -7 -9 -8 -16 -5c-5 2 -25 12 -52 12c-78 0 -116 -63 -119 -69v-285c0 -8 -4 -13 -13 -13h-20c-7 0 -11 6 -11 13zM100 558c-9 -4 -11 -2 -14 4
l-6 13c-3 7 -1 10 6 14l165 87c5 3 13 4 17 -3l10 -20c4 -8 -1 -14 -9 -18z" />
    <glyph glyph-name="rcaron" unicode="&#x159;" horiz-adv-x="324" 
d="M76 13v374c0 7 6 13 13 13h12c6 0 11 -4 12 -11l4 -41c10 14 50 62 125 62c32 0 54 -9 62 -12c9 -3 14 -10 11 -18l-8 -20c-3 -7 -9 -8 -16 -5c-5 2 -25 12 -52 12c-78 0 -116 -63 -119 -69v-285c0 -8 -4 -13 -13 -13h-20c-7 0 -11 6 -11 13zM177 545c-3 0 -7 2 -10 5
l-121 98c-5 4 -8 9 -4 14l9 11c3 4 7 8 15 2l113 -84l112 84c8 6 12 2 15 -2l9 -11c4 -5 1 -10 -4 -14l-121 -98c-3 -3 -7 -5 -10 -5h-3z" />
    <glyph glyph-name="rcommaaccent" unicode="&#x157;" horiz-adv-x="325" 
d="M76 13v374c0 7 6 13 13 13h12c6 0 11 -4 12 -11l4 -41c10 14 50 62 125 62c32 0 54 -9 62 -12c9 -3 14 -10 11 -18l-8 -20c-3 -7 -9 -8 -16 -5c-5 2 -25 12 -52 12c-78 0 -116 -63 -119 -69v-285c0 -8 -4 -13 -13 -13h-20c-7 0 -11 6 -11 13zM51 -141c0 24 17 39 42 39
c29 0 56 -28 56 -94c0 -80 -53 -128 -72 -139c-7 -4 -13 -5 -17 0l-8 10c-4 5 -3 11 4 16c5 4 50 34 56 95c1 15 -1 28 -5 38c-5 -3 -10 -5 -16 -5c-26 0 -40 19 -40 40z" />
    <glyph glyph-name="sacute" unicode="&#x15b;" horiz-adv-x="370" 
d="M57 35c-4 3 -7 9 -4 14l10 16c3 5 11 7 18 1c10 -8 51 -39 107 -39c57 0 96 32 96 71c0 46 -45 65 -112 90c-71 25 -123 56 -123 118c0 44 39 104 131 104c53 0 93 -19 113 -32c6 -4 8 -12 4 -19l-6 -11c-4 -7 -12 -9 -19 -5c-9 6 -49 28 -92 28c-63 0 -86 -37 -86 -64
c0 -40 36 -59 95 -80c75 -28 141 -53 141 -126c0 -60 -62 -111 -142 -111c-68 0 -109 28 -131 45zM122 559c-9 -4 -11 -2 -14 4l-6 13c-3 7 -1 10 6 14l165 87c5 3 13 4 17 -3l10 -20c4 -8 -1 -14 -9 -18z" />
    <glyph glyph-name="scircumflex" unicode="&#x15d;" horiz-adv-x="370" 
d="M57 35c-4 3 -7 9 -4 14l10 16c3 5 11 7 18 1c10 -8 51 -39 107 -39c57 0 96 32 96 71c0 46 -45 65 -112 90c-71 25 -123 56 -123 118c0 44 39 104 131 104c53 0 93 -19 113 -32c6 -4 8 -12 4 -19l-6 -11c-4 -7 -12 -9 -19 -5c-9 6 -49 28 -92 28c-63 0 -86 -37 -86 -64
c0 -40 36 -59 95 -80c75 -28 141 -53 141 -126c0 -60 -62 -111 -142 -111c-68 0 -109 28 -131 45zM70 551c-8 -6 -12 -2 -15 2l-9 11c-4 5 -1 10 4 14l121 98c3 3 7 5 10 5h3c3 0 7 -2 10 -5l121 -98c5 -4 8 -9 4 -14l-9 -11c-3 -4 -7 -8 -15 -2l-113 84z" />
    <glyph glyph-name="scaron" unicode="&#x161;" horiz-adv-x="370" 
d="M57 35c-4 3 -7 9 -4 14l10 16c3 5 11 7 18 1c10 -8 51 -39 107 -39c57 0 96 32 96 71c0 46 -45 65 -112 90c-71 25 -123 56 -123 118c0 44 39 104 131 104c53 0 93 -19 113 -32c6 -4 8 -12 4 -19l-6 -11c-4 -7 -12 -9 -19 -5c-9 6 -49 28 -92 28c-63 0 -86 -37 -86 -64
c0 -40 36 -59 95 -80c75 -28 141 -53 141 -126c0 -60 -62 -111 -142 -111c-68 0 -109 28 -131 45zM185 546c-3 0 -7 2 -10 5l-121 98c-5 4 -8 9 -4 14l9 11c3 4 7 8 15 2l113 -84l112 84c8 6 12 2 15 -2l9 -11c4 -5 1 -10 -4 -14l-121 -98c-3 -3 -7 -5 -10 -5h-3z" />
    <glyph glyph-name="scedilla" unicode="&#x15f;" horiz-adv-x="371" 
d="M58 35c-4 3 -7 9 -4 14l10 16c3 5 11 7 18 1c10 -8 51 -39 107 -39c57 0 96 32 96 71c0 46 -45 65 -112 90c-71 25 -123 56 -123 118c0 44 39 104 131 104c53 0 93 -19 113 -32c6 -4 8 -12 4 -19l-6 -11c-4 -7 -12 -9 -19 -5c-9 6 -49 28 -92 28c-63 0 -86 -37 -86 -64
c0 -40 36 -59 95 -80c75 -28 141 -53 141 -126c0 -60 -62 -111 -142 -111h-1v-44c60 -7 107 -38 107 -97c0 -53 -42 -97 -98 -97c-39 0 -69 19 -78 34c-5 8 -4 14 1 18l10 8c4 3 10 3 16 -3c6 -7 22 -21 51 -21c36 0 59 27 59 60c0 48 -49 63 -92 68c-9 2 -12 7 -12 13v64
c-47 7 -77 28 -94 42z" />
    <glyph glyph-name="scommaaccent" unicode="&#x219;" horiz-adv-x="370" 
d="M57 35c-4 3 -7 9 -4 14l10 16c3 5 11 7 18 1c10 -8 51 -39 107 -39c57 0 96 32 96 71c0 46 -45 65 -112 90c-71 25 -123 56 -123 118c0 44 39 104 131 104c53 0 93 -19 113 -32c6 -4 8 -12 4 -19l-6 -11c-4 -7 -12 -9 -19 -5c-9 6 -49 28 -92 28c-63 0 -86 -37 -86 -64
c0 -40 36 -59 95 -80c75 -28 141 -53 141 -126c0 -60 -62 -111 -142 -111c-68 0 -109 28 -131 45zM146 -140c0 24 17 39 42 39c29 0 56 -28 56 -94c0 -80 -53 -128 -72 -139c-7 -4 -13 -5 -17 0l-8 10c-4 5 -3 11 4 16c5 4 50 34 56 95c1 15 -1 28 -5 38
c-5 -3 -10 -5 -16 -5c-26 0 -40 19 -40 40z" />
    <glyph glyph-name="germandbls" unicode="&#xdf;" horiz-adv-x="554" 
d="M76 13v397c0 199 75 300 213 300c87 0 171 -44 171 -154c0 -93 -88 -161 -88 -204c0 -39 144 -94 144 -216c0 -103 -82 -146 -167 -146c-77 0 -111 23 -107 34l6 19c2 6 7 12 15 8c9 -5 47 -22 86 -22c66 0 122 36 122 107c0 101 -147 152 -147 214c0 54 91 131 91 204
c0 80 -63 116 -127 116c-110 0 -168 -87 -168 -260v-397c0 -8 -4 -13 -13 -13h-20c-7 0 -11 6 -11 13z" />
    <glyph glyph-name="tcaron" unicode="&#x165;" horiz-adv-x="329" 
d="M93 103v258h-47c-10 0 -12 5 -12 13v16c0 7 5 10 12 10h47v109c0 8 6 13 13 13l17 1c7 0 13 -6 13 -13v-110h139c8 0 13 -6 13 -13v-13c0 -8 -5 -13 -13 -13h-139v-255c0 -47 5 -73 52 -73c35 0 78 19 91 27c9 5 13 1 16 -4l7 -12c4 -7 3 -13 -3 -17
c-15 -12 -59 -37 -116 -37c-83 0 -90 49 -90 113zM361 477l-8 10c-4 5 -3 11 4 16c5 4 50 34 56 95c1 15 -1 28 -5 38c-5 -3 -10 -5 -16 -5c-26 0 -40 19 -40 40c0 24 17 39 42 39c29 0 56 -28 56 -94c0 -80 -53 -128 -72 -139c-7 -4 -13 -5 -17 0z" />
    <glyph glyph-name="tcommaaccent" unicode="&#x163;" horiz-adv-x="330" 
d="M93 103v258h-47c-10 0 -12 5 -12 13v16c0 7 5 10 12 10h47v109c0 8 6 13 13 13l17 1c7 0 13 -6 13 -13v-110h139c8 0 13 -6 13 -13v-13c0 -8 -5 -13 -13 -13h-139v-255c0 -47 5 -73 52 -73c35 0 78 19 91 27c9 5 13 1 16 -4l7 -12c4 -7 3 -13 -3 -17
c-15 -12 -59 -37 -116 -37c-83 0 -90 49 -90 113zM136 -141c0 24 17 39 42 39c29 0 56 -28 56 -94c0 -80 -53 -128 -72 -139c-7 -4 -13 -5 -17 0l-8 10c-4 5 -3 11 4 16c5 4 50 34 56 95c1 15 -1 28 -5 38c-5 -3 -10 -5 -16 -5c-26 0 -40 19 -40 40z" />
    <glyph glyph-name="uni021B" unicode="&#x21b;" horiz-adv-x="330" 
d="M93 103v258h-47c-10 0 -12 5 -12 13v16c0 7 5 10 12 10h47v109c0 8 6 13 13 13l17 1c7 0 13 -6 13 -13v-110h139c8 0 13 -6 13 -13v-13c0 -8 -5 -13 -13 -13h-139v-255c0 -47 5 -73 52 -73c35 0 78 19 91 27c9 5 13 1 16 -4l7 -12c4 -7 3 -13 -3 -17
c-15 -12 -59 -37 -116 -37c-83 0 -90 49 -90 113zM136 -141c0 24 17 39 42 39c29 0 56 -28 56 -94c0 -80 -53 -128 -72 -139c-7 -4 -13 -5 -17 0l-8 10c-4 5 -3 11 4 16c5 4 50 34 56 95c1 15 -1 28 -5 38c-5 -3 -10 -5 -16 -5c-26 0 -40 19 -40 40z" />
    <glyph glyph-name="tbar" unicode="&#x167;" horiz-adv-x="329" 
d="M93 103v83h-36c-8 0 -13 7 -13 14v4c0 7 6 13 13 13h36v144h-47c-10 0 -12 5 -12 13v16c0 7 5 10 12 10h47v109c0 8 6 13 13 13l17 1c7 0 13 -6 13 -13v-110h139c8 0 13 -6 13 -13v-13c0 -8 -5 -13 -13 -13h-139v-144h118c8 0 13 -6 13 -13v-6c0 -7 -5 -12 -13 -12h-118
v-80c0 -47 5 -73 52 -73c35 0 78 19 91 27c9 5 13 1 16 -4l7 -12c4 -7 3 -13 -3 -17c-15 -12 -59 -37 -116 -37c-83 0 -90 49 -90 113z" />
    <glyph glyph-name="thorn" unicode="&#xfe;" 
d="M119 32v-319c0 -7 -6 -13 -13 -13h-17c-7 0 -13 6 -13 13v974c0 8 7 13 14 13h16c7 0 13 -6 13 -13v-324c12 10 55 47 128 47c111 0 192 -95 192 -211c0 -119 -83 -209 -201 -209c-66 0 -108 32 -119 42zM120 80c2 -4 45 -48 113 -48c97 0 163 72 163 167
c0 93 -61 170 -152 170c-78 0 -121 -52 -124 -57v-232z" />
    <glyph glyph-name="ugrave" unicode="&#xf9;" 
d="M71 172v215c0 7 6 13 13 13h18c7 0 13 -6 13 -13v-215c0 -93 43 -140 119 -140c83 0 129 65 132 70v285c0 8 5 13 13 13h18c7 0 13 -6 13 -13v-374c0 -7 -6 -13 -13 -13h-12c-8 0 -11 6 -12 12l-4 39c-11 -14 -59 -61 -138 -61c-112 0 -160 69 -160 182zM326 559l-172 79
c-6 3 -7 9 -4 15l10 20c4 7 13 5 17 3l164 -90c7 -4 8 -9 6 -14l-5 -10c-3 -6 -7 -7 -16 -3z" />
    <glyph glyph-name="uacute" unicode="&#xfa;" 
d="M71 172v215c0 7 6 13 13 13h18c7 0 13 -6 13 -13v-215c0 -93 43 -140 119 -140c83 0 129 65 132 70v285c0 8 5 13 13 13h18c7 0 13 -6 13 -13v-374c0 -7 -6 -13 -13 -13h-12c-8 0 -11 6 -12 12l-4 39c-11 -14 -59 -61 -138 -61c-112 0 -160 69 -160 182zM170 558
c-9 -4 -11 -2 -14 4l-6 13c-3 7 -1 10 6 14l165 87c5 3 13 4 17 -3l10 -20c4 -8 -1 -14 -9 -18z" />
    <glyph glyph-name="ucircumflex" unicode="&#xfb;" 
d="M71 172v215c0 7 6 13 13 13h18c7 0 13 -6 13 -13v-215c0 -93 43 -140 119 -140c83 0 129 65 132 70v285c0 8 5 13 13 13h18c7 0 13 -6 13 -13v-374c0 -7 -6 -13 -13 -13h-12c-8 0 -11 6 -12 12l-4 39c-11 -14 -59 -61 -138 -61c-112 0 -160 69 -160 182zM130 550
c-8 -6 -12 -2 -15 2l-9 11c-4 5 -1 10 4 14l121 98c3 3 7 5 10 5h3c3 0 7 -2 10 -5l121 -98c5 -4 8 -9 4 -14l-9 -11c-3 -4 -7 -8 -15 -2l-113 84z" />
    <glyph glyph-name="utilde" unicode="&#x169;" 
d="M71 172v215c0 7 6 13 13 13h18c7 0 13 -6 13 -13v-215c0 -93 43 -140 119 -140c83 0 129 65 132 70v285c0 8 5 13 13 13h18c7 0 13 -6 13 -13v-374c0 -7 -6 -13 -13 -13h-12c-8 0 -11 6 -12 12l-4 39c-11 -14 -59 -61 -138 -61c-112 0 -160 69 -160 182zM117 579l-12 5
c-6 2 -8 8 -6 14c7 18 29 86 93 86c72 0 65 -91 113 -91c37 0 51 41 57 59c2 7 9 10 15 7l11 -4c4 -2 8 -5 6 -13s-23 -86 -92 -86c-70 0 -66 92 -113 92c-38 0 -51 -43 -57 -62c-2 -7 -8 -10 -15 -7z" />
    <glyph glyph-name="udieresis" unicode="&#xfc;" 
d="M71 172v215c0 7 6 13 13 13h18c7 0 13 -6 13 -13v-215c0 -93 43 -140 119 -140c83 0 129 65 132 70v285c0 8 5 13 13 13h18c7 0 13 -6 13 -13v-374c0 -7 -6 -13 -13 -13h-12c-8 0 -11 6 -12 12l-4 39c-11 -14 -59 -61 -138 -61c-112 0 -160 69 -160 182zM342 596
c-19 0 -33 15 -33 33c0 20 14 35 33 35c20 0 35 -15 35 -35c0 -18 -15 -33 -35 -33zM151 596c-19 0 -34 15 -34 33c0 20 15 35 34 35c20 0 34 -15 34 -35c0 -18 -14 -33 -34 -33z" />
    <glyph glyph-name="umacron" unicode="&#x16b;" 
d="M71 172v215c0 7 6 13 13 13h18c7 0 13 -6 13 -13v-215c0 -93 43 -140 119 -140c83 0 129 65 132 70v285c0 8 5 13 13 13h18c7 0 13 -6 13 -13v-374c0 -7 -6 -13 -13 -13h-12c-8 0 -11 6 -12 12l-4 39c-11 -14 -59 -61 -138 -61c-112 0 -160 69 -160 182zM106 595
c-8 0 -13 5 -13 12v13c0 7 5 13 13 13h272c7 0 13 -6 13 -13v-13c0 -7 -6 -12 -13 -12h-272z" />
    <glyph glyph-name="ubreve" unicode="&#x16d;" 
d="M71 172v215c0 7 6 13 13 13h18c7 0 13 -6 13 -13v-215c0 -93 43 -140 119 -140c83 0 129 65 132 70v285c0 8 5 13 13 13h18c7 0 13 -6 13 -13v-374c0 -7 -6 -13 -13 -13h-12c-8 0 -11 6 -12 12l-4 39c-11 -14 -59 -61 -138 -61c-112 0 -160 69 -160 182zM246 538
c-69 0 -120 49 -131 110c-1 8 2 14 10 14h13c7 0 10 -5 12 -11c11 -45 47 -79 96 -79c46 0 85 34 95 79c2 7 6 11 12 11h14c7 0 11 -6 10 -14c-10 -62 -64 -110 -131 -110z" />
    <glyph glyph-name="uring" unicode="&#x16f;" 
d="M71 172v215c0 7 6 13 13 13h18c7 0 13 -6 13 -13v-215c0 -93 43 -140 119 -140c83 0 129 65 132 70v285c0 8 5 13 13 13h18c7 0 13 -6 13 -13v-374c0 -7 -6 -13 -13 -13h-12c-8 0 -11 6 -12 12l-4 39c-11 -14 -59 -61 -138 -61c-112 0 -160 69 -160 182zM242 497
c-60 0 -107 46 -107 106s47 107 107 107c59 0 106 -47 106 -107s-47 -106 -106 -106zM242 529c39 0 73 34 73 74s-34 74 -73 74c-40 0 -75 -34 -75 -74s35 -74 75 -74z" />
    <glyph glyph-name="uhungarumlaut" unicode="&#x171;" 
d="M71 172v215c0 7 6 13 13 13h18c7 0 13 -6 13 -13v-215c0 -93 43 -140 119 -140c83 0 129 65 132 70v285c0 8 5 13 13 13h18c7 0 13 -6 13 -13v-374c0 -7 -6 -13 -13 -13h-12c-8 0 -11 6 -12 12l-4 39c-11 -14 -59 -61 -138 -61c-112 0 -160 69 -160 182zM327 518
c-7 0 -10 5 -7 12l79 159c3 7 7 11 14 11h22c11 0 15 -8 10 -17l-93 -157c-3 -6 -8 -8 -13 -8h-12zM161 518c-7 0 -10 5 -7 12l79 159c3 7 7 11 14 11h22c11 0 15 -8 10 -17l-93 -157c-3 -6 -8 -8 -13 -8h-12z" />
    <glyph glyph-name="uogonek" unicode="&#x173;" horiz-adv-x="485" 
d="M70 172v215c0 7 6 13 13 13h18c7 0 13 -6 13 -13v-215c0 -93 43 -140 119 -140c83 0 129 65 132 70v285c0 8 5 13 13 13h18c7 0 13 -6 13 -13v-374c0 -7 -6 -13 -13 -13h-5c-21 -15 -66 -53 -66 -113c0 -45 36 -67 74 -67c30 0 51 10 62 15c6 3 12 1 13 -8l1 -10
c1 -8 -2 -12 -8 -16c-12 -7 -41 -17 -73 -17c-56 0 -108 28 -108 98c0 80 75 125 86 130l-4 39c-11 -14 -59 -61 -138 -61c-112 0 -160 69 -160 182z" />
    <glyph glyph-name="wacute" unicode="&#x1e83;" horiz-adv-x="606" 
d="M154 -1l-120 385c-3 9 -3 16 6 16h22c5 0 11 -2 13 -9l94 -315h1l119 325c2 7 6 9 12 9h4c5 0 10 -3 12 -9l119 -325h1l94 315c2 7 8 9 13 9h22c9 0 9 -7 6 -16l-120 -385c-2 -7 -6 -9 -12 -9h-4c-5 0 -10 3 -12 9l-121 337h-1l-120 -337c-2 -6 -7 -9 -12 -9h-4
c-6 0 -10 2 -12 9zM224 558c-9 -4 -11 -2 -14 4l-6 13c-3 7 -1 10 6 14l165 87c5 3 13 4 17 -3l10 -20c4 -8 -1 -14 -9 -18z" />
    <glyph glyph-name="wcircumflex" unicode="&#x175;" horiz-adv-x="606" 
d="M154 -1l-120 385c-3 9 -3 16 6 16h22c5 0 11 -2 13 -9l94 -315h1l119 325c2 7 6 9 12 9h4c5 0 10 -3 12 -9l119 -325h1l94 315c2 7 8 9 13 9h22c9 0 9 -7 6 -16l-120 -385c-2 -7 -6 -9 -12 -9h-4c-5 0 -10 3 -12 9l-121 337h-1l-120 -337c-2 -6 -7 -9 -12 -9h-4
c-6 0 -10 2 -12 9zM191 550c-8 -6 -12 -2 -15 2l-9 11c-4 5 -1 10 4 14l121 98c3 3 7 5 10 5h3c3 0 7 -2 10 -5l121 -98c5 -4 8 -9 4 -14l-9 -11c-3 -4 -7 -8 -15 -2l-113 84z" />
    <glyph glyph-name="wdieresis" unicode="&#x1e85;" horiz-adv-x="606" 
d="M154 -1l-120 385c-3 9 -3 16 6 16h22c5 0 11 -2 13 -9l94 -315h1l119 325c2 7 6 9 12 9h4c5 0 10 -3 12 -9l119 -325h1l94 315c2 7 8 9 13 9h22c9 0 9 -7 6 -16l-120 -385c-2 -7 -6 -9 -12 -9h-4c-5 0 -10 3 -12 9l-121 337h-1l-120 -337c-2 -6 -7 -9 -12 -9h-4
c-6 0 -10 2 -12 9zM398 596c-19 0 -33 15 -33 33c0 20 14 35 33 35c20 0 35 -15 35 -35c0 -18 -15 -33 -35 -33zM207 596c-19 0 -34 15 -34 33c0 20 15 35 34 35c20 0 34 -15 34 -35c0 -18 -14 -33 -34 -33z" />
    <glyph glyph-name="wgrave" unicode="&#x1e81;" horiz-adv-x="606" 
d="M154 -1l-120 385c-3 9 -3 16 6 16h22c5 0 11 -2 13 -9l94 -315h1l119 325c2 7 6 9 12 9h4c5 0 10 -3 12 -9l119 -325h1l94 315c2 7 8 9 13 9h22c9 0 9 -7 6 -16l-120 -385c-2 -7 -6 -9 -12 -9h-4c-5 0 -10 3 -12 9l-121 337h-1l-120 -337c-2 -6 -7 -9 -12 -9h-4
c-6 0 -10 2 -12 9zM381 559l-172 79c-6 3 -7 9 -4 15l10 20c4 7 13 5 17 3l164 -90c7 -4 8 -9 6 -14l-5 -10c-3 -6 -7 -7 -16 -3z" />
    <glyph glyph-name="yacute" unicode="&#xfd;" horiz-adv-x="443" 
d="M204 4l-189 380c-4 8 -3 16 6 16h22c5 0 10 -3 13 -9l171 -338h2l156 338c3 6 8 9 13 9h22c9 0 10 -8 6 -16l-314 -676c-2 -5 -8 -8 -13 -8h-23c-8 0 -11 5 -7 14zM149 558c-9 -4 -11 -2 -14 4l-6 13c-3 7 -1 10 6 14l165 87c5 3 13 4 17 -3l10 -20c4 -8 -1 -14 -9 -18z
" />
    <glyph glyph-name="ycircumflex" unicode="&#x177;" horiz-adv-x="443" 
d="M204 4l-189 380c-4 8 -3 16 6 16h22c5 0 10 -3 13 -9l171 -338h2l156 338c3 6 8 9 13 9h22c9 0 10 -8 6 -16l-314 -676c-2 -5 -8 -8 -13 -8h-23c-8 0 -11 5 -7 14zM117 550c-8 -6 -12 -2 -15 2l-9 11c-4 5 -1 10 4 14l121 98c3 3 7 5 10 5h3c3 0 7 -2 10 -5l121 -98
c5 -4 8 -9 4 -14l-9 -11c-3 -4 -7 -8 -15 -2l-113 84z" />
    <glyph glyph-name="ydieresis" unicode="&#xff;" horiz-adv-x="443" 
d="M204 4l-189 380c-4 8 -3 16 6 16h22c5 0 10 -3 13 -9l171 -338h2l156 338c3 6 8 9 13 9h22c9 0 10 -8 6 -16l-314 -676c-2 -5 -8 -8 -13 -8h-23c-8 0 -11 5 -7 14zM323 596c-19 0 -33 15 -33 33c0 20 14 35 33 35c20 0 35 -15 35 -35c0 -18 -15 -33 -35 -33zM132 596
c-19 0 -34 15 -34 33c0 20 15 35 34 35c20 0 34 -15 34 -35c0 -18 -14 -33 -34 -33z" />
    <glyph glyph-name="ygrave" unicode="&#x1ef3;" horiz-adv-x="443" 
d="M204 4l-189 380c-4 8 -3 16 6 16h22c5 0 10 -3 13 -9l171 -338h2l156 338c3 6 8 9 13 9h22c9 0 10 -8 6 -16l-314 -676c-2 -5 -8 -8 -13 -8h-23c-8 0 -11 5 -7 14zM306 559l-172 79c-6 3 -7 9 -4 15l10 20c4 7 13 5 17 3l164 -90c7 -4 8 -9 6 -14l-5 -10
c-3 -6 -7 -7 -16 -3z" />
    <glyph glyph-name="zacute" unicode="&#x17a;" horiz-adv-x="371" 
d="M34 11v11l235 335v3h-204c-7 0 -12 6 -12 13v14c0 8 5 13 12 13h259c10 0 17 -10 11 -19l-234 -338v-3h207c8 0 13 -5 13 -13v-14c0 -7 -5 -13 -13 -13h-262c-7 0 -12 5 -12 11zM118 558c-9 -4 -11 -2 -14 4l-6 13c-3 7 -1 10 6 14l165 87c5 3 13 4 17 -3l10 -20
c4 -8 -1 -14 -9 -18z" />
    <glyph glyph-name="zcaron" unicode="&#x17e;" horiz-adv-x="371" 
d="M34 11v11l235 335v3h-204c-7 0 -12 6 -12 13v14c0 8 5 13 12 13h259c10 0 17 -10 11 -19l-234 -338v-3h207c8 0 13 -5 13 -13v-14c0 -7 -5 -13 -13 -13h-262c-7 0 -12 5 -12 11zM195 545c-3 0 -7 2 -10 5l-121 98c-5 4 -8 9 -4 14l9 11c3 4 7 8 15 2l113 -84l112 84
c8 6 12 2 15 -2l9 -11c4 -5 1 -10 -4 -14l-121 -98c-3 -3 -7 -5 -10 -5h-3z" />
    <glyph glyph-name="zdotaccent" unicode="&#x17c;" horiz-adv-x="371" 
d="M34 11v11l235 335v3h-204c-7 0 -12 6 -12 13v14c0 8 5 13 12 13h259c10 0 17 -10 11 -19l-234 -338v-3h207c8 0 13 -5 13 -13v-14c0 -7 -5 -13 -13 -13h-262c-7 0 -12 5 -12 11zM193 582c-21 0 -38 18 -38 38c0 21 17 38 38 38s38 -17 38 -38c0 -20 -17 -38 -38 -38z" />
    <glyph glyph-name="IJ" unicode="&#x132;" horiz-adv-x="660" 
d="M106 13v674c0 7 6 13 13 13h22c7 0 13 -6 13 -13v-674c0 -8 -7 -13 -14 -13h-21c-7 0 -13 6 -13 13zM244 65c-4 6 -4 12 1 17l13 12c5 5 10 7 17 0c22 -22 57 -62 123 -62c85 0 146 59 146 178v477c0 8 6 13 14 13h20c7 0 13 -6 13 -13v-476c0 -140 -75 -221 -194 -221
c-88 0 -136 54 -153 75z" />
    <glyph glyph-name="ij" unicode="&#x133;" horiz-adv-x="432" 
d="M98 596c-19 0 -34 15 -34 33c0 19 15 35 34 35s34 -16 34 -35c0 -18 -15 -33 -34 -33zM76 13v374c0 7 6 13 13 13h18c7 0 13 -6 13 -13v-374c0 -8 -4 -13 -13 -13h-20c-7 0 -11 6 -11 13zM334 596c-19 0 -34 15 -34 33c0 19 15 35 34 35s34 -16 34 -35
c0 -18 -15 -33 -34 -33zM313 -137v524c0 7 6 13 13 13h17c7 0 13 -6 13 -13v-524c0 -118 -58 -173 -146 -173c-52 0 -95 26 -112 43c-6 6 -5 10 -2 14l10 16c4 6 11 6 17 0c17 -13 49 -33 87 -33c63 0 103 40 103 133z" />
    <glyph glyph-name="grave.cap" horiz-adv-x="302" 
d="M238 782l-172 79c-6 3 -7 9 -4 15l10 20c4 7 13 5 17 3l164 -90c7 -4 8 -9 6 -14l-5 -10c-3 -6 -7 -7 -16 -3z" />
    <glyph glyph-name="acute" unicode="&#xb4;" horiz-adv-x="302" 
d="M92 558c-9 -4 -11 -2 -14 4l-6 13c-3 7 -1 10 6 14l165 87c5 3 13 4 17 -3l10 -20c4 -8 -1 -14 -9 -18z" />
    <glyph glyph-name="acute.cap" horiz-adv-x="302" 
d="M82 782c-9 -4 -13 -3 -16 3l-5 10c-2 5 -1 10 6 14l164 90c4 2 13 4 17 -3l10 -20c3 -6 2 -12 -4 -15z" />
    <glyph glyph-name="circumflex" unicode="&#x2c6;" horiz-adv-x="373" 
d="M72 550c-8 -6 -12 -2 -15 2l-9 11c-4 5 -1 10 4 14l121 98c3 3 7 5 10 5h3c3 0 7 -2 10 -5l121 -98c5 -4 8 -9 4 -14l-9 -11c-3 -4 -7 -8 -15 -2l-113 84z" />
    <glyph glyph-name="circumflex.cap" horiz-adv-x="373" 
d="M72 768c-8 -6 -12 -2 -15 2l-9 11c-4 5 -1 10 4 14l121 98c3 3 7 5 10 5h3c3 0 7 -2 10 -5l121 -98c5 -4 8 -9 4 -14l-9 -11c-3 -4 -7 -8 -15 -2l-113 84z" />
    <glyph glyph-name="caron" unicode="&#x2c7;" horiz-adv-x="373" 
d="M184 545c-3 0 -7 2 -10 5l-121 98c-5 4 -8 9 -4 14l9 11c3 4 7 8 15 2l113 -84l112 84c8 6 12 2 15 -2l9 -11c4 -5 1 -10 -4 -14l-121 -98c-3 -3 -7 -5 -10 -5h-3z" />
    <glyph glyph-name="caron.cap" horiz-adv-x="373" 
d="M184 763c-3 0 -7 2 -10 5l-121 98c-5 4 -8 9 -4 14l9 11c3 4 7 8 15 2l113 -84l112 84c8 6 12 2 15 -2l9 -11c4 -5 1 -10 -4 -14l-121 -98c-3 -3 -7 -5 -10 -5h-3z" />
    <glyph glyph-name="caron.alt" horiz-adv-x="373" 
d="M135 672c0 24 17 39 42 39c29 0 56 -28 56 -94c0 -80 -53 -128 -72 -139c-7 -4 -13 -5 -17 0l-8 10c-4 5 -3 11 4 16c5 4 50 34 56 95c1 15 -1 28 -5 38c-5 -3 -10 -5 -16 -5c-26 0 -40 19 -40 40z" />
    <glyph glyph-name="tilde" unicode="&#x2dc;" horiz-adv-x="380" 
d="M53 579l-12 5c-6 2 -8 8 -6 14c7 18 29 86 93 86c72 0 65 -91 113 -91c37 0 51 41 57 59c2 7 9 10 15 7l11 -4c4 -2 8 -5 6 -13s-23 -86 -92 -86c-70 0 -66 92 -113 92c-38 0 -51 -43 -57 -62c-2 -7 -8 -10 -15 -7z" />
    <glyph glyph-name="tilde.cap" horiz-adv-x="380" 
d="M57 799l-12 5c-6 2 -8 8 -6 14c7 18 29 86 93 86c72 0 65 -91 113 -91c37 0 51 41 57 59c2 7 9 10 15 7l11 -4c4 -2 8 -5 6 -13s-23 -86 -92 -86c-70 0 -66 92 -113 92c-38 0 -51 -43 -57 -62c-2 -7 -8 -10 -15 -7z" />
    <glyph glyph-name="dieresis" unicode="&#xa8;" horiz-adv-x="414" 
d="M319 596c-19 0 -33 15 -33 33c0 20 14 35 33 35c20 0 35 -15 35 -35c0 -18 -15 -33 -35 -33zM128 596c-19 0 -34 15 -34 33c0 20 15 35 34 35c20 0 34 -15 34 -35c0 -18 -14 -33 -34 -33z" />
    <glyph glyph-name="dieresis.cap" horiz-adv-x="474" 
d="M341 801c-19 0 -34 15 -34 33c0 20 15 35 34 35c20 0 35 -15 35 -35c0 -18 -15 -33 -35 -33zM132 801c-19 0 -34 15 -34 33c0 20 15 35 34 35c20 0 35 -15 35 -35c0 -18 -15 -33 -35 -33z" />
    <glyph glyph-name="macron" unicode="&#xaf;" horiz-adv-x="414" 
d="M71 595c-8 0 -13 5 -13 12v13c0 7 5 13 13 13h272c7 0 13 -6 13 -13v-13c0 -7 -6 -12 -13 -12h-272z" />
    <glyph glyph-name="macron.cap" horiz-adv-x="414" 
d="M71 831c-8 0 -13 6 -13 13v12c0 8 5 13 13 13h272c7 0 13 -5 13 -13v-12c0 -7 -6 -13 -13 -13h-272z" />
    <glyph glyph-name="uni02C9" unicode="&#x2c9;" horiz-adv-x="414" 
d="M71 595c-8 0 -13 5 -13 12v13c0 7 5 13 13 13h272c7 0 13 -6 13 -13v-13c0 -7 -6 -12 -13 -12h-272z" />
    <glyph glyph-name="breve" unicode="&#x2d8;" horiz-adv-x="346" 
d="M173 538c-69 0 -120 49 -131 110c-1 8 2 14 10 14h13c7 0 10 -5 12 -11c11 -45 47 -79 96 -79c46 0 85 34 95 79c2 7 6 11 12 11h14c7 0 11 -6 10 -14c-10 -62 -64 -110 -131 -110z" />
    <glyph glyph-name="breve.cap" horiz-adv-x="346" 
d="M173 775c-69 0 -122 49 -131 111c-1 7 2 14 10 14h13c7 0 10 -6 12 -12c12 -44 47 -78 96 -78c46 0 85 34 95 78c2 7 6 12 12 12h14c7 0 11 -7 10 -14c-11 -63 -64 -111 -131 -111z" />
    <glyph glyph-name="ring" unicode="&#x2da;" horiz-adv-x="290" 
d="M145 497c-60 0 -107 46 -107 106s47 107 107 107c59 0 106 -47 106 -107s-47 -106 -106 -106zM145 529c39 0 73 34 73 74s-34 74 -73 74c-40 0 -75 -34 -75 -74s35 -74 75 -74z" />
    <glyph glyph-name="ring.cap" horiz-adv-x="290" 
d="M145 754c-60 0 -106 46 -106 106s46 107 106 107c59 0 107 -47 107 -107s-48 -106 -107 -106zM145 786c40 0 74 34 74 74s-34 74 -74 74s-74 -34 -74 -74s34 -74 74 -74z" />
    <glyph glyph-name="hungarumlaut" unicode="&#x2dd;" horiz-adv-x="392" 
d="M231 518c-7 0 -10 5 -7 12l79 159c3 7 7 11 14 11h22c11 0 15 -8 10 -17l-93 -157c-3 -6 -8 -8 -13 -8h-12zM65 518c-7 0 -10 5 -7 12l79 159c3 7 7 11 14 11h22c11 0 15 -8 10 -17l-93 -157c-3 -6 -8 -8 -13 -8h-12z" />
    <glyph glyph-name="hungarumlaut.cap" horiz-adv-x="392" 
d="M220 766c-7 0 -10 5 -7 12l79 159c3 7 7 11 14 11h22c11 0 15 -8 10 -17l-93 -157c-3 -6 -8 -8 -13 -8h-12zM54 766c-7 0 -10 5 -7 12l79 159c3 7 7 11 14 11h22c11 0 15 -8 10 -17l-93 -157c-3 -6 -8 -8 -13 -8h-12z" />
    <glyph glyph-name="dotaccent" unicode="&#x2d9;" horiz-adv-x="219" 
d="M108 582c-21 0 -38 18 -38 38c0 21 17 38 38 38s38 -17 38 -38c0 -20 -17 -38 -38 -38z" />
    <glyph glyph-name="dotaccent.cap" horiz-adv-x="219" 
d="M108 810c-21 0 -38 17 -38 38s17 38 38 38s38 -17 38 -38s-17 -38 -38 -38z" />
    <glyph glyph-name="cedilla" unicode="&#xb8;" horiz-adv-x="247" 
d="M72 0h36v-54c60 -7 107 -38 107 -97c0 -53 -42 -97 -98 -97c-39 0 -69 19 -78 34c-5 8 -4 14 1 18l10 8c4 3 10 3 16 -3c6 -7 22 -21 51 -21c36 0 59 27 59 60c0 48 -49 63 -92 68c-9 2 -12 7 -12 13v71z" />
    <glyph glyph-name="cedilla.cap" horiz-adv-x="247" 
d="M72 0h36v-54c60 -7 107 -38 107 -97c0 -53 -42 -97 -98 -97c-39 0 -69 19 -78 34c-5 8 -4 14 1 18l10 8c4 3 10 3 16 -3c6 -7 22 -21 51 -21c36 0 59 27 59 60c0 48 -49 63 -92 68c-9 2 -12 7 -12 13v71z" />
    <glyph glyph-name="ogonek" unicode="&#x2db;" horiz-adv-x="276" 
d="M38 -118c0 83 81 128 87 130l30 -4s-78 -44 -78 -121c0 -45 36 -67 74 -67c30 0 51 10 62 15c6 3 12 1 13 -8l1 -10c1 -8 -2 -12 -8 -16c-12 -7 -41 -17 -73 -17c-56 0 -108 28 -108 98z" />
    <glyph glyph-name="ogonek.cap" horiz-adv-x="276" 
d="M38 -118c0 83 81 128 87 130l30 -4s-78 -44 -78 -121c0 -45 36 -67 74 -67c30 0 51 10 62 15c6 3 12 1 13 -8l1 -10c1 -8 -2 -12 -8 -16c-12 -7 -41 -17 -73 -17c-56 0 -108 28 -108 98z" />
    <glyph glyph-name="commaaccent" horiz-adv-x="292" 
d="M96 -141c0 24 17 39 42 39c29 0 56 -28 56 -94c0 -80 -53 -128 -72 -139c-7 -4 -13 -5 -17 0l-8 10c-4 5 -3 11 4 16c5 4 50 34 56 95c1 15 -1 28 -5 38c-5 -3 -10 -5 -16 -5c-26 0 -40 19 -40 40z" />
    <glyph glyph-name="commaaccent.alt" horiz-adv-x="292" 
d="M96 -141c0 24 17 39 42 39c29 0 56 -28 56 -94c0 -80 -53 -128 -72 -139c-7 -4 -13 -5 -17 0l-8 10c-4 5 -3 11 4 16c5 4 50 34 56 95c1 15 -1 28 -5 38c-5 -3 -10 -5 -16 -5c-26 0 -40 19 -40 40z" />
    <glyph glyph-name="commaaccent.cap" horiz-adv-x="292" 
d="M96 -141c0 24 17 39 42 39c29 0 56 -28 56 -94c0 -80 -53 -128 -72 -139c-7 -4 -13 -5 -17 0l-8 10c-4 5 -3 11 4 16c5 4 50 34 56 95c1 15 -1 28 -5 38c-5 -3 -10 -5 -16 -5c-26 0 -40 19 -40 40z" />
    <glyph glyph-name="ellipsis" unicode="&#x2026;" horiz-adv-x="624" 
d="M465 31c0 22 18 40 40 40c23 0 40 -18 40 -40s-17 -41 -40 -41c-22 0 -40 19 -40 41zM270 31c0 22 18 40 40 40c23 0 40 -18 40 -40s-17 -41 -40 -41c-22 0 -40 19 -40 41zM78 31c0 22 19 40 41 40c23 0 40 -18 40 -40s-17 -41 -40 -41c-22 0 -41 19 -41 41z" />
    <glyph glyph-name="uni00AD" unicode="&#xad;" horiz-adv-x="347" 
d="M60 231c-7 0 -12 6 -12 13v11c0 8 5 13 12 13h226c7 0 13 -5 13 -13v-11c0 -7 -6 -13 -13 -13h-226z" />
    <glyph glyph-name="exclamdown" unicode="&#xa1;" horiz-adv-x="225" 
d="M112 330c-23 0 -40 17 -40 40c0 22 17 40 40 40c22 0 41 -18 41 -40c0 -23 -19 -40 -41 -40zM95 119c0 6 7 12 13 12h8c7 0 13 -6 13 -12l10 -284v-122c0 -11 -8 -13 -15 -13h-25c-7 0 -13 6 -13 13v121z" />
    <glyph glyph-name="questiondown" unicode="&#xbf;" horiz-adv-x="239" 
d="M125 330c-23 0 -41 17 -41 40c0 22 18 40 41 40c22 0 40 -18 40 -40c0 -23 -18 -40 -40 -40zM102 56v57c0 9 4 14 13 14h19c9 0 12 -7 12 -14v-58c0 -97 -167 -120 -167 -221c0 -52 44 -104 123 -104c92 0 134 60 144 70c4 4 8 7 17 1l10 -7c10 -7 7 -13 3 -19
c0 0 -55 -85 -177 -85c-101 0 -165 59 -165 141c0 132 168 154 168 225z" />
    <glyph glyph-name="quoteleft" unicode="&#x2018;" horiz-adv-x="189" 
d="M99 472c-29 0 -56 28 -56 94c0 80 53 128 72 139c7 4 13 5 17 0l8 -10c4 -5 3 -11 -4 -16c-5 -4 -50 -34 -56 -95c-1 -15 1 -28 5 -38c5 3 10 5 16 5c26 0 40 -19 40 -40c0 -24 -17 -39 -42 -39z" />
    <glyph glyph-name="quoteright" unicode="&#x2019;" horiz-adv-x="189" 
d="M60 477l-8 10c-4 5 -3 11 4 16c5 4 50 34 56 95c1 15 -1 28 -5 38c-5 -3 -10 -5 -16 -5c-26 0 -40 19 -40 40c0 24 17 39 42 39c29 0 56 -28 56 -94c0 -80 -53 -128 -72 -139c-7 -4 -13 -5 -17 0z" />
    <glyph glyph-name="quotedblleft" unicode="&#x201c;" horiz-adv-x="369" 
d="M279 473c-29 0 -56 28 -56 94c0 80 53 128 72 139c7 4 13 5 17 0l8 -10c4 -5 3 -11 -4 -16c-5 -4 -50 -34 -56 -95c-1 -15 1 -28 5 -38c5 3 10 5 16 5c26 0 40 -19 40 -40c0 -24 -17 -39 -42 -39zM100 473c-29 0 -56 28 -56 94c0 80 53 128 72 139c7 4 13 5 17 0l8 -10
c4 -5 3 -11 -4 -16c-5 -4 -50 -34 -56 -95c-1 -15 1 -28 5 -38c5 3 10 5 16 5c26 0 40 -19 40 -40c0 -24 -17 -39 -42 -39z" />
    <glyph glyph-name="quotedblright" unicode="&#x201d;" horiz-adv-x="368" 
d="M239 477l-8 10c-4 5 -3 11 4 16c5 4 50 34 56 95c1 15 -1 28 -5 38c-5 -3 -10 -5 -16 -5c-26 0 -40 19 -40 40c0 24 17 39 42 39c29 0 56 -28 56 -94c0 -80 -53 -128 -72 -139c-7 -4 -13 -5 -17 0zM60 477l-8 10c-4 5 -3 11 4 16c5 4 50 34 56 95c1 15 -1 28 -5 38
c-5 -3 -10 -5 -16 -5c-26 0 -40 19 -40 40c0 24 17 39 42 39c29 0 56 -28 56 -94c0 -80 -53 -128 -72 -139c-7 -4 -13 -5 -17 0z" />
    <glyph glyph-name="quotesinglbase" unicode="&#x201a;" horiz-adv-x="229" 
d="M70 29c0 24 17 39 42 39c29 0 56 -28 56 -94c0 -80 -53 -128 -72 -139c-7 -4 -13 -5 -17 0l-8 10c-4 5 -3 11 4 16c5 4 50 34 56 95c1 15 -1 28 -5 38c-5 -3 -10 -5 -16 -5c-26 0 -40 19 -40 40z" />
    <glyph glyph-name="quotedblbase" unicode="&#x201e;" horiz-adv-x="408" 
d="M249 29c0 24 17 39 42 39c29 0 56 -28 56 -94c0 -80 -53 -128 -72 -139c-7 -4 -13 -5 -17 0l-8 10c-4 5 -3 11 4 16c5 4 50 34 56 95c1 15 -1 28 -5 38c-5 -3 -10 -5 -16 -5c-26 0 -40 19 -40 40zM70 29c0 24 17 39 42 39c29 0 56 -28 56 -94c0 -80 -53 -128 -72 -139
c-7 -4 -13 -5 -17 0l-8 10c-4 5 -3 11 4 16c5 4 50 34 56 95c1 15 -1 28 -5 38c-5 -3 -10 -5 -16 -5c-26 0 -40 19 -40 40z" />
    <glyph glyph-name="guilsinglleft" unicode="&#x2039;" horiz-adv-x="245" 
d="M154 42l-108 157c-4 5 -3 12 0 17l108 154c7 10 12 9 16 9h16c8 0 11 -8 5 -18l-94 -153l94 -157c6 -10 3 -18 -5 -18h-16c-4 0 -9 -1 -16 9z" />
    <glyph glyph-name="guilsinglright" unicode="&#x203a;" horiz-adv-x="245" 
d="M59 33c-8 0 -11 8 -5 18l94 157l-94 153c-6 10 -3 18 5 18h16c4 0 9 1 16 -9l108 -154c3 -5 4 -12 0 -17l-108 -157c-7 -10 -12 -9 -16 -9h-16z" />
    <glyph glyph-name="guillemotleft" unicode="&#xab;" horiz-adv-x="405" 
d="M206 199c-4 5 -3 12 0 17l108 154c7 10 12 9 16 9h16c8 0 11 -8 5 -18l-94 -153l94 -157c6 -10 3 -18 -5 -18h-16c-4 0 -9 -1 -16 9zM154 42l-108 157c-4 5 -3 12 0 17l108 154c7 10 12 9 16 9h16c8 0 11 -8 5 -18l-94 -153l94 -157c6 -10 3 -18 -5 -18h-16
c-4 0 -9 -1 -16 9z" />
    <glyph glyph-name="guillemotright" unicode="&#xbb;" horiz-adv-x="405" 
d="M214 51l94 157l-94 153c-6 10 -3 18 5 18h16c4 0 9 1 16 -9l108 -154c3 -5 4 -12 0 -17l-108 -157c-7 -10 -12 -9 -16 -9h-16c-8 0 -11 8 -5 18zM59 33c-8 0 -11 8 -5 18l94 157l-94 153c-6 10 -3 18 5 18h16c4 0 9 1 16 -9l108 -154c3 -5 4 -12 0 -17l-108 -157
c-7 -10 -12 -9 -16 -9h-16z" />
    <glyph glyph-name="endash" unicode="&#x2013;" horiz-adv-x="644" 
d="M130 233c-7 0 -13 5 -13 12v8c0 7 6 13 13 13h384c8 0 13 -6 13 -13v-8c0 -7 -5 -12 -13 -12h-384z" />
    <glyph glyph-name="emdash" unicode="&#x2014;" horiz-adv-x="862" 
d="M130 233c-7 0 -13 5 -13 12v8c0 7 6 13 13 13h602c8 0 13 -6 13 -13v-8c0 -7 -5 -12 -13 -12h-602z" />
    <glyph glyph-name="bullet" unicode="&#x2022;" horiz-adv-x="354" 
d="M175 154c-39 0 -71 32 -71 71c0 41 32 74 71 74c41 0 74 -33 74 -74c0 -39 -33 -71 -74 -71z" />
    <glyph glyph-name="periodcentered" unicode="&#xb7;" horiz-adv-x="233" 
d="M117 221c-22 0 -41 18 -41 40c0 23 19 40 41 40c23 0 40 -17 40 -40c0 -22 -17 -40 -40 -40z" />
    <glyph glyph-name="uni2219" unicode="&#x2219;" horiz-adv-x="354" 
d="M177 221c-22 0 -41 18 -41 40c0 23 19 40 41 40c23 0 40 -17 40 -40c0 -22 -17 -40 -40 -40z" />
    <glyph glyph-name="dagger" unicode="&#x2020;" horiz-adv-x="570" 
d="M53 358c-9 0 -13 6 -13 15v14c0 7 6 13 13 13h205v287c0 7 6 13 14 13h26c7 0 13 -6 13 -13v-287h207c7 0 12 -6 12 -13v-16c0 -7 -5 -13 -12 -13h-208l-9 -647c0 -6 -6 -11 -13 -11h-8c-9 0 -13 5 -13 11l-8 647h-206z" />
    <glyph glyph-name="daggerdbl" unicode="&#x2021;" horiz-adv-x="570" 
d="M70 14v15c0 7 6 13 13 13h179l-4 340v18h-205c-8 0 -13 6 -13 14v15c0 7 6 13 13 13h205v245c0 7 6 13 14 13h26c7 0 13 -6 13 -13v-245h207c8 0 12 -7 12 -15v-14c0 -7 -5 -13 -12 -13h-207l-5 -358h182c7 0 12 -6 12 -13v-16c0 -7 -5 -13 -12 -13h-183l-4 -289
c0 -6 -6 -11 -13 -11h-8c-9 0 -13 5 -13 11l-4 289h-180c-8 0 -13 6 -13 14z" />
    <glyph glyph-name="section" unicode="&#xa7;" horiz-adv-x="533" 
d="M72 -114c5 6 12 8 19 1c9 -9 81 -75 178 -75c81 0 162 48 162 122c0 82 -71 125 -188 164c-112 37 -193 89 -193 191c0 62 47 104 65 120c-15 14 -64 58 -64 130c0 74 60 171 215 171c99 0 171 -51 171 -51c4 -2 11 -10 4 -20l-10 -15c-4 -6 -10 -10 -20 -4
c-5 3 -70 48 -145 48c-124 0 -169 -71 -169 -129c0 -77 65 -120 164 -151c132 -44 220 -89 220 -194c0 -61 -56 -108 -71 -123c17 -14 70 -60 70 -136c0 -96 -100 -165 -212 -165c-114 0 -193 67 -206 79c-5 5 -11 11 -3 21zM257 143c42 -13 81 -29 116 -49
c13 12 58 46 58 97c0 80 -71 116 -188 155c-36 10 -70 23 -94 41c-16 -15 -52 -45 -52 -96c0 -80 64 -115 160 -148z" />
    <glyph glyph-name="paragraph" unicode="&#xb6;" horiz-adv-x="685" 
d="M223 283c-119 0 -197 100 -197 207c0 115 86 210 197 210h428c7 0 13 -6 13 -13v-12c0 -8 -6 -13 -13 -13h-107v-949c0 -7 -6 -13 -13 -13h-11c-6 0 -13 4 -13 13v949h-175v-949c0 -7 -6 -13 -13 -13h-11c-6 0 -13 4 -13 13v570h-72z" />
    <glyph glyph-name="brokenbar.case" horiz-adv-x="359" 
d="M177 508c-7 0 -13 6 -13 13v345c0 8 6 13 13 13h6c7 0 12 -5 12 -13v-345c0 -7 -6 -13 -13 -13h-5zM164 178c0 7 6 13 13 13h6c7 0 12 -6 12 -13v-346c0 -7 -6 -12 -13 -12h-5c-7 0 -13 5 -13 12v346z" />
    <glyph glyph-name="copyright" unicode="&#xa9;" horiz-adv-x="833" 
d="M56 350c0 198 161 360 360 360c198 0 361 -162 361 -360c0 -199 -163 -360 -361 -360c-199 0 -360 161 -360 360zM95 350c0 -177 144 -321 321 -321s321 144 321 321s-144 320 -321 320s-321 -143 -321 -320zM235 348c0 106 85 190 190 190c40 0 83 -11 116 -38
c6 -5 7 -13 2 -19l-9 -11c-5 -7 -12 -5 -17 -1c-27 21 -60 29 -91 29c-83 0 -147 -67 -147 -149s64 -148 147 -148c32 0 62 10 90 31c7 5 13 6 19 -2l9 -12c4 -6 4 -12 -1 -17c-34 -31 -74 -43 -118 -43c-105 0 -190 85 -190 190z" />
    <glyph glyph-name="registered" unicode="&#xae;" horiz-adv-x="834" 
d="M56 350c0 198 161 360 360 360c198 0 361 -162 361 -360c0 -199 -163 -360 -361 -360c-199 0 -360 161 -360 360zM95 350c0 -177 144 -321 321 -321s321 144 321 321s-144 320 -321 320s-321 -143 -321 -320zM288 180v343c0 7 5 13 12 13h146c64 0 127 -35 127 -113
c0 -72 -54 -104 -95 -112l70 -128c4 -7 1 -15 -8 -15h-23c-5 0 -11 4 -14 10l-67 130h-14h-94v-128c0 -8 -3 -13 -12 -13h-16c-7 0 -12 6 -12 13zM328 345h118c45 0 86 29 86 78c0 58 -45 77 -98 77h-106v-155z" />
    <glyph glyph-name="trademark" unicode="&#x2122;" horiz-adv-x="721" 
d="M309 394c-9 0 -12 7 -10 15l68 291c2 7 4 10 11 10h5c4 0 7 -2 10 -10l86 -245h1l87 245c3 8 6 10 10 10h5c7 0 9 -3 11 -10l68 -291c2 -8 -1 -15 -10 -15h-11c-6 0 -10 3 -12 10l-53 217h-1l-80 -224c-2 -6 -5 -8 -9 -8h-10c-4 0 -7 2 -9 8l-81 224h-1l-52 -217
c-2 -7 -6 -10 -12 -10h-11zM161 394c-6 0 -12 5 -12 13v260h-87c-8 0 -13 7 -13 15v5c0 7 6 13 13 13h208c7 0 13 -6 13 -13v-7c0 -8 -6 -13 -13 -13h-86v-260c0 -7 -6 -13 -13 -13h-10z" />
    <glyph glyph-name="currency" unicode="&#xa4;" horiz-adv-x="491" 
d="M97 162l-10 12c-7 5 -5 13 -2 16l53 53c-35 46 -34 112 0 157l-53 52c-3 4 -5 12 2 18l10 11c7 6 14 4 19 2l51 -53c48 36 111 34 157 -1l53 53c3 3 12 5 18 -3l11 -9c6 -8 4 -14 0 -19l-51 -51c34 -46 34 -111 0 -156l51 -51c4 -6 4 -13 -3 -19l-10 -11
c-7 -6 -14 -4 -18 -1l-51 51c-46 -34 -111 -35 -157 0l-51 -53c-5 -3 -12 -3 -19 2zM179 253c37 -36 99 -37 136 0s37 99 0 136c-37 38 -99 37 -136 0s-37 -99 0 -136z" />
    <glyph glyph-name="Euro" unicode="&#x20ac;" horiz-adv-x="735" 
d="M32 259c-8 0 -12 6 -12 13v5c0 7 5 13 12 13h47c-3 18 -5 38 -5 59c0 9 0 19 1 28h-43c-7 0 -12 7 -12 14v5c0 7 5 13 12 13h47c28 171 177 301 357 301c102 0 178 -33 243 -93c5 -5 6 -13 1 -18l-15 -15c-6 -6 -14 -6 -20 0c-57 54 -127 81 -209 81
c-155 0 -280 -111 -306 -256h323c9 0 13 -8 13 -15v-4c0 -7 -5 -13 -13 -13h-328c-1 -9 -1 -18 -1 -28c0 -20 1 -40 5 -59h285c8 0 12 -8 12 -15v-4c0 -7 -5 -12 -12 -12h-277c38 -130 156 -224 299 -224c97 0 151 34 211 84c6 5 12 6 16 2l17 -17c6 -6 5 -13 0 -17
c-69 -66 -155 -97 -244 -97c-169 0 -310 113 -350 269h-54z" />
    <glyph glyph-name="cent" unicode="&#xa2;" horiz-adv-x="445" 
d="M166 4c-76 30 -131 104 -131 196c0 120 97 210 210 210c11 0 21 -1 31 -3l10 40c2 7 9 9 16 8l5 -1c7 -1 11 -8 9 -16l-10 -38c46 -13 77 -40 87 -53c5 -6 4 -13 -2 -18l-11 -10c-10 -8 -14 -3 -20 3c-5 5 -29 26 -65 36l-87 -323c12 -2 24 -3 36 -3c75 0 115 46 127 57
c7 8 13 8 19 2l8 -7c5 -5 8 -11 4 -17c-15 -24 -74 -77 -157 -77c-17 0 -34 1 -49 5l-23 -90c-2 -7 -9 -9 -16 -8l-5 1c-7 1 -11 8 -9 15zM178 46l86 319c-6 1 -12 2 -19 2c-91 0 -165 -71 -165 -166c0 -72 41 -130 98 -155z" />
    <glyph glyph-name="sterling" unicode="&#xa3;" horiz-adv-x="518" 
d="M82 14v9c32 72 50 153 48 198c0 34 -4 58 -8 81h-43c-8 0 -13 7 -13 15v4c0 6 6 12 13 12h36c-10 43 -32 103 -32 175c0 122 93 202 203 202c90 0 158 -50 175 -73c5 -7 6 -13 -2 -22l-8 -9c-5 -5 -13 -7 -22 2c-8 8 -62 60 -145 60c-85 0 -157 -64 -157 -161
c0 -70 23 -133 32 -174h202c9 0 13 -7 13 -14v-4c0 -7 -5 -13 -13 -13h-194c4 -24 6 -54 6 -81c-1 -59 -10 -117 -37 -180h300c10 0 12 -7 12 -14v-15c0 -6 -5 -12 -12 -12h-342c-7 0 -13 7 -12 14z" />
    <glyph glyph-name="florin" unicode="&#x192;" horiz-adv-x="336" 
d="M118 -135v496h-87c-9 0 -13 7 -13 13v13c0 7 6 13 13 13h87v137c0 118 64 173 151 173c51 0 98 -24 112 -43c5 -6 5 -12 2 -16l-10 -14c-4 -6 -11 -7 -17 -1c-15 14 -50 34 -87 34c-63 0 -107 -41 -107 -133v-137h148c8 0 13 -5 13 -12v-15c0 -7 -4 -12 -13 -12h-148
v-496c0 -118 -64 -173 -151 -173c-51 0 -98 24 -112 43c-5 6 -5 12 -2 16l10 14c4 6 11 7 17 1c15 -14 50 -34 87 -34c63 0 107 41 107 133z" />
    <glyph glyph-name="yen" unicode="&#xa5;" horiz-adv-x="620" 
d="M133 139c-7 0 -12 5 -12 12v6c0 7 4 13 12 13h150v88h-150c-7 0 -12 5 -12 12v6c0 7 4 13 12 13h150v51l-255 345c-6 8 -2 15 8 15h30c5 0 10 -2 13 -6l228 -312l232 312c3 4 8 6 13 6h30c10 0 14 -7 8 -15l-260 -344v-52h150c8 0 12 -6 12 -13v-6c0 -7 -5 -12 -12 -12
h-150v-88h150c8 0 12 -6 12 -13v-6c0 -7 -5 -12 -12 -12h-150v-126c0 -7 -6 -13 -13 -13h-22c-7 0 -12 6 -12 13v126h-150z" />
    <glyph glyph-name="ordfeminine" unicode="&#xaa;" horiz-adv-x="324" 
d="M135 403c-54 0 -95 38 -95 98c0 56 46 97 122 97c31 0 62 -8 70 -11c0 64 -6 91 -60 91c-48 0 -79 -17 -86 -20c-6 -2 -10 1 -11 5l-4 13c-2 6 1 10 5 12c2 1 38 22 98 22c91 0 92 -58 92 -136v-154c0 -6 -5 -10 -10 -10h-11c-6 0 -9 3 -10 8l-3 23
c-19 -16 -52 -38 -97 -38zM138 434c42 0 79 25 93 43v80c-11 4 -38 14 -71 14c-52 0 -89 -30 -89 -69c0 -41 29 -68 67 -68z" />
    <glyph glyph-name="ordmasculine" unicode="&#xba;" horiz-adv-x="331" 
d="M165 394c-77 0 -122 60 -122 157c0 99 45 159 122 159c78 0 123 -60 123 -159c0 -97 -45 -157 -123 -157zM165 427c55 0 87 46 87 124c0 79 -32 127 -87 127c-54 0 -86 -48 -86 -127c0 -78 32 -124 86 -124z" />
    <glyph glyph-name="onesuperior" unicode="&#xb9;" horiz-adv-x="187" 
d="M98 504c-5 0 -8 3 -8 8v241l-47 -28c-4 -2 -7 -1 -9 2l-6 10c-2 4 -2 7 3 11l73 52h12c5 0 10 -2 10 -8v-280c0 -5 -4 -8 -8 -8h-20z" />
    <glyph glyph-name="twosuperior" unicode="&#xb2;" horiz-adv-x="320" 
d="M63 504c-6 0 -9 4 -9 8v9l139 130c22 21 35 42 36 66c0 29 -24 60 -72 60c-37 0 -60 -25 -68 -33c-3 -4 -8 -3 -10 -1l-13 12c-2 2 -4 6 -1 10c0 0 33 45 94 45c69 0 106 -42 106 -90c0 -32 -18 -62 -46 -88l-106 -97h143c4 0 7 -2 7 -8v-15c0 -4 -2 -8 -7 -8h-193z" />
    <glyph glyph-name="threesuperior" unicode="&#xb3;" horiz-adv-x="316" 
d="M157 494c-62 0 -96 30 -105 41c-3 3 -4 7 0 11l11 11c4 4 9 4 13 0c8 -7 29 -32 80 -32c45 0 77 24 77 57c0 30 -26 57 -81 57h-45c-6 0 -8 5 -8 10v12c0 5 3 8 8 8h45c41 0 73 18 73 55c0 33 -29 54 -68 54c-44 0 -66 -25 -71 -30c-3 -3 -7 -4 -10 -1l-13 11
c-4 4 -4 8 -1 11c0 0 36 41 97 41c59 0 103 -31 103 -82c0 -33 -27 -61 -52 -72c0 0 61 -19 61 -76c0 -49 -46 -86 -114 -86z" />
    <glyph glyph-name="fraction" unicode="&#x2044;" horiz-adv-x="144" 
d="M-92 5c-3 -5 -9 -5 -13 -5h-15c-8 0 -12 6 -8 14l384 681c3 5 9 5 13 5h15c8 0 12 -6 8 -14z" />
    <glyph glyph-name="uni2215" unicode="&#x2215;" horiz-adv-x="144" 
d="M-92 5c-3 -5 -9 -5 -13 -5h-15c-8 0 -12 6 -8 14l384 681c3 5 9 5 13 5h15c8 0 12 -6 8 -14z" />
    <glyph glyph-name="onehalf" unicode="&#xbd;" horiz-adv-x="669" 
d="M75 14l384 681c3 5 9 5 13 5h15c8 0 12 -6 8 -14l-384 -681c-3 -5 -9 -5 -13 -5h-15c-8 0 -12 6 -8 14zM117 404c-5 0 -8 3 -8 8v241l-47 -28c-4 -2 -7 -1 -9 2l-6 10c-2 4 -2 7 3 11l73 52h12c5 0 10 -2 10 -8v-280c0 -5 -4 -8 -8 -8h-20zM387 8v9l139 130
c22 21 35 42 36 66c0 29 -24 60 -72 60c-37 0 -60 -25 -68 -33c-3 -4 -8 -3 -10 -1l-13 12c-2 2 -4 6 -1 10c0 0 33 45 94 45c69 0 106 -42 106 -90c0 -32 -18 -62 -46 -88l-106 -97h143c4 0 7 -2 7 -8v-15c0 -4 -2 -8 -7 -8h-193c-6 0 -9 4 -9 8z" />
    <glyph glyph-name="onethird" unicode="&#x2153;" horiz-adv-x="610" 
d="M56 14l384 681c3 5 9 5 13 5h15c8 0 12 -6 8 -14l-384 -681c-3 -5 -9 -5 -13 -5h-15c-8 0 -12 6 -8 14zM98 404c-5 0 -8 3 -8 8v241l-47 -28c-4 -2 -7 -1 -9 2l-6 10c-2 4 -2 7 3 11l73 52h12c5 0 10 -2 10 -8v-280c0 -5 -4 -8 -8 -8h-20zM366 31c-3 3 -4 7 0 11l11 11
c4 4 9 4 13 0c8 -7 29 -32 80 -32c45 0 77 24 77 57c0 30 -26 57 -81 57h-45c-6 0 -8 5 -8 10v12c0 5 3 8 8 8h45c41 0 73 18 73 55c0 33 -29 54 -68 54c-44 0 -66 -25 -71 -30c-3 -3 -7 -4 -10 -1l-13 11c-4 4 -4 8 -1 11c0 0 36 41 97 41c59 0 103 -31 103 -82
c0 -33 -27 -61 -52 -72c0 0 61 -19 61 -76c0 -49 -46 -86 -114 -86c-62 0 -96 30 -105 41z" />
    <glyph glyph-name="onequarter" unicode="&#xbc;" horiz-adv-x="635" 
d="M75 14l384 681c3 5 9 5 13 5h15c8 0 12 -6 8 -14l-384 -681c-3 -5 -9 -5 -13 -5h-15c-8 0 -12 6 -8 14zM117 404c-5 0 -8 3 -8 8v241l-47 -28c-4 -2 -7 -1 -9 2l-6 10c-2 4 -2 7 3 11l73 52h12c5 0 10 -2 10 -8v-280c0 -5 -4 -8 -8 -8h-20zM315 78v9l189 209h14
c5 0 10 -4 10 -9v-185h39c5 0 9 -4 9 -8v-16c0 -4 -4 -8 -9 -8h-39v-61c0 -5 -5 -9 -10 -9h-17c-5 0 -10 4 -10 9v60h-167c-5 0 -9 4 -9 9zM372 103h119v130z" />
    <glyph glyph-name="oneeighth" unicode="&#x215b;" horiz-adv-x="610" 
d="M56 14l384 681c3 5 9 5 13 5h15c8 0 12 -6 8 -14l-384 -681c-3 -5 -9 -5 -13 -5h-15c-8 0 -12 6 -8 14zM98 404c-5 0 -8 3 -8 8v241l-47 -28c-4 -2 -7 -1 -9 2l-6 10c-2 4 -2 7 3 11l73 52h12c5 0 10 -2 10 -8v-280c0 -5 -4 -8 -8 -8h-20zM361 76c0 52 45 72 54 75v2
c-25 11 -45 39 -45 71c0 51 44 82 103 82s103 -31 103 -82c0 -32 -22 -60 -46 -71v-2c8 -3 55 -23 55 -75c0 -49 -44 -86 -112 -86s-112 37 -112 86zM407 220c0 -34 25 -52 66 -55c41 3 66 21 66 55c0 33 -27 54 -66 54s-66 -21 -66 -54zM399 78c0 -33 29 -57 74 -57
s74 24 74 57c0 27 -19 54 -74 57c-55 -3 -74 -30 -74 -57z" />
    <glyph glyph-name="twothirds" unicode="&#x2154;" horiz-adv-x="610" 
d="M5 404c-6 0 -9 4 -9 8v9l139 130c22 21 35 42 36 66c0 29 -24 60 -72 60c-37 0 -60 -25 -68 -33c-3 -4 -8 -3 -10 -1l-13 12c-2 2 -4 6 -1 10c0 0 33 45 94 45c69 0 106 -42 106 -90c0 -32 -18 -62 -46 -88l-106 -97h143c4 0 7 -2 7 -8v-15c0 -4 -2 -8 -7 -8h-193zM85 14
l384 681c3 5 9 5 13 5h15c8 0 12 -6 8 -14l-384 -681c-3 -5 -9 -5 -13 -5h-15c-8 0 -12 6 -8 14zM395 31c-3 3 -4 7 0 11l11 11c4 4 9 4 13 0c8 -7 29 -32 80 -32c45 0 77 24 77 57c0 30 -26 57 -81 57h-45c-6 0 -8 5 -8 10v12c0 5 3 8 8 8h45c41 0 73 18 73 55
c0 33 -29 54 -68 54c-44 0 -66 -25 -71 -30c-3 -3 -7 -4 -10 -1l-13 11c-4 4 -4 8 -1 11c0 0 36 41 97 41c59 0 103 -31 103 -82c0 -33 -27 -61 -52 -72c0 0 61 -19 61 -76c0 -49 -46 -86 -114 -86c-62 0 -96 30 -105 41z" />
    <glyph glyph-name="threequarters" unicode="&#xbe;" horiz-adv-x="706" 
d="M154 394c-62 0 -96 30 -105 41c-3 3 -4 7 0 11l11 11c4 4 9 4 13 0c8 -7 29 -32 80 -32c45 0 77 24 77 57c0 30 -26 57 -81 57h-45c-6 0 -8 5 -8 10v12c0 5 3 8 8 8h45c41 0 73 18 73 55c0 33 -29 54 -68 54c-44 0 -66 -25 -71 -30c-3 -3 -7 -4 -10 -1l-13 11
c-4 4 -4 8 -1 11c0 0 36 41 97 41c59 0 103 -31 103 -82c0 -33 -27 -61 -52 -72c0 0 61 -19 61 -76c0 -49 -46 -86 -114 -86zM145 14l384 681c3 5 9 5 13 5h15c8 0 12 -6 8 -14l-384 -681c-3 -5 -9 -5 -13 -5h-15c-8 0 -12 6 -8 14zM385 78v9l189 209h14c5 0 10 -4 10 -9
v-185h39c5 0 9 -4 9 -8v-16c0 -4 -4 -8 -9 -8h-39v-61c0 -5 -5 -9 -10 -9h-17c-5 0 -10 4 -10 9v60h-167c-5 0 -9 4 -9 9zM442 103h119v130z" />
    <glyph glyph-name="threeeighths" unicode="&#x215c;" horiz-adv-x="610" 
d="M102 394c-62 0 -96 30 -105 41c-3 3 -4 7 0 11l11 11c4 4 9 4 13 0c8 -7 29 -32 80 -32c45 0 77 24 77 57c0 30 -26 57 -81 57h-45c-6 0 -8 5 -8 10v12c0 5 3 8 8 8h45c41 0 73 18 73 55c0 33 -29 54 -68 54c-44 0 -66 -25 -71 -30c-3 -3 -7 -4 -10 -1l-13 11
c-4 4 -4 8 -1 11c0 0 36 41 97 41c59 0 103 -31 103 -82c0 -33 -27 -61 -52 -72c0 0 61 -19 61 -76c0 -49 -46 -86 -114 -86zM93 14l384 681c3 5 9 5 13 5h15c8 0 12 -6 8 -14l-384 -681c-3 -5 -9 -5 -13 -5h-15c-8 0 -12 6 -8 14zM392 76c0 52 45 72 54 75v2
c-25 11 -45 39 -45 71c0 51 44 82 103 82s103 -31 103 -82c0 -32 -22 -60 -46 -71v-2c8 -3 55 -23 55 -75c0 -49 -44 -86 -112 -86s-112 37 -112 86zM438 220c0 -34 25 -52 66 -55c41 3 66 21 66 55c0 33 -27 54 -66 54s-66 -21 -66 -54zM430 78c0 -33 29 -57 74 -57
s74 24 74 57c0 27 -19 54 -74 57c-55 -3 -74 -30 -74 -57z" />
    <glyph glyph-name="fiveeighths" unicode="&#x215d;" horiz-adv-x="610" 
d="M92 14l384 681c3 5 9 5 13 5h15c8 0 12 -6 8 -14l-384 -681c-3 -5 -9 -5 -13 -5h-15c-8 0 -12 6 -8 14zM99 394c-54 0 -85 26 -98 38c-7 7 -6 9 -1 15l9 11c3 4 9 4 13 0c3 -3 31 -33 78 -33c48 0 81 35 81 71s-29 62 -73 62h-78c-11 0 -15 6 -15 15v118c0 5 4 9 9 9h148
c5 0 9 -4 9 -9v-17c0 -4 -4 -8 -9 -8h-124v-75h59c73 0 111 -34 111 -93c0 -57 -50 -104 -119 -104zM391 76c0 52 45 72 54 75v2c-25 11 -45 39 -45 71c0 51 44 82 103 82s103 -31 103 -82c0 -32 -22 -60 -46 -71v-2c8 -3 55 -23 55 -75c0 -49 -44 -86 -112 -86
s-112 37 -112 86zM437 220c0 -34 25 -52 66 -55c41 3 66 21 66 55c0 33 -27 54 -66 54s-66 -21 -66 -54zM429 78c0 -33 29 -57 74 -57s74 24 74 57c0 27 -19 54 -74 57c-55 -3 -74 -30 -74 -57z" />
    <glyph glyph-name="seveneighths" unicode="&#x215e;" horiz-adv-x="610" 
d="M68 14l384 681c3 5 9 5 13 5h15c8 0 12 -6 8 -14l-384 -681c-3 -5 -9 -5 -13 -5h-15c-8 0 -12 6 -8 14zM69 404c-6 0 -14 1 -14 14l134 248h-161c-5 0 -9 4 -9 9v16c0 5 4 9 9 9h197c5 0 9 -4 9 -9v-16l-139 -262c-4 -7 -7 -9 -13 -9h-13zM367 76c0 52 45 72 54 75v2
c-25 11 -45 39 -45 71c0 51 44 82 103 82s103 -31 103 -82c0 -32 -22 -60 -46 -71v-2c8 -3 55 -23 55 -75c0 -49 -44 -86 -112 -86s-112 37 -112 86zM413 220c0 -34 25 -52 66 -55c41 3 66 21 66 55c0 33 -27 54 -66 54s-66 -21 -66 -54zM405 78c0 -33 29 -57 74 -57
s74 24 74 57c0 27 -19 54 -74 57c-55 -3 -74 -30 -74 -57z" />
    <glyph glyph-name="perthousand" unicode="&#x2030;" horiz-adv-x="1002" 
d="M188 434c-77 0 -138 61 -138 138s61 138 138 138c76 0 138 -61 138 -138s-62 -138 -138 -138zM127 17l380 678c3 5 8 5 12 5h18c9 0 13 -10 8 -19l-381 -674c-2 -4 -8 -7 -12 -7h-18c-9 0 -12 9 -7 17zM188 471c54 0 100 45 100 101c0 55 -46 100 -100 100
c-56 0 -101 -45 -101 -100c0 -56 45 -101 101 -101zM679 127c0 77 62 139 139 139c75 0 138 -62 138 -139c0 -76 -63 -138 -138 -138c-77 0 -139 62 -139 138zM363 127c0 77 61 139 138 139c76 0 138 -62 138 -139c0 -76 -62 -138 -138 -138c-77 0 -138 62 -138 138z
M717 127c0 -56 44 -100 101 -100c54 0 99 44 99 100c0 55 -45 100 -99 100c-57 0 -101 -45 -101 -100zM400 127c0 -56 45 -100 101 -100c54 0 100 44 100 100c0 55 -46 100 -100 100c-56 0 -101 -45 -101 -100z" />
    <glyph glyph-name="minus" unicode="&#x2212;" horiz-adv-x="510" 
d="M63 327c-7 0 -13 6 -13 13v15c0 7 6 13 13 13h385c7 0 12 -6 12 -13v-15c0 -7 -5 -13 -12 -13h-385z" />
    <glyph glyph-name="plusminus" unicode="&#xb1;" horiz-adv-x="614" 
d="M286 256v126h-171c-7 0 -13 6 -13 13v15c0 7 6 13 13 13h171v168c0 7 6 12 13 12h16c7 0 13 -5 13 -12v-168h172c7 0 12 -6 12 -13v-15c0 -7 -5 -13 -12 -13h-172v-126c0 -7 -6 -13 -13 -13h-16c-7 0 -13 6 -13 13zM102 87v15c0 7 6 13 13 13h385c7 0 12 -6 12 -13v-15
c0 -7 -5 -13 -12 -13h-385c-7 0 -13 6 -13 13z" />
    <glyph glyph-name="multiply" unicode="&#xd7;" 
d="M103 197l-12 11c-5 5 -5 13 0 18l121 121l-121 121c-4 5 -4 14 0 19l11 11c5 5 14 5 19 0l121 -121l121 122c5 4 13 4 18 -1l12 -11c4 -5 5 -13 0 -18l-121 -122l121 -121c5 -5 5 -14 0 -18l-12 -11c-4 -5 -13 -6 -17 -1l-122 122l-122 -121c-4 -5 -13 -5 -17 0z" />
    <glyph glyph-name="divide" unicode="&#xf7;" horiz-adv-x="585" 
d="M289 463c-22 0 -41 19 -41 41s19 40 41 40c23 0 40 -18 40 -40s-17 -41 -40 -41zM100 327c-7 0 -13 6 -13 13v15c0 7 6 13 13 13h385c7 0 12 -6 12 -13v-15c0 -7 -5 -13 -12 -13h-385zM248 190c0 22 19 40 41 40c23 0 40 -18 40 -40s-17 -41 -40 -41c-22 0 -41 19 -41 41
z" />
    <glyph glyph-name="notequal" unicode="&#x2260;" horiz-adv-x="441" 
d="M118 70c-6 3 -9 10 -6 16l38 72h-87c-9 0 -13 5 -13 14v15c0 7 5 13 13 13h108l88 166h-196c-9 0 -13 6 -13 15v14c0 7 5 13 13 13h216l37 72c3 7 12 9 18 6l6 -3c4 -2 7 -10 4 -16l-30 -59h64c7 0 13 -6 13 -13v-16c0 -7 -6 -13 -13 -13h-85l-87 -166h172
c9 0 13 -7 13 -16v-13c0 -7 -6 -13 -13 -13h-194l-44 -85c-4 -7 -11 -9 -17 -6z" />
    <glyph glyph-name="approxequal" unicode="&#x2248;" horiz-adv-x="437" 
d="M55 333l-10 6c-10 7 -10 15 -5 24c0 0 39 82 110 82c40 0 69 -28 80 -38c13 -11 33 -32 55 -32c39 0 58 40 66 57c4 9 15 9 22 4l13 -8c7 -5 6 -13 2 -22c0 0 -32 -77 -103 -77c-63 0 -88 70 -136 70c-37 0 -62 -37 -70 -54c-4 -9 -13 -19 -24 -12zM71 165l-10 6
c-10 7 -10 15 -5 24c0 0 39 82 110 82c40 0 69 -28 80 -38c13 -11 33 -32 55 -32c39 0 58 40 66 57c4 9 15 9 22 4l13 -8c7 -5 6 -13 2 -22c0 0 -32 -77 -103 -77c-63 0 -88 70 -136 70c-37 0 -62 -37 -70 -54c-4 -9 -13 -19 -24 -12z" />
    <glyph glyph-name="lessequal" unicode="&#x2264;" horiz-adv-x="448" 
d="M30 382c-8 5 -10 10 -10 17v1c0 5 2 10 10 15l387 199c8 4 14 1 14 -10v-21c0 -4 -1 -11 -8 -15l-343 -169l343 -166c7 -4 8 -11 8 -15v-21c0 -11 -6 -14 -14 -10zM34 74c-7 0 -13 6 -13 13v15c0 7 6 13 13 13h385c7 0 12 -6 12 -13v-15c0 -7 -5 -13 -12 -13h-385z" />
    <glyph glyph-name="greaterequal" unicode="&#x2265;" horiz-adv-x="448" 
d="M34 187c-8 -4 -14 -1 -14 10v21c0 4 1 11 8 15l343 166l-343 169c-7 4 -8 11 -8 15v21c0 11 6 14 14 10l387 -199c8 -5 10 -10 10 -15v-1c0 -7 -2 -12 -10 -17zM32 74c-7 0 -12 6 -12 13v15c0 7 5 13 12 13h385c7 0 13 -6 13 -13v-15c0 -7 -6 -13 -13 -13h-385z" />
    <glyph glyph-name="logicalnot" unicode="&#xac;" horiz-adv-x="531" 
d="M61 327c-7 0 -13 6 -13 13v15c0 7 6 13 13 13h385c7 0 12 -6 12 -13v-200c0 -7 -6 -12 -13 -12h-16c-7 0 -13 5 -13 12v172h-355z" />
    <glyph glyph-name="Delta" unicode="&#x2206;" horiz-adv-x="677" 
d="M44 0c-26 0 -23 18 -14 37l296 671c2 4 7 7 12 7h3c5 0 10 -1 13 -7l295 -673c6 -13 12 -35 -18 -35h-587zM82 42h511l-252 593h-2z" />
    <glyph glyph-name="uni0394" unicode="&#x394;" horiz-adv-x="677" 
d="M44 0c-26 0 -23 18 -14 37l296 671c2 4 7 7 12 7h3c5 0 10 -1 13 -7l295 -673c6 -13 12 -35 -18 -35h-587zM82 42h511l-252 593h-2z" />
    <glyph glyph-name="Omega" unicode="&#x2126;" horiz-adv-x="780" 
d="M58 13v15c0 7 6 13 13 13h138c-105 61 -180 174 -180 308c0 200 160 361 360 361s360 -161 360 -361c0 -134 -75 -247 -180 -308h138c7 0 13 -6 13 -13v-15c0 -7 -6 -13 -13 -13h-237c-7 0 -12 6 -12 13v15c0 7 5 11 12 13c137 34 235 160 235 308
c0 175 -141 317 -316 317s-316 -142 -316 -317c0 -148 98 -274 235 -308c7 -2 12 -6 12 -13v-15c0 -7 -5 -13 -12 -13h-237c-7 0 -13 6 -13 13z" />
    <glyph glyph-name="uni03A9" unicode="&#x3a9;" horiz-adv-x="780" 
d="M58 13v15c0 7 6 13 13 13h138c-105 61 -180 174 -180 308c0 200 160 361 360 361s360 -161 360 -361c0 -134 -75 -247 -180 -308h138c7 0 13 -6 13 -13v-15c0 -7 -6 -13 -13 -13h-237c-7 0 -12 6 -12 13v15c0 7 5 11 12 13c137 34 235 160 235 308
c0 175 -141 317 -316 317s-316 -142 -316 -317c0 -148 98 -274 235 -308c7 -2 12 -6 12 -13v-15c0 -7 -5 -13 -12 -13h-237c-7 0 -13 6 -13 13z" />
    <glyph glyph-name="mu" unicode="&#xb5;" horiz-adv-x="505" 
d="M122 42v-329c0 -8 -7 -13 -14 -13h-17c-7 0 -13 6 -13 13v674c0 7 6 13 13 13h18c7 0 13 -6 13 -13v-215c0 -93 43 -140 119 -140c83 0 129 65 132 70v285c0 8 5 13 13 13h18c7 0 13 -6 13 -13v-374c0 -7 -6 -13 -13 -13h-12c-8 0 -11 6 -12 12l-4 39
c-11 -14 -59 -61 -138 -61c-52 0 -98 24 -116 52z" />
    <glyph glyph-name="uni03BC" unicode="&#x3bc;" horiz-adv-x="505" 
d="M122 42v-329c0 -8 -7 -13 -14 -13h-17c-7 0 -13 6 -13 13v674c0 7 6 13 13 13h18c7 0 13 -6 13 -13v-215c0 -93 43 -140 119 -140c83 0 129 65 132 70v285c0 8 5 13 13 13h18c7 0 13 -6 13 -13v-374c0 -7 -6 -13 -13 -13h-12c-8 0 -11 6 -12 12l-4 39
c-11 -14 -59 -61 -138 -61c-52 0 -98 24 -116 52z" />
    <glyph glyph-name="pi" unicode="&#x3c0;" horiz-adv-x="603" 
d="M146 13v348h-119c-9 0 -13 7 -13 13v13c0 7 6 13 13 13h556c8 0 13 -5 13 -12v-15c0 -7 -4 -12 -13 -12h-119v-348c0 -8 -7 -13 -14 -13h-16c-7 0 -13 6 -13 13v348h-232v-348c0 -8 -7 -13 -14 -13h-16c-7 0 -13 6 -13 13z" />
    <glyph glyph-name="degree" unicode="&#xb0;" horiz-adv-x="350" 
d="M175 435c-77 0 -138 61 -138 138s61 138 138 138c75 0 138 -61 138 -138s-63 -138 -138 -138zM175 470c54 0 102 47 102 103c0 55 -48 102 -102 102c-56 0 -103 -47 -103 -102c0 -56 47 -103 103 -103z" />
    <glyph glyph-name="afii61289" unicode="&#x2113;" horiz-adv-x="505" 
d="M113 145c0 29 4 54 8 81c-21 -7 -44 -12 -56 -14c-10 -1 -14 0 -17 8l-3 12c-4 12 3 18 12 19c24 4 52 9 73 16l19 99c44 218 101 344 199 344c66 0 105 -50 105 -128c0 -176 -141 -286 -290 -341c-6 -27 -11 -60 -11 -94c0 -59 19 -117 93 -117c98 0 156 42 163 46
c8 5 14 3 17 -2l7 -13c4 -7 5 -9 -3 -17c-5 -4 -73 -54 -184 -54c-103 0 -132 75 -132 155zM171 281c126 53 243 153 243 301c0 54 -24 88 -66 88c-77 0 -121 -116 -161 -310z" />
    <glyph glyph-name="estimated" unicode="&#x212e;" horiz-adv-x="823" 
d="M141 152c54 -80 160 -124 262 -124c78 0 156 32 220 88c5 5 13 7 20 0l8 -9c6 -7 3 -12 -3 -18c-70 -66 -156 -99 -245 -99c-203 0 -363 156 -363 359s160 361 363 361c202 0 362 -156 364 -359c0 -14 -7 -21 -17 -21h-609v-178zM141 366h526v178
c-58 81 -154 128 -264 128c-109 0 -204 -46 -262 -126v-180z" />
    <glyph glyph-name="eng" unicode="&#x14b;" horiz-adv-x="496" 
d="M76 13v374c0 7 6 13 14 13h10c7 0 11 -4 12 -10l4 -43c13 14 68 63 148 63c112 0 161 -71 161 -183v-364c0 -118 -58 -173 -146 -173c-52 0 -95 26 -112 43c-6 6 -5 10 -2 14l10 16c4 6 11 6 17 0c17 -13 49 -33 87 -33c63 0 102 40 102 133v364c0 92 -43 140 -119 140
c-82 0 -139 -64 -143 -69v-285c0 -8 -4 -13 -13 -13h-19c-7 0 -11 6 -11 13z" />
    <glyph glyph-name="Eng" unicode="&#x14a;" horiz-adv-x="771" 
d="M106 13v684c0 8 7 13 15 13h17l480 -628h1v605c0 7 6 13 13 13h20c7 0 13 -6 13 -13v-824c0 -118 -58 -173 -146 -173c-52 0 -95 26 -112 43c-6 6 -5 10 -2 14l10 16c4 6 11 6 17 0c17 -13 49 -33 87 -33c63 0 101 40 101 133v143c-28 34 -121 156 -468 615h-1v-608
c0 -7 -6 -13 -13 -13h-19c-7 0 -13 6 -13 13z" />
    <glyph glyph-name="infinity" unicode="&#x221e;" horiz-adv-x="616" 
d="M188 158c-77 0 -138 62 -138 138c0 77 61 139 138 139c51 0 95 -31 119 -73c24 42 69 73 121 73c75 0 138 -62 138 -139c0 -76 -63 -138 -138 -138c-52 0 -97 31 -121 72c-24 -41 -68 -72 -119 -72zM327 296c0 -56 44 -100 101 -100c54 0 99 44 99 100
c0 55 -45 100 -99 100c-57 0 -101 -45 -101 -100zM188 196c54 0 100 44 100 100c0 55 -46 100 -100 100c-56 0 -101 -45 -101 -100c0 -56 45 -100 101 -100z" />
    <glyph glyph-name="partialdiff" unicode="&#x2202;" horiz-adv-x="565" 
d="M54 220c0 134 103 219 217 219c102 0 171 -60 187 -81c-32 183 -227 285 -285 305c-11 4 -14 11 -11 19l7 15c2 6 8 9 15 7c88 -34 327 -157 327 -429c0 -159 -78 -285 -234 -285c-121 0 -223 103 -223 230zM98 218c0 -102 81 -188 179 -188c128 0 191 116 191 238
c0 11 -1 20 -2 30c-3 4 -71 100 -191 100c-95 0 -177 -74 -177 -180z" />
    <glyph glyph-name="integral" unicode="&#x222b;" horiz-adv-x="353" 
d="M121 -135v672c0 118 64 173 151 173c51 0 98 -24 112 -43c5 -6 5 -12 2 -16l-10 -14c-4 -6 -11 -7 -17 -1c-15 14 -50 34 -87 34c-63 0 -107 -41 -107 -133v-672c0 -118 -64 -173 -151 -173c-51 0 -98 24 -112 43c-5 6 -5 12 -2 16l10 14c4 6 11 7 17 1
c15 -14 50 -34 87 -34c63 0 107 41 107 133z" />
    <glyph glyph-name="radical" unicode="&#x221a;" horiz-adv-x="657" 
d="M197 -1l-168 388c-4 8 -1 13 8 13h27c6 0 10 -4 11 -7l136 -321h2l272 619c2 5 6 9 14 9h128c7 0 12 -6 12 -13v-15c0 -7 -5 -13 -12 -13h-107l-295 -660c-2 -5 -6 -9 -12 -9h-5c-6 0 -10 6 -11 9z" />
    <glyph glyph-name="summation" unicode="&#x2211;" horiz-adv-x="523" 
d="M48 13v9l328 336l-328 319v10c0 7 6 13 13 13h401c7 0 13 -6 13 -13v-17c0 -7 -6 -13 -13 -13h-330l281 -272c5 -5 13 -13 13 -20v-11c0 -7 -8 -15 -13 -20l-281 -292h330c7 0 13 -6 13 -13v-16c0 -7 -6 -13 -13 -13h-401c-7 0 -13 6 -13 13z" />
    <glyph glyph-name="product" unicode="&#x220f;" horiz-adv-x="642" 
d="M49 13v674c0 7 6 13 13 13h517c8 0 13 -6 13 -13v-674c0 -7 -5 -13 -13 -13h-21c-7 0 -13 6 -13 13v645h-449v-645c0 -7 -5 -13 -13 -13h-21c-7 0 -13 6 -13 13z" />
    <glyph glyph-name="lozenge" unicode="&#x25ca;" horiz-adv-x="677" 
d="M112 303c-22 30 -24 35 -24 54c0 20 4 25 24 54l214 297c2 4 7 7 12 7h3c5 0 10 -1 13 -7l212 -295c17 -26 24 -33 24 -56c0 -21 -6 -29 -24 -56l-212 -294c-3 -6 -8 -7 -13 -7h-3c-5 0 -10 3 -12 7zM339 55h2l212 302l-212 303h-2l-214 -303z" />
    <glyph glyph-name="uniF8FF" unicode="&#xf8ff;" horiz-adv-x="599" 
d="M50 30v640c0 21 9 30 30 30h439c21 0 30 -9 30 -30v-640c0 -21 -9 -30 -30 -30h-439c-21 0 -30 9 -30 30zM262 314c0 -7 7 -12 14 -12h36c9 0 15 4 15 13v26c0 48 105 63 105 150c0 65 -54 111 -125 111c-87 0 -130 -61 -130 -61c-4 -6 -6 -13 0 -18l22 -22
c6 -4 11 -4 17 0c13 12 36 41 84 41c40 0 61 -25 61 -52c0 -63 -99 -72 -99 -147v-29zM245 156c0 -26 22 -48 48 -48c27 0 49 22 49 48s-22 48 -49 48c-26 0 -48 -22 -48 -48z" />
    <glyph glyph-name="zero.tf" horiz-adv-x="604" 
d="M302 -10c-156 0 -245 132 -245 351s89 351 245 351s245 -132 245 -351s-89 -351 -245 -351zM302 31c128 0 200 113 200 310c0 195 -72 309 -200 309c-129 0 -201 -114 -201 -309c0 -197 72 -310 201 -310z" />
    <glyph glyph-name="one.tf" horiz-adv-x="604" 
d="M150 0c-7 0 -12 6 -12 13v11c0 8 5 13 12 13h158v577l-141 -115c-5 -4 -11 -4 -15 1l-12 14c-4 5 -3 11 2 15l182 152h15c8 0 15 -4 15 -12v-632h132c7 0 13 -5 13 -13v-11c0 -7 -6 -13 -13 -13h-336z" />
    <glyph glyph-name="two.tf" horiz-adv-x="604" 
d="M80 12v18l265 266c70 70 111 133 111 198c0 76 -53 154 -168 154c-91 0 -139 -67 -152 -81c-6 -7 -13 -8 -20 -3l-12 10c-5 5 -7 11 -2 18c0 0 62 99 186 99c141 0 215 -92 215 -196c0 -88 -54 -155 -126 -227l-228 -227h336c7 0 13 -6 13 -13v-15c0 -7 -6 -13 -13 -13
h-392c-8 0 -13 6 -13 12z" />
    <glyph glyph-name="three.tf" horiz-adv-x="604" 
d="M80 79c-5 6 -5 13 0 17l16 13c7 6 12 3 18 -3c23 -22 62 -76 170 -76c103 0 177 59 177 150c0 97 -92 146 -180 146h-93c-10 0 -13 3 -13 13v18c0 8 4 12 14 12h92c73 0 162 38 162 139c0 84 -67 141 -152 141c-95 0 -146 -61 -157 -74c-4 -5 -11 -7 -17 -2l-15 12
c-6 4 -6 12 -1 17c0 0 70 89 190 89c115 0 199 -72 199 -178c0 -78 -57 -140 -113 -161v-2c65 -20 131 -87 131 -167c0 -110 -87 -193 -226 -193c-123 0 -180 64 -202 89z" />
    <glyph glyph-name="four.tf" horiz-adv-x="604" 
d="M46 156c-10 0 -17 4 -17 15v17l409 504h18c7 0 11 -2 11 -11c0 -162 1 -324 1 -486h76c7 0 13 -5 13 -12v-13c0 -7 -6 -13 -13 -13h-76v-144c0 -7 -6 -13 -13 -13c-12 0 -32 -3 -32 13v143h-377zM85 196h340v416z" />
    <glyph glyph-name="five.tf" horiz-adv-x="604" 
d="M98 74c-8 10 -9 14 -1 22c5 4 9 9 14 13c6 5 12 5 17 -2c17 -21 67 -76 165 -76c112 0 188 90 188 189c0 100 -63 166 -188 166h-166c-12 0 -19 11 -19 21v261c0 7 5 13 13 13h314c7 0 13 -6 13 -13v-16c0 -7 -6 -13 -13 -13h-285v-211h143c153 0 234 -76 234 -208
c0 -126 -98 -230 -235 -230c-111 0 -169 54 -194 84z" />
    <glyph glyph-name="six.tf" horiz-adv-x="604" 
d="M78 275c0 272 239 395 327 429c7 2 13 -1 15 -7l7 -15c3 -8 0 -15 -11 -19c-58 -20 -253 -122 -285 -305c16 21 85 81 187 81c114 0 217 -85 217 -219c0 -127 -102 -230 -223 -230c-156 0 -234 126 -234 285zM121 268c0 -122 63 -238 191 -238c98 0 179 86 179 188
c0 106 -82 180 -177 180c-120 0 -188 -96 -191 -100c-1 -10 -2 -19 -2 -30z" />
    <glyph glyph-name="seven.tf" horiz-adv-x="604" 
d="M180 16l285 623h-369c-11 0 -13 6 -13 14v15c0 9 6 13 13 13h414c9 0 14 -6 14 -12v-5l-294 -648c-6 -13 -8 -16 -19 -16h-24c-10 0 -10 10 -7 16z" />
    <glyph glyph-name="eight.tf" horiz-adv-x="604" 
d="M78 179c0 87 71 150 150 169v2c-70 20 -132 78 -132 158c0 99 71 181 204 181c134 0 208 -82 208 -181c0 -80 -62 -138 -132 -158v-2c79 -19 150 -79 150 -169c0 -119 -92 -189 -226 -189c-131 0 -222 70 -222 189zM302 372c99 7 161 58 161 135s-58 144 -164 144
c-103 0 -158 -67 -158 -144s61 -128 161 -135zM124 175c0 -97 79 -147 176 -147c101 0 180 49 180 147c0 75 -68 139 -178 148c-111 -9 -178 -70 -178 -148z" />
    <glyph glyph-name="nine.tf" horiz-adv-x="604" 
d="M177 4c-3 8 -1 15 11 19c57 20 253 122 284 305c-16 -21 -84 -81 -186 -81c-114 0 -217 85 -217 219c0 127 102 230 223 230c155 0 234 -126 234 -285c0 -272 -239 -395 -328 -429c-6 -2 -12 1 -15 7zM289 288c121 0 188 96 191 100c1 10 2 19 2 30
c0 122 -62 238 -190 238c-99 0 -179 -86 -179 -188c0 -106 81 -180 176 -180z" />
    <glyph glyph-name="zerosuperior" unicode="&#x2070;" horiz-adv-x="345" 
d="M172 494c-77 0 -122 60 -122 157c0 99 45 159 122 159c78 0 123 -60 123 -159c0 -97 -45 -157 -123 -157zM172 527c55 0 87 46 87 124c0 79 -32 127 -87 127c-54 0 -86 -48 -86 -127c0 -78 32 -124 86 -124z" />
    <glyph glyph-name="foursuperior" unicode="&#x2074;" horiz-adv-x="342" 
d="M235 504c-5 0 -10 4 -10 9v60h-167c-5 0 -9 4 -9 9v9l189 209h14c5 0 10 -4 10 -9v-185h39c5 0 9 -4 9 -8v-16c0 -4 -4 -8 -9 -8h-39v-61c0 -5 -5 -9 -10 -9h-17zM106 607h119v130z" />
    <glyph glyph-name="fivesuperior" unicode="&#x2075;" horiz-adv-x="348" 
d="M154 494c-54 0 -85 26 -98 38c-7 7 -6 9 -1 15l9 11c3 4 9 4 13 0c3 -3 31 -33 78 -33c48 0 81 35 81 71s-29 62 -73 62h-78c-11 0 -15 6 -15 15v118c0 5 4 9 9 9h148c5 0 9 -4 9 -9v-17c0 -4 -4 -8 -9 -8h-124v-75h59c73 0 111 -34 111 -93c0 -57 -50 -104 -119 -104z
" />
    <glyph glyph-name="sixsuperior" unicode="&#x2076;" horiz-adv-x="324" 
d="M164 494c-76 0 -113 62 -113 134c0 121 122 175 160 187c5 2 10 -1 12 -6l5 -11c3 -6 3 -14 -6 -17c-49 -14 -110 -51 -133 -115c5 3 30 30 83 30c51 0 101 -33 101 -98c0 -57 -49 -104 -109 -104zM165 525c40 0 70 29 70 73c0 40 -32 68 -72 68c-38 0 -67 -27 -76 -43
c-1 -47 27 -98 78 -98z" />
    <glyph glyph-name="sevensuperior" unicode="&#x2077;" horiz-adv-x="324" 
d="M100 504c-6 0 -14 1 -14 14l134 248h-161c-5 0 -9 4 -9 9v16c0 5 4 9 9 9h197c5 0 9 -4 9 -9v-16l-139 -262c-4 -7 -7 -9 -13 -9h-13z" />
    <glyph glyph-name="eightsuperior" unicode="&#x2078;" horiz-adv-x="314" 
d="M160 494c-68 0 -112 37 -112 86c0 52 45 72 54 75v2c-25 11 -45 39 -45 71c0 51 44 82 103 82s103 -31 103 -82c0 -32 -22 -60 -46 -71v-2c8 -3 55 -23 55 -75c0 -49 -44 -86 -112 -86zM160 669c41 3 66 21 66 55c0 33 -27 54 -66 54s-66 -21 -66 -54
c0 -34 25 -52 66 -55zM160 525c45 0 74 24 74 57c0 27 -19 54 -74 57c-55 -3 -74 -30 -74 -57c0 -33 29 -57 74 -57z" />
    <glyph glyph-name="ninesuperior" unicode="&#x2079;" horiz-adv-x="325" 
d="M113 487c-5 -2 -10 1 -12 6l-5 11c-3 6 -3 14 6 17c49 14 110 51 133 115c-5 -3 -30 -30 -83 -30c-51 0 -101 33 -101 98c0 57 49 104 109 104c76 0 113 -62 113 -134c0 -121 -122 -175 -160 -187zM161 636c38 0 67 27 76 43c1 47 -27 98 -78 98c-40 0 -70 -29 -70 -73
c0 -40 32 -68 72 -68z" />
    <glyph glyph-name="zeroinferior" unicode="&#x2080;" horiz-adv-x="345" 
d="M50 7c0 99 45 159 122 159c78 0 123 -60 123 -159c0 -97 -45 -157 -123 -157c-77 0 -122 60 -122 157zM86 7c0 -78 32 -124 86 -124c55 0 87 46 87 124c0 79 -32 127 -87 127c-54 0 -86 -48 -86 -127z" />
    <glyph glyph-name="oneinferior" unicode="&#x2081;" horiz-adv-x="199" 
d="M58 83l-6 10c-2 4 -2 7 3 11l73 52h12c5 0 10 -2 10 -8v-280c0 -5 -4 -8 -8 -8h-20c-5 0 -8 3 -8 8v241l-47 -28c-4 -2 -7 -1 -9 2z" />
    <glyph glyph-name="twoinferior" unicode="&#x2082;" horiz-adv-x="311" 
d="M75 99l-13 12c-2 2 -4 6 -1 10c0 0 33 45 94 45c69 0 106 -42 106 -90c0 -32 -18 -62 -46 -88l-106 -97h143c4 0 7 -2 7 -8v-15c0 -4 -2 -8 -7 -8h-193c-6 0 -9 4 -9 8v9l139 130c22 21 35 42 36 66c0 29 -24 60 -72 60c-37 0 -60 -25 -68 -33c-3 -4 -8 -3 -10 -1z" />
    <glyph glyph-name="threeinferior" unicode="&#x2083;" horiz-adv-x="322" 
d="M100 5v12c0 5 3 8 8 8h45c41 0 73 18 73 55c0 33 -29 54 -68 54c-44 0 -66 -25 -71 -30c-3 -3 -7 -4 -10 -1l-13 11c-4 4 -4 8 -1 11c0 0 36 41 97 41c59 0 103 -31 103 -82c0 -33 -27 -61 -52 -72c0 0 61 -19 61 -76c0 -49 -46 -86 -114 -86c-62 0 -96 30 -105 41
c-3 3 -4 7 0 11l11 11c4 4 9 4 13 0c8 -7 29 -32 80 -32c45 0 77 24 77 57c0 30 -26 57 -81 57h-45c-6 0 -8 5 -8 10z" />
    <glyph glyph-name="fourinferior" unicode="&#x2084;" horiz-adv-x="342" 
d="M49 -53l189 209h14c5 0 10 -4 10 -9v-185h39c5 0 9 -4 9 -8v-16c0 -4 -4 -8 -9 -8h-39v-61c0 -5 -5 -9 -10 -9h-17c-5 0 -10 4 -10 9v60h-167c-5 0 -9 4 -9 9v9zM106 -37h119v130z" />
    <glyph glyph-name="fiveinferior" unicode="&#x2085;" horiz-adv-x="348" 
d="M70 29v118c0 5 4 9 9 9h148c5 0 9 -4 9 -9v-17c0 -4 -4 -8 -9 -8h-124v-75h59c73 0 111 -34 111 -93c0 -57 -50 -104 -119 -104c-54 0 -85 26 -98 38c-7 7 -6 9 -1 15l9 11c3 4 9 4 13 0c3 -3 31 -33 78 -33c48 0 81 35 81 71s-29 62 -73 62h-78c-11 0 -15 6 -15 15z" />
    <glyph glyph-name="sixinferior" unicode="&#x2086;" horiz-adv-x="324" 
d="M51 -16c0 121 122 175 160 187c5 2 10 -1 12 -6l5 -11c3 -6 3 -14 -6 -17c-49 -14 -110 -51 -133 -115c5 3 30 30 83 30c51 0 101 -33 101 -98c0 -57 -49 -104 -109 -104c-76 0 -113 62 -113 134zM87 -21c-1 -47 27 -98 78 -98c40 0 70 29 70 73c0 40 -32 68 -72 68
c-38 0 -67 -27 -76 -43z" />
    <glyph glyph-name="seveninferior" unicode="&#x2087;" horiz-adv-x="324" 
d="M59 122c-5 0 -9 4 -9 9v16c0 5 4 9 9 9h197c5 0 9 -4 9 -9v-16l-139 -262c-4 -7 -7 -9 -13 -9h-13c-6 0 -14 1 -14 14l134 248h-161z" />
    <glyph glyph-name="eightinferior" unicode="&#x2088;" horiz-adv-x="314" 
d="M48 -64c0 52 45 72 54 75v2c-25 11 -45 39 -45 71c0 51 44 82 103 82s103 -31 103 -82c0 -32 -22 -60 -46 -71v-2c8 -3 55 -23 55 -75c0 -49 -44 -86 -112 -86s-112 37 -112 86zM94 80c0 -34 25 -52 66 -55c41 3 66 21 66 55c0 33 -27 54 -66 54s-66 -21 -66 -54zM86 -62
c0 -33 29 -57 74 -57s74 24 74 57c0 27 -19 54 -74 57c-55 -3 -74 -30 -74 -57z" />
    <glyph glyph-name="nineinferior" unicode="&#x2089;" horiz-adv-x="325" 
d="M51 60c0 57 49 104 109 104c76 0 113 -62 113 -134c0 -121 -122 -175 -160 -187c-5 -2 -10 1 -12 6l-5 11c-3 6 -3 14 6 17c49 14 110 51 133 115c-5 -3 -30 -30 -83 -30c-51 0 -101 33 -101 98zM89 60c0 -40 32 -68 72 -68c38 0 67 27 76 43c1 47 -27 98 -78 98
c-40 0 -70 -29 -70 -73z" />
    <glyph glyph-name="zero.denom" horiz-adv-x="345" 
d="M50 147c0 99 45 159 122 159c78 0 123 -60 123 -159c0 -97 -45 -157 -123 -157c-77 0 -122 60 -122 157zM86 147c0 -78 32 -124 86 -124c55 0 87 46 87 124c0 79 -32 127 -87 127c-54 0 -86 -48 -86 -127z" />
    <glyph glyph-name="one.denom" horiz-adv-x="199" 
d="M114 8v241l-47 -28c-4 -2 -7 -1 -9 2l-6 10c-2 4 -2 7 3 11l73 52h12c5 0 10 -2 10 -8v-280c0 -5 -4 -8 -8 -8h-20c-5 0 -8 3 -8 8z" />
    <glyph glyph-name="two.denom" horiz-adv-x="311" 
d="M50 8v9l139 130c22 21 35 42 36 66c0 29 -24 60 -72 60c-37 0 -60 -25 -68 -33c-3 -4 -8 -3 -10 -1l-13 12c-2 2 -4 6 -1 10c0 0 33 45 94 45c69 0 106 -42 106 -90c0 -32 -18 -62 -46 -88l-106 -97h143c4 0 7 -2 7 -8v-15c0 -4 -2 -8 -7 -8h-193c-6 0 -9 4 -9 8z" />
    <glyph glyph-name="three.denom" horiz-adv-x="322" 
d="M53 31c-3 3 -4 7 0 11l11 11c4 4 9 4 13 0c8 -7 29 -32 80 -32c45 0 77 24 77 57c0 30 -26 57 -81 57h-45c-6 0 -8 5 -8 10v12c0 5 3 8 8 8h45c41 0 73 18 73 55c0 33 -29 54 -68 54c-44 0 -66 -25 -71 -30c-3 -3 -7 -4 -10 -1l-13 11c-4 4 -4 8 -1 11c0 0 36 41 97 41
c59 0 103 -31 103 -82c0 -33 -27 -61 -52 -72c0 0 61 -19 61 -76c0 -49 -46 -86 -114 -86c-62 0 -96 30 -105 41z" />
    <glyph glyph-name="four.denom" horiz-adv-x="342" 
d="M58 69c-5 0 -9 4 -9 9v9l189 209h14c5 0 10 -4 10 -9v-185h39c5 0 9 -4 9 -8v-16c0 -4 -4 -8 -9 -8h-39v-61c0 -5 -5 -9 -10 -9h-17c-5 0 -10 4 -10 9v60h-167zM106 103h119v130z" />
    <glyph glyph-name="five.denom" horiz-adv-x="348" 
d="M56 28c-7 7 -6 9 -1 15l9 11c3 4 9 4 13 0c3 -3 31 -33 78 -33c48 0 81 35 81 71s-29 62 -73 62h-78c-11 0 -15 6 -15 15v118c0 5 4 9 9 9h148c5 0 9 -4 9 -9v-17c0 -4 -4 -8 -9 -8h-124v-75h59c73 0 111 -34 111 -93c0 -57 -50 -104 -119 -104c-54 0 -85 26 -98 38z" />
    <glyph glyph-name="six.denom" horiz-adv-x="324" 
d="M51 124c0 121 122 175 160 187c5 2 10 -1 12 -6l5 -11c3 -6 3 -14 -6 -17c-49 -14 -110 -51 -133 -115c5 3 30 30 83 30c51 0 101 -33 101 -98c0 -57 -49 -104 -109 -104c-76 0 -113 62 -113 134zM87 119c-1 -47 27 -98 78 -98c40 0 70 29 70 73c0 40 -32 68 -72 68
c-38 0 -67 -27 -76 -43z" />
    <glyph glyph-name="seven.denom" horiz-adv-x="324" 
d="M86 14l134 248h-161c-5 0 -9 4 -9 9v16c0 5 4 9 9 9h197c5 0 9 -4 9 -9v-16l-139 -262c-4 -7 -7 -9 -13 -9h-13c-6 0 -14 1 -14 14z" />
    <glyph glyph-name="eight.denom" horiz-adv-x="314" 
d="M48 76c0 52 45 72 54 75v2c-25 11 -45 39 -45 71c0 51 44 82 103 82s103 -31 103 -82c0 -32 -22 -60 -46 -71v-2c8 -3 55 -23 55 -75c0 -49 -44 -86 -112 -86s-112 37 -112 86zM160 165c41 3 66 21 66 55c0 33 -27 54 -66 54s-66 -21 -66 -54c0 -34 25 -52 66 -55zM86 78
c0 -33 29 -57 74 -57s74 24 74 57c0 27 -19 54 -74 57c-55 -3 -74 -30 -74 -57z" />
    <glyph glyph-name="nine.denom" horiz-adv-x="325" 
d="M96 0c-3 6 -3 14 6 17c49 14 110 51 133 115c-5 -3 -30 -30 -83 -30c-51 0 -101 33 -101 98c0 57 49 104 109 104c76 0 113 -62 113 -134c0 -121 -122 -175 -160 -187c-5 -2 -10 1 -12 6zM161 132c38 0 67 27 76 43c1 47 -27 98 -78 98c-40 0 -70 -29 -70 -73
c0 -40 32 -68 72 -68z" />
    <glyph glyph-name="zero.num" horiz-adv-x="345" 
d="M172 394c-77 0 -122 60 -122 157c0 99 45 159 122 159c78 0 123 -60 123 -159c0 -97 -45 -157 -123 -157zM172 427c55 0 87 46 87 124c0 79 -32 127 -87 127c-54 0 -86 -48 -86 -127c0 -78 32 -124 86 -124z" />
    <glyph glyph-name="one.num" horiz-adv-x="199" 
d="M122 404c-5 0 -8 3 -8 8v241l-47 -28c-4 -2 -7 -1 -9 2l-6 10c-2 4 -2 7 3 11l73 52h12c5 0 10 -2 10 -8v-280c0 -5 -4 -8 -8 -8h-20z" />
    <glyph glyph-name="two.num" horiz-adv-x="311" 
d="M59 404c-6 0 -9 4 -9 8v9l139 130c22 21 35 42 36 66c0 29 -24 60 -72 60c-37 0 -60 -25 -68 -33c-3 -4 -8 -3 -10 -1l-13 12c-2 2 -4 6 -1 10c0 0 33 45 94 45c69 0 106 -42 106 -90c0 -32 -18 -62 -46 -88l-106 -97h143c4 0 7 -2 7 -8v-15c0 -4 -2 -8 -7 -8h-193z" />
    <glyph glyph-name="three.num" horiz-adv-x="322" 
d="M158 394c-62 0 -96 30 -105 41c-3 3 -4 7 0 11l11 11c4 4 9 4 13 0c8 -7 29 -32 80 -32c45 0 77 24 77 57c0 30 -26 57 -81 57h-45c-6 0 -8 5 -8 10v12c0 5 3 8 8 8h45c41 0 73 18 73 55c0 33 -29 54 -68 54c-44 0 -66 -25 -71 -30c-3 -3 -7 -4 -10 -1l-13 11
c-4 4 -4 8 -1 11c0 0 36 41 97 41c59 0 103 -31 103 -82c0 -33 -27 -61 -52 -72c0 0 61 -19 61 -76c0 -49 -46 -86 -114 -86z" />
    <glyph glyph-name="four.num" horiz-adv-x="342" 
d="M235 404c-5 0 -10 4 -10 9v60h-167c-5 0 -9 4 -9 9v9l189 209h14c5 0 10 -4 10 -9v-185h39c5 0 9 -4 9 -8v-16c0 -4 -4 -8 -9 -8h-39v-61c0 -5 -5 -9 -10 -9h-17zM106 507h119v130z" />
    <glyph glyph-name="five.num" horiz-adv-x="348" 
d="M154 394c-54 0 -85 26 -98 38c-7 7 -6 9 -1 15l9 11c3 4 9 4 13 0c3 -3 31 -33 78 -33c48 0 81 35 81 71s-29 62 -73 62h-78c-11 0 -15 6 -15 15v118c0 5 4 9 9 9h148c5 0 9 -4 9 -9v-17c0 -4 -4 -8 -9 -8h-124v-75h59c73 0 111 -34 111 -93c0 -57 -50 -104 -119 -104z
" />
    <glyph glyph-name="six.num" horiz-adv-x="324" 
d="M164 394c-76 0 -113 62 -113 134c0 121 122 175 160 187c5 2 10 -1 12 -6l5 -11c3 -6 3 -14 -6 -17c-49 -14 -110 -51 -133 -115c5 3 30 30 83 30c51 0 101 -33 101 -98c0 -57 -49 -104 -109 -104zM165 425c40 0 70 29 70 73c0 40 -32 68 -72 68c-38 0 -67 -27 -76 -43
c-1 -47 27 -98 78 -98z" />
    <glyph glyph-name="seven.num" horiz-adv-x="324" 
d="M100 404c-6 0 -14 1 -14 14l134 248h-161c-5 0 -9 4 -9 9v16c0 5 4 9 9 9h197c5 0 9 -4 9 -9v-16l-139 -262c-4 -7 -7 -9 -13 -9h-13z" />
    <glyph glyph-name="eight.num" horiz-adv-x="314" 
d="M160 394c-68 0 -112 37 -112 86c0 52 45 72 54 75v2c-25 11 -45 39 -45 71c0 51 44 82 103 82s103 -31 103 -82c0 -32 -22 -60 -46 -71v-2c8 -3 55 -23 55 -75c0 -49 -44 -86 -112 -86zM160 569c41 3 66 21 66 55c0 33 -27 54 -66 54s-66 -21 -66 -54
c0 -34 25 -52 66 -55zM160 425c45 0 74 24 74 57c0 27 -19 54 -74 57c-55 -3 -74 -30 -74 -57c0 -33 29 -57 74 -57z" />
    <glyph glyph-name="nine.num" horiz-adv-x="325" 
d="M113 387c-5 -2 -10 1 -12 6l-5 11c-3 6 -3 14 6 17c49 14 110 51 133 115c-5 -3 -30 -30 -83 -30c-51 0 -101 33 -101 98c0 57 49 104 109 104c76 0 113 -62 113 -134c0 -121 -122 -175 -160 -187zM161 536c38 0 67 27 76 43c1 47 -27 98 -78 98c-40 0 -70 -29 -70 -73
c0 -40 32 -68 72 -68z" />
    <glyph glyph-name="a.alt" 
d="M410 387v-374c0 -7 -6 -13 -13 -13h-10c-8 0 -13 4 -14 13l-3 35c-12 -13 -61 -58 -138 -58c-104 0 -185 93 -185 210s81 210 192 210c73 0 119 -38 131 -48l4 27c1 8 6 11 13 11h11c6 0 12 -6 12 -13zM367 101v212c-3 4 -46 56 -124 56c-92 0 -152 -76 -152 -169
s60 -170 144 -170c87 0 130 67 132 71z" />
    <glyph glyph-name="agrave.alt" 
d="M410 387v-374c0 -7 -6 -13 -13 -13h-10c-8 0 -13 4 -14 13l-3 35c-12 -13 -61 -58 -138 -58c-104 0 -185 93 -185 210s81 210 192 210c73 0 119 -38 131 -48l4 27c1 8 6 11 13 11h11c6 0 12 -6 12 -13zM367 101v212c-3 4 -46 56 -124 56c-92 0 -152 -76 -152 -169
s60 -170 144 -170c87 0 130 67 132 71zM334 559l-172 79c-6 3 -7 9 -4 15l10 20c4 7 13 5 17 3l164 -90c7 -4 8 -9 6 -14l-5 -10c-3 -6 -7 -7 -16 -3z" />
    <glyph glyph-name="aacute.alt" 
d="M410 387v-374c0 -7 -6 -13 -13 -13h-10c-8 0 -13 4 -14 13l-3 35c-12 -13 -61 -58 -138 -58c-104 0 -185 93 -185 210s81 210 192 210c73 0 119 -38 131 -48l4 27c1 8 6 11 13 11h11c6 0 12 -6 12 -13zM367 101v212c-3 4 -46 56 -124 56c-92 0 -152 -76 -152 -169
s60 -170 144 -170c87 0 130 67 132 71zM166 558c-9 -4 -11 -2 -14 4l-6 13c-3 7 -1 10 6 14l165 87c5 3 13 4 17 -3l10 -20c4 -8 -1 -14 -9 -18z" />
    <glyph glyph-name="acircumflex.alt" 
d="M410 387v-374c0 -7 -6 -13 -13 -13h-10c-8 0 -13 4 -14 13l-3 35c-12 -13 -61 -58 -138 -58c-104 0 -185 93 -185 210s81 210 192 210c73 0 119 -38 131 -48l4 27c1 8 6 11 13 11h11c6 0 12 -6 12 -13zM367 101v212c-3 4 -46 56 -124 56c-92 0 -152 -76 -152 -169
s60 -170 144 -170c87 0 130 67 132 71zM132 550c-8 -6 -12 -2 -15 2l-9 11c-4 5 -1 10 4 14l121 98c3 3 7 5 10 5h3c3 0 7 -2 10 -5l121 -98c5 -4 8 -9 4 -14l-9 -11c-3 -4 -7 -8 -15 -2l-113 84z" />
    <glyph glyph-name="atilde.alt" 
d="M410 387v-374c0 -7 -6 -13 -13 -13h-10c-8 0 -13 4 -14 13l-3 35c-12 -13 -61 -58 -138 -58c-104 0 -185 93 -185 210s81 210 192 210c73 0 119 -38 131 -48l4 27c1 8 6 11 13 11h11c6 0 12 -6 12 -13zM367 101v212c-3 4 -46 56 -124 56c-92 0 -152 -76 -152 -169
s60 -170 144 -170c87 0 130 67 132 71zM108 579l-12 5c-6 2 -8 8 -6 14c7 18 29 86 93 86c72 0 65 -91 113 -91c37 0 51 41 57 59c2 7 9 10 15 7l11 -4c4 -2 8 -5 6 -13s-23 -86 -92 -86c-70 0 -66 92 -113 92c-38 0 -51 -43 -57 -62c-2 -7 -8 -10 -15 -7z" />
    <glyph glyph-name="adieresis.alt" 
d="M410 387v-374c0 -7 -6 -13 -13 -13h-10c-8 0 -13 4 -14 13l-3 35c-12 -13 -61 -58 -138 -58c-104 0 -185 93 -185 210s81 210 192 210c73 0 119 -38 131 -48l4 27c1 8 6 11 13 11h11c6 0 12 -6 12 -13zM367 101v212c-3 4 -46 56 -124 56c-92 0 -152 -76 -152 -169
s60 -170 144 -170c87 0 130 67 132 71zM334 596c-19 0 -33 15 -33 33c0 20 14 35 33 35c20 0 35 -15 35 -35c0 -18 -15 -33 -35 -33zM143 596c-19 0 -34 15 -34 33c0 20 15 35 34 35c20 0 34 -15 34 -35c0 -18 -14 -33 -34 -33z" />
    <glyph glyph-name="amacron.alt" 
d="M410 387v-374c0 -7 -6 -13 -13 -13h-10c-8 0 -13 4 -14 13l-3 35c-12 -13 -61 -58 -138 -58c-104 0 -185 93 -185 210s81 210 192 210c73 0 119 -38 131 -48l4 27c1 8 6 11 13 11h11c6 0 12 -6 12 -13zM367 101v212c-3 4 -46 56 -124 56c-92 0 -152 -76 -152 -169
s60 -170 144 -170c87 0 130 67 132 71zM104 595c-8 0 -13 5 -13 12v13c0 7 5 13 13 13h272c7 0 13 -6 13 -13v-13c0 -7 -6 -12 -13 -12h-272z" />
    <glyph glyph-name="abreve.alt" 
d="M410 387v-374c0 -7 -6 -13 -13 -13h-10c-8 0 -13 4 -14 13l-3 35c-12 -13 -61 -58 -138 -58c-104 0 -185 93 -185 210s81 210 192 210c73 0 119 -38 131 -48l4 27c1 8 6 11 13 11h11c6 0 12 -6 12 -13zM367 101v212c-3 4 -46 56 -124 56c-92 0 -152 -76 -152 -169
s60 -170 144 -170c87 0 130 67 132 71zM246 538c-69 0 -120 49 -131 110c-1 8 2 14 10 14h13c7 0 10 -5 12 -11c11 -45 47 -79 96 -79c46 0 85 34 95 79c2 7 6 11 12 11h14c7 0 11 -6 10 -14c-10 -62 -64 -110 -131 -110z" />
    <glyph glyph-name="aring.alt" 
d="M410 387v-374c0 -7 -6 -13 -13 -13h-10c-8 0 -13 4 -14 13l-3 35c-12 -13 -61 -58 -138 -58c-104 0 -185 93 -185 210s81 210 192 210c73 0 119 -38 131 -48l4 27c1 8 6 11 13 11h11c6 0 12 -6 12 -13zM367 101v212c-3 4 -46 56 -124 56c-92 0 -152 -76 -152 -169
s60 -170 144 -170c87 0 130 67 132 71zM246 497c-60 0 -107 46 -107 106s47 107 107 107c59 0 106 -47 106 -107s-47 -106 -106 -106zM246 529c39 0 73 34 73 74s-34 74 -73 74c-40 0 -75 -34 -75 -74s35 -74 75 -74z" />
    <glyph glyph-name="aringacute.alt" 
d="M410 387v-374c0 -7 -6 -13 -13 -13h-10c-8 0 -13 4 -14 13l-3 35c-12 -13 -61 -58 -138 -58c-104 0 -185 93 -185 210s81 210 192 210c73 0 119 -38 131 -48l4 27c1 8 6 11 13 11h11c6 0 12 -6 12 -13zM367 101v212c-3 4 -46 56 -124 56c-92 0 -152 -76 -152 -169
s60 -170 144 -170c87 0 130 67 132 71zM243 429c-60 0 -107 46 -107 106s47 107 107 107c59 0 106 -47 106 -107s-47 -106 -106 -106zM243 461c39 0 73 34 73 74s-34 74 -73 74c-40 0 -75 -34 -75 -74s35 -74 75 -74zM164 642c-9 -4 -11 -2 -14 4l-6 13c-3 7 -1 10 6 14
l165 87c5 3 13 4 17 -3l10 -20c4 -8 -1 -14 -9 -18z" />
    <glyph glyph-name="aogonek.alt" 
d="M287 -118c0 80 74 124 86 129l-3 37c-12 -13 -61 -58 -138 -58c-104 0 -185 93 -185 210s81 210 192 210c73 0 119 -38 131 -48l4 27c1 8 6 11 13 11h11c6 0 12 -6 12 -13v-374c0 -7 -6 -13 -13 -13h-5c-21 -15 -66 -53 -66 -113c0 -45 36 -67 74 -67c30 0 51 10 62 15
c6 3 12 1 13 -8l1 -10c1 -8 -2 -12 -8 -16c-12 -7 -41 -17 -73 -17c-56 0 -108 28 -108 98zM367 101v212c-3 4 -46 56 -124 56c-92 0 -152 -76 -152 -169s60 -170 144 -170c87 0 130 67 132 71z" />
    <glyph glyph-name="parenleft.case" horiz-adv-x="344" 
d="M307 -13c5 0 9 -5 8 -12l-1 -15c0 -6 -5 -9 -12 -8c-115 5 -239 99 -239 393s124 388 239 394c7 0 12 -3 12 -9l1 -15c1 -7 -3 -12 -8 -12c-117 -16 -200 -119 -200 -358s83 -342 200 -358z" />
    <glyph glyph-name="parenright.case" horiz-adv-x="344" 
d="M38 -13c117 16 199 119 199 358s-82 342 -199 358c-6 0 -10 5 -9 12l1 15c1 6 5 9 13 9c115 -6 238 -100 238 -394s-123 -388 -238 -393c-8 -1 -12 2 -13 8l-1 15c-1 7 3 12 9 12z" />
    <glyph glyph-name="hyphen.case" horiz-adv-x="478" 
d="M126 321c-7 0 -12 6 -12 13v11c0 8 5 13 12 13h226c7 0 13 -5 13 -13v-11c0 -7 -6 -13 -13 -13h-226z" />
    <glyph glyph-name="bracketleft.case" horiz-adv-x="330" 
d="M126 -140h165c7 0 13 -6 13 -13v-15c0 -7 -6 -13 -13 -13h-195c-7 0 -13 6 -13 13v975c0 7 6 13 13 13h195c7 0 13 -6 13 -13v-15c0 -7 -6 -13 -13 -13h-165v-919z" />
    <glyph glyph-name="bracketright.case" horiz-adv-x="329" 
d="M39 -140h164v919h-164c-7 0 -13 6 -13 13v15c0 7 6 13 13 13h194c7 0 13 -6 13 -13v-975c0 -7 -6 -13 -13 -13h-194c-7 0 -13 6 -13 13v15c0 7 6 13 13 13z" />
    <glyph glyph-name="braceleft.case" horiz-adv-x="365" 
d="M108 52v164c0 64 -52 82 -73 89c-6 2 -9 3 -9 9v16c0 6 3 7 9 9c21 7 73 25 73 89v160c0 184 113 242 217 242c7 0 14 -5 14 -12v-12c0 -7 -4 -11 -10 -12c-107 -8 -178 -70 -178 -207v-159c0 -70 -60 -102 -68 -106v-1c5 -2 68 -33 68 -105v-163
c0 -137 71 -199 178 -207c6 -1 10 -5 10 -12v-12c0 -7 -7 -12 -14 -12c-104 0 -217 58 -217 242z" />
    <glyph glyph-name="bar.case" horiz-adv-x="195" 
d="M82 -168v1034c0 8 6 13 13 13h6c7 0 12 -5 12 -13v-1034c0 -7 -6 -12 -13 -12h-5c-7 0 -13 5 -13 12z" />
    <glyph glyph-name="braceright.case" horiz-adv-x="365" 
d="M214 53v163c0 70 60 101 68 105v1c-6 3 -68 34 -68 106v159c0 137 -71 199 -178 207c-6 1 -10 5 -10 12v12c0 7 7 12 14 12c104 0 217 -58 217 -242v-160c0 -64 52 -82 73 -89c6 -2 9 -3 9 -9v-16c0 -6 -3 -7 -9 -9c-21 -7 -73 -25 -73 -89v-164
c0 -184 -113 -242 -217 -242c-7 0 -14 5 -14 12v12c0 7 4 11 10 12c107 8 178 70 178 207z" />
    <glyph glyph-name="guilsinglleft.case" horiz-adv-x="245" 
d="M154 162l-108 157c-4 5 -3 12 0 17l108 154c7 10 12 9 16 9h16c8 0 11 -8 5 -18l-94 -153l94 -157c6 -10 3 -18 -5 -18h-16c-4 0 -9 -1 -16 9z" />
    <glyph glyph-name="guilsinglright.case" horiz-adv-x="245" 
d="M59 153c-8 0 -11 8 -5 18l94 157l-94 153c-6 10 -3 18 5 18h16c4 0 9 1 16 -9l108 -154c3 -5 4 -12 0 -17l-108 -157c-7 -10 -12 -9 -16 -9h-16z" />
    <glyph glyph-name="guillemotleft.case" horiz-adv-x="405" 
d="M206 319c-4 5 -3 12 0 17l108 154c7 10 12 9 16 9h16c8 0 11 -8 5 -18l-94 -153l94 -157c6 -10 3 -18 -5 -18h-16c-4 0 -9 -1 -16 9zM154 162l-108 157c-4 5 -3 12 0 17l108 154c7 10 12 9 16 9h16c8 0 11 -8 5 -18l-94 -153l94 -157c6 -10 3 -18 -5 -18h-16
c-4 0 -9 -1 -16 9z" />
    <glyph glyph-name="guillemotright.case" horiz-adv-x="405" 
d="M214 171l94 157l-94 153c-6 10 -3 18 5 18h16c4 0 9 1 16 -9l108 -154c3 -5 4 -12 0 -17l-108 -157c-7 -10 -12 -9 -16 -9h-16c-8 0 -11 8 -5 18zM59 153c-8 0 -11 8 -5 18l94 157l-94 153c-6 10 -3 18 5 18h16c4 0 9 1 16 -9l108 -154c3 -5 4 -12 0 -17l-108 -157
c-7 -10 -12 -9 -16 -9h-16z" />
    <glyph glyph-name="endash.case" horiz-adv-x="644" 
d="M130 323c-7 0 -13 5 -13 12v8c0 7 6 13 13 13h384c8 0 13 -6 13 -13v-8c0 -7 -5 -12 -13 -12h-384z" />
    <glyph glyph-name="emdash.case" horiz-adv-x="862" 
d="M130 323c-7 0 -13 5 -13 12v8c0 7 6 13 13 13h602c8 0 13 -6 13 -13v-8c0 -7 -5 -12 -13 -12h-602z" />
    <glyph glyph-name="bullet.case" horiz-adv-x="354" 
d="M175 244c-39 0 -71 32 -71 71c0 41 32 74 71 74c41 0 74 -33 74 -74c0 -39 -33 -71 -74 -71z" />
    <glyph glyph-name="periodcentered.case" horiz-adv-x="233" 
d="M117 311c-22 0 -41 18 -41 40c0 23 19 40 41 40c23 0 40 -17 40 -40c0 -22 -17 -40 -40 -40z" />
    <glyph glyph-name="brokenbar" unicode="&#xa6;" horiz-adv-x="359" 
d="M177 388c-7 0 -13 6 -13 13v345c0 8 6 13 13 13h6c7 0 12 -5 12 -13v-345c0 -7 -6 -13 -13 -13h-5zM164 58c0 7 6 13 13 13h6c7 0 12 -6 12 -13v-346c0 -7 -6 -12 -13 -12h-5c-7 0 -13 5 -13 12v346z" />
    </font>
</defs>
</svg>
