<?xml version="1.0" standalone="no"?>
<!DOCTYPE svg PUBLIC "-//W3C//DTD SVG 1.1//EN" "http://www.w3.org/Graphics/SVG/1.1/DTD/svg11.dtd" >
<svg xmlns="http://www.w3.org/2000/svg" width="100%" height="100%">
<metadata>
Created by FontXChange 20110222 at Fri Dec  5 12:07:18 2014
 By Timothy Brister
Copyright (c) 2009 by Hannes von Dhren. All rights reserved.
</metadata>
<defs>
<font id="BrandonGrotesque-RegularItalic" horiz-adv-x="439" >
  <font-face 
    font-family="BrandonGrotesque"
    font-weight="390"
    font-style="italic"
    font-stretch="normal"
    units-per-em="1000"
    panose-1="2 11 5 3 2 2 3 13 2 2"
    ascent="700"
    descent="-300"
    x-height="400"
    cap-height="700"
    bbox="-184.634 -373.631 935 1028.95"
    underline-thickness="50"
    underline-position="-50"
    slope="-8"
    stemh="67"
    stemv="77"
    unicode-range="U+0020-FB02"
  />
<missing-glyph horiz-adv-x="599" 
d="M50 30v640c0 21 9 30 30 30h439c21 0 30 -9 30 -30v-640c0 -21 -9 -30 -30 -30h-439c-21 0 -30 9 -30 30zM262 314c0 -7 7 -12 14 -12h36c9 0 15 4 15 13v26c0 48 105 63 105 150c0 65 -54 111 -125 111c-87 0 -130 -61 -130 -61c-4 -6 -6 -13 0 -18l22 -22
c6 -4 11 -4 17 0c13 12 36 41 84 41c40 0 61 -25 61 -52c0 -63 -99 -72 -99 -147v-29zM245 156c0 -26 22 -48 48 -48c27 0 49 22 49 48s-22 48 -49 48c-26 0 -48 -22 -48 -48z" />
    <glyph glyph-name="fi" unicode="fi" horiz-adv-x="489" 
d="M18 -281l86 621h-52c-10 0 -16 9 -14 19l3 22c1 11 10 19 20 19h51l15 105c18 125 72 205 169 205c72 0 122 -34 137 -47c6 -5 6 -16 1 -23l-18 -25c-7 -10 -15 -7 -25 -1c-10 7 -52 34 -94 34c-62 0 -89 -62 -101 -143l-15 -105h239c9 0 16 -9 15 -19l-51 -362
c-2 -10 -11 -19 -20 -19h-35c-9 0 -15 9 -14 19l45 321h-187l-86 -621c-2 -10 -11 -19 -20 -19h-35c-9 0 -16 9 -14 19z" />
    <glyph glyph-name="fl" unicode="fl" horiz-adv-x="492" 
d="M18 -281l86 621h-52c-10 0 -16 9 -14 19l3 22c1 11 10 19 19 19h52l19 129c18 127 95 181 180 181c70 0 105 -51 105 -51l13 32c3 7 7 9 16 9h20c9 0 15 -9 14 -19l-93 -662c-1 -10 -11 -19 -20 -19h-35c-9 0 -15 9 -14 19l80 568c-1 2 -38 59 -91 59
c-41 0 -94 -29 -107 -117l-18 -129h101c9 0 15 -8 14 -19l-3 -22c-2 -10 -10 -19 -20 -19h-100l-86 -621c-2 -10 -11 -19 -20 -19h-35c-9 0 -16 9 -14 19z" />
    <glyph glyph-name="f_f" unicode="ff" horiz-adv-x="550" 
d="M17 -281l87 621h-51c-10 0 -16 9 -15 19l3 22c2 11 10 19 20 19h51l16 113c19 133 99 187 195 187c61 0 96 -26 112 -39c31 33 70 49 114 49c49 0 80 -24 94 -41c5 -6 5 -16 0 -23l-19 -23c-7 -10 -16 -9 -24 -1c-10 10 -38 26 -60 26c-41 0 -77 -31 -88 -108l-19 -140
h102c10 0 16 -8 14 -19l-3 -22c-1 -10 -10 -19 -20 -19h-102l-87 -621c-1 -10 -11 -19 -20 -19h-36c-9 0 -16 9 -14 19l87 621h-180l-87 -621c-1 -10 -11 -19 -20 -19h-36c-9 0 -16 9 -14 19zM182 400h180l20 140c3 23 9 46 16 64c-11 15 -45 34 -84 34
c-49 0 -102 -31 -116 -125z" />
    <glyph glyph-name="f_f_i" unicode="ffi" horiz-adv-x="741" 
d="M16 -281l88 621h-51c-10 0 -16 9 -15 19l3 22c2 11 10 19 20 19h51l16 113c19 131 97 187 195 187c64 0 98 -26 112 -39c31 33 74 49 120 49c61 0 114 -34 129 -47c6 -5 6 -16 1 -23l-20 -25c-7 -10 -15 -7 -24 -1c-9 7 -51 34 -93 34s-85 -33 -96 -109l-19 -139h239
c9 0 15 -9 14 -19l-51 -362c-1 -10 -11 -19 -20 -19h-35c-9 0 -16 9 -14 19l45 321h-187l-88 -621c-1 -10 -11 -19 -20 -19h-36c-9 0 -16 9 -14 19l88 621h-180l-88 -621c-1 -10 -11 -19 -20 -19h-36c-9 0 -16 9 -14 19zM183 400h179l20 140c3 23 9 46 15 64
c-10 15 -44 34 -83 34c-49 0 -102 -31 -116 -125z" />
    <glyph glyph-name="f_f_l" unicode="ffl" horiz-adv-x="745" 
d="M17 -281l87 621h-51c-10 0 -16 9 -15 19l3 22c2 11 10 19 20 19h51l16 113c19 133 103 187 195 187c61 0 96 -26 112 -39c31 33 74 49 124 49c73 0 110 -51 110 -51l11 25c3 7 8 16 20 16h17c9 0 16 -9 15 -19l-93 -662c-2 -10 -11 -19 -20 -19h-35c-9 0 -16 9 -15 19
l79 561c-1 0 -30 63 -95 63c-41 0 -90 -26 -101 -103l-19 -140h99c10 0 16 -8 15 -19l-3 -22c-2 -10 -10 -19 -20 -19h-100l-87 -621c-1 -10 -11 -19 -20 -19h-36c-9 0 -16 9 -14 19l87 621h-180l-87 -621c-1 -10 -11 -19 -20 -19h-36c-9 0 -16 9 -14 19zM182 400h180
l20 140c3 23 9 46 16 64c-11 15 -45 34 -84 34c-49 0 -102 -31 -116 -125z" />
    <glyph glyph-name="f_f_h" unicode="ffh" horiz-adv-x="999" 
d="M17 -281l87 621h-51c-10 0 -16 9 -15 19l3 22c2 11 10 19 20 19h51l14 97c20 145 97 203 197 203c61 0 96 -26 112 -39c31 33 74 49 124 49c73 0 110 -51 110 -51l11 25c3 7 8 16 20 16h17c9 0 15 -8 15 -17c0 -110 -30 -218 -45 -326c2 0 56 53 124 53
c113 0 129 -94 112 -215l-24 -176c-2 -10 -11 -19 -20 -19h-36c-9 0 -16 9 -15 19l30 211c11 76 -14 113 -63 113c-64 0 -117 -57 -118 -56l-38 -268c-1 -10 -10 -19 -20 -19h-35c-9 0 -16 9 -15 19l79 561c-1 0 -30 63 -95 63c-45 0 -90 -28 -102 -113l-18 -130h99
c10 0 16 -8 15 -19l-3 -22c-2 -10 -10 -19 -20 -19h-100l-87 -621c-1 -10 -11 -19 -20 -19h-36c-9 0 -16 9 -14 19l87 621h-180l-87 -621c-1 -10 -11 -19 -20 -19h-36c-9 0 -16 9 -14 19zM182 400h180l20 140c3 23 9 45 16 63c-11 15 -45 35 -84 35
c-49 0 -102 -31 -116 -125z" />
    <glyph glyph-name="f_k" unicode="fk" horiz-adv-x="705" 
d="M18 -281l86 621h-51c-10 0 -16 9 -15 19l3 22c2 11 10 19 20 19h52l19 140c17 116 89 170 175 170c75 0 112 -51 112 -51l11 25c3 7 8 16 20 16h17c9 0 16 -9 15 -19l-61 -433l171 140c7 6 15 12 23 12h56c15 0 13 -19 5 -25l-194 -158l167 -192c6 -7 2 -25 -13 -25h-46
c-8 0 -14 5 -17 8l-159 192l-25 -181c-2 -10 -11 -19 -20 -19h-36c-9 0 -15 9 -14 19l79 561c-1 0 -30 63 -95 63c-41 0 -90 -26 -101 -103l-20 -140h100c10 0 16 -8 15 -19l-3 -22c-2 -10 -10 -19 -20 -19h-101l-86 -621c-2 -10 -11 -19 -20 -19h-35c-9 0 -16 9 -14 19z
" />
    <glyph glyph-name="f_j" unicode="fj" horiz-adv-x="540" 
d="M18 -281l86 621h-52c-10 0 -16 9 -14 19l3 22c1 11 10 19 20 19h51l15 105c18 125 83 205 179 205c72 0 122 -34 137 -47c6 -5 6 -16 1 -23l-17 -25c-7 -10 -15 -7 -25 -1c-10 7 -53 34 -95 34c-62 0 -99 -62 -111 -143l-15 -105h289c9 0 16 -9 15 -19l-74 -521
c-16 -116 -79 -170 -155 -170c-26 0 -49 9 -68 21c-6 3 -11 14 -6 21l18 28c6 9 12 14 21 7c5 -4 22 -15 35 -15c39 0 76 31 86 108l68 480h-237l-86 -621c-2 -10 -11 -19 -20 -19h-35c-9 0 -16 9 -14 19z" />
    <glyph glyph-name="f_f_j" unicode="ffj" horiz-adv-x="783" 
d="M16 -281l88 621h-51c-10 0 -16 9 -15 19l3 22c2 11 10 19 20 19h51l16 113c19 131 97 187 195 187c64 0 98 -26 112 -39c31 33 74 49 120 49c61 0 114 -34 129 -47c6 -5 6 -16 1 -23l-19 -24c-7 -10 -15 -7 -24 -1c-9 7 -52 33 -94 33s-85 -33 -96 -109l-19 -139h280
c9 0 16 -9 15 -19l-74 -521c-16 -116 -79 -170 -155 -170c-26 0 -49 9 -68 21c-6 3 -11 14 -6 21l18 28c6 9 12 14 21 7c5 -4 22 -15 35 -15c39 0 75 31 86 108l68 480h-227l-90 -621c-1 -10 -11 -19 -20 -19h-36c-9 0 -16 9 -14 19l88 621h-180l-88 -621
c-1 -10 -11 -19 -20 -19h-36c-9 0 -16 9 -14 19zM183 400h179l20 140c3 23 9 46 15 64c-10 15 -44 34 -83 34c-49 0 -102 -31 -116 -125z" />
    <glyph glyph-name="f_b" unicode="fb" horiz-adv-x="736" 
d="M18 -281l86 621h-51c-10 0 -16 9 -15 19l3 22c2 11 10 19 20 19h52l20 140c17 116 90 170 174 170c75 0 112 -51 112 -51l11 25c3 7 8 16 20 16h17c9 0 16 -9 15 -19l-42 -297c3 0 42 26 97 26c89 0 148 -82 148 -178c0 -130 -88 -242 -198 -242c-69 0 -104 53 -104 53
c-7 -16 -13 -43 -30 -43h-20c-9 0 -15 9 -14 19l79 561c-1 0 -30 63 -95 63c-41 0 -90 -26 -101 -103l-20 -140h100c10 0 16 -8 15 -19l-3 -22c-2 -10 -10 -19 -20 -19h-101l-86 -621c-2 -10 -11 -19 -20 -19h-35c-9 0 -16 9 -14 19zM403 119c1 0 23 -66 85 -66
c72 0 126 83 126 170c0 67 -36 120 -95 120c-49 0 -88 -24 -88 -24z" />
    <glyph glyph-name="f_f_k" unicode="ffk" horiz-adv-x="955" 
d="M17 -281l87 621h-51c-10 0 -16 9 -15 19l3 22c2 11 10 19 20 19h51l16 113c19 133 103 187 195 187c61 0 96 -26 112 -39c31 33 74 49 123 49c74 0 111 -51 111 -51l11 25c3 7 8 16 19 16h18c9 0 16 -9 15 -19l-61 -433l171 140c7 6 15 12 23 12h56c15 0 13 -19 5 -25
l-194 -158l167 -192c6 -7 2 -25 -13 -25h-46c-8 0 -14 5 -17 8l-159 192l-25 -181c-2 -10 -11 -19 -20 -19h-35c-9 0 -16 9 -15 19l80 564c-1 0 -31 60 -96 60c-41 0 -90 -26 -101 -103l-19 -140h99c10 0 16 -8 15 -19l-3 -22c-2 -10 -10 -19 -20 -19h-100l-87 -621
c-1 -10 -11 -19 -20 -19h-36c-9 0 -16 9 -14 19l87 621h-180l-87 -621c-1 -10 -11 -19 -20 -19h-36c-9 0 -16 9 -14 19zM182 400h180l20 140c3 23 8 43 15 61c-11 15 -44 37 -83 37c-49 0 -102 -31 -116 -125z" />
    <glyph glyph-name="f_h" unicode="fh" horiz-adv-x="749" 
d="M18 -281l86 621h-51c-10 0 -16 9 -15 19l3 22c2 11 10 19 20 19h52l20 140c17 116 91 170 174 170c75 0 112 -51 112 -51l11 25c3 7 8 16 20 16h17c8 0 15 -8 15 -17l-46 -326c3 0 56 53 124 53c100 0 133 -76 113 -215l-25 -176c-1 -10 -10 -19 -19 -19h-36
c-9 0 -16 9 -15 19l30 211c11 76 -14 113 -63 113c-64 0 -117 -57 -118 -56l-38 -268c-1 -10 -11 -19 -20 -19h-36c-9 0 -15 9 -14 19l79 561c-1 0 -30 63 -95 63c-41 0 -90 -26 -101 -103l-20 -140h100c10 0 16 -8 15 -19l-3 -22c-2 -10 -10 -19 -20 -19h-101l-86 -621
c-2 -10 -11 -19 -20 -19h-35c-9 0 -16 9 -14 19z" />
    <glyph glyph-name="f_f_b" unicode="ffb" horiz-adv-x="987" 
d="M17 -281l87 621h-51c-10 0 -16 9 -15 19l3 22c2 11 10 19 20 19h51l16 113c19 133 101 187 195 187c61 0 96 -26 112 -39c31 33 74 49 123 49c74 0 111 -51 111 -51l11 25c3 7 8 16 20 16h17c9 0 16 -9 15 -19l-42 -297c3 0 42 26 97 26c85 0 148 -79 148 -178
c0 -130 -85 -242 -198 -242c-69 0 -104 53 -104 53c-7 -16 -13 -43 -30 -43h-19c-9 0 -16 9 -15 19l80 564c-1 0 -31 60 -96 60c-41 0 -90 -26 -101 -103l-19 -140h99c10 0 16 -8 15 -19l-3 -22c-2 -10 -10 -19 -20 -19h-100l-87 -621c-1 -10 -11 -19 -20 -19h-36
c-9 0 -16 9 -14 19l87 621h-180l-87 -621c-1 -10 -11 -19 -20 -19h-36c-9 0 -16 9 -14 19zM182 400h180l20 140c3 23 8 43 15 61c-11 15 -44 37 -83 37c-49 0 -102 -31 -116 -125zM653 119c1 0 23 -66 85 -66c72 0 126 83 126 170c0 67 -36 120 -95 120
c-49 0 -88 -24 -88 -24z" />
    <glyph glyph-name=".notdef" horiz-adv-x="599" 
d="M50 30v640c0 21 9 30 30 30h439c21 0 30 -9 30 -30v-640c0 -21 -9 -30 -30 -30h-439c-21 0 -30 9 -30 30zM262 314c0 -7 7 -12 14 -12h36c9 0 15 4 15 13v26c0 48 105 63 105 150c0 65 -54 111 -125 111c-87 0 -130 -61 -130 -61c-4 -6 -6 -13 0 -18l22 -22
c6 -4 11 -4 17 0c13 12 36 41 84 41c40 0 61 -25 61 -52c0 -63 -99 -72 -99 -147v-29zM245 156c0 -26 22 -48 48 -48c27 0 49 22 49 48s-22 48 -49 48c-26 0 -48 -22 -48 -48z" />
    <glyph glyph-name=".null" horiz-adv-x="0" 
 />
    <glyph glyph-name="CR" horiz-adv-x="0" 
 />
    <glyph glyph-name="space" unicode=" " horiz-adv-x="222" 
 />
    <glyph glyph-name="exclam" unicode="!" horiz-adv-x="296" 
d="M141 272c-8 0 -15 8 -15 16l20 279l16 114c1 10 10 19 19 19h54c9 0 16 -9 15 -19l-16 -112l-60 -281c-2 -8 -11 -16 -19 -16h-14zM61 40c0 36 31 64 63 64c28 0 48 -22 48 -50c0 -35 -30 -64 -64 -64c-27 0 -47 23 -47 50z" />
    <glyph glyph-name="quotedbl" unicode="&#x22;" horiz-adv-x="294" 
d="M235 501c-9 0 -16 9 -14 19l22 161c2 10 11 19 20 19h37c12 0 19 -11 13 -25l-49 -159c-3 -8 -12 -15 -19 -15h-10zM96 501c-9 0 -15 9 -14 19l23 161c1 10 10 19 19 19h38c11 0 18 -11 12 -25l-49 -159c-3 -8 -12 -15 -18 -15h-11z" />
    <glyph glyph-name="numbersign" unicode="#" horiz-adv-x="501" 
d="M65 22l46 173h-63c-10 0 -16 9 -14 19l1 7c1 11 10 19 19 19h70l45 171h-64c-9 0 -16 9 -15 19l1 7c2 10 10 19 20 19h70l61 228c2 8 10 16 18 16h8c10 0 16 -10 13 -22l-58 -222h137l59 228c2 8 12 16 20 16h6c11 0 18 -10 14 -22l-58 -222h62c10 0 16 -9 14 -19l-1 -7
c-1 -10 -8 -19 -18 -19h-69l-45 -171h63c9 0 16 -8 14 -19l-1 -7c-1 -10 -9 -19 -18 -19h-71l-48 -179c-2 -9 -11 -16 -20 -16h-6c-11 0 -17 10 -14 22l47 173h-138l-48 -179c-2 -9 -11 -16 -19 -16h-6c-12 0 -17 10 -14 22zM165 240h138l45 171h-137z" />
    <glyph glyph-name="dollar" unicode="$" horiz-adv-x="487" 
d="M27 76c-6 8 -11 16 2 29l20 21c12 12 21 17 32 5c12 -15 48 -63 115 -73l37 258c-78 56 -146 96 -146 192c0 81 55 194 201 201l5 32c1 11 10 19 19 19h7c9 0 16 -8 14 -19l-5 -32c78 -7 123 -44 131 -50c5 -4 16 -17 1 -34l-15 -17c-11 -13 -21 -19 -33 -9
c-18 14 -50 36 -93 42l-37 -261c87 -49 151 -98 151 -194c0 -108 -84 -190 -207 -196l-14 -103c-2 -12 -12 -18 -22 -18c-9 0 -19 6 -18 18l15 105c-96 10 -151 73 -160 84zM245 402l34 240c-79 -10 -116 -79 -116 -125c0 -50 30 -84 82 -115zM236 58c61 7 115 61 115 120
c0 49 -29 83 -81 118z" />
    <glyph glyph-name="percent" unicode="%" horiz-adv-x="616" 
d="M181 440c-55 0 -104 52 -104 117c0 84 61 153 142 153c58 0 104 -52 104 -117c0 -85 -66 -153 -142 -153zM80 27l402 663c4 7 10 10 16 10h24c13 0 19 -14 11 -27l-404 -663c-2 -4 -8 -10 -16 -10h-22c-13 0 -19 14 -11 27zM189 497c39 0 76 39 76 88c0 36 -23 66 -54 66
c-41 0 -78 -40 -78 -88c0 -37 23 -66 56 -66zM300 107c0 84 61 153 142 153c58 0 104 -52 104 -117c0 -85 -66 -153 -142 -153c-55 0 -104 52 -104 117zM356 113c0 -37 23 -66 56 -66c39 0 76 39 76 88c0 36 -23 66 -54 66c-41 0 -78 -40 -78 -88z" />
    <glyph glyph-name="ampersand" unicode="&#x26;" horiz-adv-x="608" 
d="M59 148c0 126 104 191 156 226v2l-19 26c-29 42 -50 86 -41 146c11 76 61 162 183 162c82 0 136 -62 136 -133c0 -113 -109 -177 -165 -216l116 -160c25 41 52 112 63 179c3 19 8 20 22 20h33c16 0 14 -15 13 -23c-11 -76 -47 -170 -86 -228l73 -94c9 -13 19 -28 -8 -46
l-13 -10c-14 -10 -26 -12 -37 4l-60 82s-85 -95 -205 -95c-94 0 -161 74 -161 158zM274 411c42 29 130 76 130 156c0 42 -26 84 -79 84c-56 0 -95 -47 -104 -105c-7 -43 8 -76 36 -113zM130 156c0 -60 37 -100 97 -100c92 0 158 83 158 83l-132 190
c-45 -31 -123 -84 -123 -173z" />
    <glyph glyph-name="quotesingle" unicode="'" horiz-adv-x="155" 
d="M96 501c-9 0 -15 9 -14 19l23 161c1 10 10 19 19 19h38c11 0 16 -10 12 -25l-49 -159c-3 -8 -12 -15 -18 -15h-11z" />
    <glyph glyph-name="parenleft" unicode="(" horiz-adv-x="325" 
d="M59 208c0 370 153 493 279 500c10 1 15 -2 15 -10l-2 -27c0 -9 -6 -16 -12 -17c-172 -38 -210 -247 -210 -448c0 -123 34 -211 115 -230c6 -1 10 -8 7 -17l-6 -27c-2 -8 -8 -11 -18 -10c-77 5 -168 80 -168 286z" />
    <glyph glyph-name="parenright" unicode=")" horiz-adv-x="325" 
d="M-3 -24c170 38 210 244 210 448c0 123 -35 211 -115 230c-6 1 -10 8 -7 17l6 27c2 8 8 11 18 10c75 -4 168 -80 168 -286c0 -370 -153 -493 -279 -500c-10 -1 -15 2 -15 10l2 27c0 9 5 16 12 17z" />
    <glyph glyph-name="asterisk" unicode="*" horiz-adv-x="309" 
d="M165 415c-10 0 -16 9 -14 19l13 82l-68 -48c-8 -6 -17 -2 -22 6l-7 10c-5 9 -3 20 9 27l75 47l-64 47c-7 5 -8 15 0 26l10 13c8 11 17 10 23 4l56 -49l10 83c1 10 10 18 19 18h15c9 0 16 -8 14 -18l-13 -82l68 50c9 5 18 2 23 -6l6 -11c5 -9 1 -20 -8 -26l-77 -49l64 -49
c7 -6 7 -18 1 -26l-9 -11c-7 -9 -19 -12 -25 -6l-55 49l-10 -81c-1 -10 -10 -19 -19 -19h-15z" />
    <glyph glyph-name="plus" unicode="+" horiz-adv-x="458" 
d="M179 157l23 157h-140c-9 0 -15 9 -14 19l4 28c1 10 10 19 19 19h140l22 158c1 10 11 18 20 18h31c9 0 15 -8 14 -18l-22 -158h140c9 0 15 -9 14 -19l-4 -28c-1 -10 -10 -19 -19 -19h-140l-22 -157c-1 -10 -11 -18 -20 -18h-31c-9 0 -16 8 -15 18z" />
    <glyph glyph-name="comma" unicode="," horiz-adv-x="229" 
d="M25 40c0 36 31 64 65 64c26 0 53 -15 53 -68c0 -94 -70 -174 -108 -207c-9 -9 -17 -8 -21 -2l-11 14c-4 5 -4 12 6 21c11 9 68 56 78 129c-3 -1 -8 -1 -14 -1c-27 0 -48 23 -48 50z" />
    <glyph glyph-name="hyphen" unicode="-" horiz-adv-x="391" 
d="M91 220c-10 0 -17 8 -15 18l3 19c2 11 10 19 20 19h191c10 0 16 -8 14 -19l-3 -19c-2 -10 -10 -18 -20 -18h-190z" />
    <glyph glyph-name="period" unicode="." horiz-adv-x="221" 
d="M25 40c0 36 31 64 63 64c28 0 48 -22 48 -50c0 -35 -30 -64 -64 -64c-27 0 -47 23 -47 50z" />
    <glyph glyph-name="slash" unicode="/" horiz-adv-x="310" 
d="M19 0c-12 0 -18 11 -13 25l270 662c3 7 8 13 18 13h27c13 0 18 -11 13 -25l-269 -662c-3 -7 -9 -13 -18 -13h-28z" />
    <glyph glyph-name="zero" unicode="0" horiz-adv-x="593" 
d="M256 -9c-112 0 -179 103 -179 262c0 262 104 438 278 438c111 0 178 -103 178 -262c0 -262 -101 -438 -277 -438zM265 56c122 0 195 150 195 370c0 122 -39 200 -115 200c-121 0 -195 -151 -195 -371c0 -123 40 -199 115 -199z" />
    <glyph glyph-name="one" unicode="1" horiz-adv-x="313" 
d="M103 19l76 537l-75 -56c-8 -6 -16 -7 -20 1l-14 23c-4 8 2 15 7 20l145 136h31c9 0 15 -9 14 -19l-91 -642c-1 -10 -10 -19 -19 -19h-39c-10 0 -16 9 -15 19z" />
    <glyph glyph-name="two" unicode="2" horiz-adv-x="482" 
d="M8 19l4 30l257 263c77 79 113 145 113 201c0 50 -27 109 -105 109c-53 0 -102 -42 -134 -75c-8 -8 -17 -7 -24 0l-19 19c-6 6 -5 18 2 26c0 0 79 98 186 98c113 0 171 -78 171 -166c0 -103 -61 -172 -141 -254l-200 -205h257c9 0 16 -9 15 -19l-4 -27
c-1 -10 -11 -19 -20 -19h-344c-10 0 -16 9 -14 19z" />
    <glyph glyph-name="three" unicode="3" horiz-adv-x="497" 
d="M21 79c-5 7 -3 18 5 24l28 20c10 7 16 5 23 -5c8 -12 50 -66 124 -66c72 0 143 49 143 139c0 60 -40 117 -137 117h-50c-10 0 -16 6 -14 22l3 24c2 16 8 22 22 22h50c102 0 156 64 156 140c0 66 -45 108 -97 108c-58 0 -100 -40 -122 -65c-7 -7 -15 -10 -24 -2l-23 19
c-7 6 -3 19 4 26c0 0 68 88 172 88c91 0 167 -62 167 -167c0 -84 -69 -151 -117 -174v-3c36 -18 87 -76 87 -146c0 -116 -87 -210 -230 -210c-105 0 -153 64 -170 89z" />
    <glyph glyph-name="four" unicode="4" horiz-adv-x="540" 
d="M19 154c-10 0 -16 9 -15 19l5 37l406 475c3 3 8 6 14 6h23c9 0 16 -8 14 -19l-63 -457h73c10 0 15 -8 14 -18l-3 -22c-1 -10 -10 -19 -20 -19h-72l-19 -137c-2 -10 -11 -19 -20 -19h-38c-9 0 -16 9 -14 19l19 135h-304zM94 216h241l49 346z" />
    <glyph glyph-name="five" unicode="5" horiz-adv-x="498" 
d="M39 73c-10 15 -11 23 3 34l24 19c10 7 16 9 25 -6c10 -17 41 -66 118 -66c94 0 163 98 163 188c0 65 -36 120 -117 120h-138c-18 0 -25 19 -23 35l38 264c1 10 9 19 19 19h274c10 0 17 -9 15 -19l-5 -29c-2 -10 -9 -19 -19 -19h-224l-26 -184h100c116 0 181 -67 181 -173
c0 -147 -101 -266 -245 -266c-94 0 -145 53 -163 83z" />
    <glyph glyph-name="six" unicode="6" horiz-adv-x="507" 
d="M51 215c0 310 259 449 362 488c10 4 16 -1 19 -10l9 -27c4 -12 -2 -23 -20 -29c-43 -15 -212 -111 -262 -246c3 0 66 45 138 45c90 0 164 -73 164 -185c0 -143 -109 -261 -235 -261c-122 0 -175 101 -175 225zM235 56c81 0 155 84 155 182c0 74 -46 133 -111 133
c-80 0 -144 -65 -145 -65c-27 -100 -14 -250 101 -250z" />
    <glyph glyph-name="seven" unicode="7" horiz-adv-x="432" 
d="M40 14l2 16l333 583h-289c-9 0 -15 9 -14 19l4 29c1 10 11 19 20 19h363c9 0 16 -9 15 -19l-1 -7l-362 -638c-8 -15 -12 -16 -23 -16h-33c-9 0 -16 6 -15 14z" />
    <glyph glyph-name="eight" unicode="8" horiz-adv-x="535" 
d="M48 157c0 104 89 171 135 193v3c-33 19 -73 69 -73 134c0 119 97 203 215 203c99 0 165 -64 165 -158s-69 -156 -116 -179l-1 -3c36 -18 87 -73 87 -148c0 -115 -93 -212 -234 -212c-113 0 -178 73 -178 167zM283 385c90 10 132 66 132 138c0 63 -41 107 -101 107
c-68 0 -130 -59 -130 -144c0 -52 30 -93 99 -101zM124 159c0 -66 49 -109 110 -109c81 0 149 54 149 141c0 55 -38 111 -110 120c-92 -11 -149 -81 -149 -152z" />
    <glyph glyph-name="nine" unicode="9" horiz-adv-x="506" 
d="M84 20c-3 12 2 23 20 29c43 15 212 111 262 246c-2 0 -66 -45 -137 -45c-86 0 -165 73 -165 185c0 147 108 261 235 261c117 0 175 -101 175 -224c0 -311 -257 -449 -362 -489c-10 -4 -17 1 -19 10zM246 315c80 0 144 65 146 65c27 100 13 250 -102 250
c-80 0 -154 -84 -154 -182c0 -74 45 -133 110 -133z" />
    <glyph glyph-name="colon" unicode=":" horiz-adv-x="249" 
d="M127 296c-27 0 -46 23 -46 50c0 36 30 64 62 64c27 0 46 -22 46 -49c0 -35 -29 -65 -62 -65zM38 40c0 36 30 64 62 64c27 0 46 -22 46 -49c0 -35 -29 -65 -62 -65c-27 0 -46 23 -46 50z" />
    <glyph glyph-name="semicolon" unicode=";" horiz-adv-x="254" 
d="M128 296c-27 0 -46 23 -46 50c0 36 30 64 62 64c27 0 46 -22 46 -49c0 -35 -29 -65 -62 -65zM36 40c0 36 31 64 65 64c26 0 53 -15 53 -68c0 -94 -70 -174 -108 -207c-9 -9 -17 -8 -21 -2l-11 14c-4 5 -4 12 6 21c11 9 68 56 78 129c-3 -1 -8 -1 -14 -1
c-27 0 -48 23 -48 50z" />
    <glyph glyph-name="less" unicode="&#x3c;" horiz-adv-x="406" 
d="M25 210c-5 4 -9 11 -8 17l1 7c1 7 6 11 12 15l336 212c16 10 30 1 28 -16l-5 -39c-1 -6 -7 -14 -15 -19l-258 -161l214 -153c7 -4 10 -13 9 -19l-6 -38c-2 -16 -20 -19 -31 -11z" />
    <glyph glyph-name="equal" unicode="=" horiz-adv-x="480" 
d="M112 351c-9 0 -15 9 -14 19l4 30c2 10 10 19 20 19h273c10 0 16 -9 14 -19l-4 -30c-1 -10 -10 -19 -20 -19h-273zM83 140c-10 0 -16 9 -15 19l5 31c1 10 10 19 19 19h273c10 0 16 -9 15 -19l-5 -31c-1 -10 -9 -19 -19 -19h-273z" />
    <glyph glyph-name="greater" unicode="&#x3e;" horiz-adv-x="405" 
d="M-1 20l5 39c1 10 7 15 14 19l259 155l-214 161c-6 5 -11 10 -10 19l5 32c3 17 20 26 33 16l276 -212c6 -5 9 -10 8 -15l-1 -8c-1 -7 -7 -12 -13 -16l-335 -205c-15 -9 -30 -2 -27 15z" />
    <glyph glyph-name="question" unicode="?" horiz-adv-x="434" 
d="M182 272c-9 0 -15 8 -14 19l6 42c10 69 55 96 93 127c37 30 79 52 79 113c0 40 -30 75 -81 75c-70 0 -105 -49 -126 -70c-9 -9 -15 -8 -23 -1l-18 15c-11 10 -5 22 0 30c7 11 57 88 179 88c81 0 140 -53 140 -132c0 -84 -57 -126 -106 -163c-34 -25 -64 -46 -69 -82
l-6 -41c-2 -14 -12 -20 -21 -20h-33zM120 40c0 36 31 64 64 64c28 0 47 -22 47 -50c0 -35 -30 -64 -63 -64c-28 0 -48 23 -48 50z" />
    <glyph glyph-name="at" unicode="@" horiz-adv-x="897" 
d="M36 223c40 284 219 487 482 487c235 0 360 -181 326 -422c-18 -132 -88 -298 -232 -298c-58 0 -82 41 -90 78h-1c-24 -41 -77 -78 -133 -78c-93 0 -149 83 -131 211c19 133 104 209 196 209c60 0 94 -45 94 -45l7 20c5 14 8 15 21 15h19c8 0 15 -9 14 -19l-29 -213
c-11 -84 9 -120 44 -120c67 0 138 85 159 240c29 205 -57 366 -270 366c-214 0 -376 -164 -414 -431c-27 -191 53 -325 181 -390c13 -8 12 -14 7 -25l-14 -27c-6 -10 -14 -13 -23 -8c-150 75 -243 234 -213 450zM322 156c0 -67 33 -102 74 -102c58 0 104 70 113 106l18 123
s-17 60 -80 60c-59 0 -125 -66 -125 -187z" />
    <glyph glyph-name="A" unicode="A" horiz-adv-x="605" 
d="M-13 0c-14 0 -19 13 -12 26l369 673c3 6 9 11 17 11h9c7 0 12 -5 14 -11l178 -673c3 -13 -6 -26 -19 -26h-42c-9 0 -14 6 -15 11l-40 165h-312l-85 -165c-3 -5 -9 -11 -19 -11h-43zM171 238h256l-79 328h-6z" />
    <glyph glyph-name="B" unicode="B" horiz-adv-x="581" 
d="M63 19l93 662c2 10 10 19 20 19h199c99 0 161 -72 161 -159c0 -93 -63 -155 -114 -185c40 -20 88 -64 88 -140c0 -123 -87 -216 -225 -216h-207c-10 0 -16 9 -15 19zM190 386h139c74 0 122 66 122 147c0 58 -30 98 -88 98h-138zM144 67h155c69 0 127 64 127 142
c0 62 -46 108 -107 108h-140z" />
    <glyph glyph-name="C" unicode="C" horiz-adv-x="650" 
d="M61 301c0 225 162 409 379 409c91 0 151 -35 205 -93c7 -7 6 -21 -3 -28l-29 -23c-10 -8 -16 -6 -26 5c-33 38 -98 67 -157 67c-152 0 -287 -153 -287 -328c0 -132 83 -247 206 -247c75 0 123 38 174 78c10 8 18 7 22 3l31 -30c8 -8 3 -20 -4 -27
c-70 -67 -153 -97 -233 -97c-150 0 -278 139 -278 311z" />
    <glyph glyph-name="D" unicode="D" horiz-adv-x="690" 
d="M63 19l93 662c1 10 10 19 19 19h203c157 0 271 -148 271 -304c0 -217 -164 -396 -369 -396h-204c-9 0 -15 9 -13 19zM146 69h129c159 0 290 137 290 325c0 138 -83 238 -210 238h-130z" />
    <glyph glyph-name="E" unicode="E" horiz-adv-x="548" 
d="M63 19l93 662c1 10 10 19 19 19h357c10 0 16 -9 14 -19l-4 -29c-1 -10 -10 -19 -20 -19h-296l-35 -244h253c9 0 16 -9 14 -19l-4 -29c-1 -11 -10 -19 -19 -19h-253l-36 -255h297c10 0 16 -9 14 -19l-4 -29c-1 -10 -10 -19 -20 -19h-356c-10 0 -16 9 -14 19z" />
    <glyph glyph-name="F" unicode="F" horiz-adv-x="528" 
d="M63 19l93 662c1 10 10 19 19 19h357c10 0 16 -9 14 -19l-4 -29c-1 -10 -10 -19 -20 -19h-296l-39 -274h253c9 0 16 -9 14 -19l-4 -29c-1 -10 -11 -19 -20 -19h-252l-39 -273c-1 -10 -10 -19 -19 -19h-43c-10 0 -16 9 -14 19z" />
    <glyph glyph-name="G" unicode="G" horiz-adv-x="676" 
d="M61 301c0 225 163 409 379 409c91 0 152 -35 206 -93c7 -7 6 -21 -3 -28l-35 -29c-10 -8 -16 -6 -26 5c-33 38 -91 73 -150 73c-152 0 -287 -150 -287 -325c0 -133 82 -249 205 -249c91 0 156 42 159 42l20 143h-99c-10 0 -16 8 -14 18l5 34c1 11 10 19 20 19h158
c8 0 15 -8 14 -17l-32 -233c-1 -7 -4 -13 -10 -16c0 0 -101 -64 -232 -64c-154 0 -278 139 -278 311z" />
    <glyph glyph-name="H" unicode="H" horiz-adv-x="707" 
d="M63 19l93 662c2 10 11 19 20 19h43c10 0 16 -9 15 -19l-42 -292h354l41 292c2 10 10 19 20 19h43c9 0 16 -9 14 -19l-93 -662c-1 -10 -10 -19 -19 -19h-43c-10 0 -16 9 -15 19l43 303h-354l-43 -303c-1 -10 -9 -19 -19 -19h-43c-9 0 -16 9 -15 19z" />
    <glyph glyph-name="I" unicode="I" horiz-adv-x="276" 
d="M63 19l93 662c1 10 10 19 19 19h44c9 0 16 -9 14 -19l-93 -662c-1 -10 -10 -19 -19 -19h-44c-9 0 -16 9 -14 19z" />
    <glyph glyph-name="J" unicode="J" horiz-adv-x="386" 
d="M-39 62c-6 10 -3 21 4 27l22 20c12 10 21 7 31 -6c11 -15 43 -45 85 -45c45 0 103 43 118 149l67 474c1 10 10 19 20 19h43c10 0 16 -9 14 -19l-66 -472c-21 -149 -87 -219 -201 -219c-76 0 -123 51 -137 72z" />
    <glyph glyph-name="K" unicode="K" horiz-adv-x="572" 
d="M64 24l92 652c2 13 12 24 25 24h34c12 0 21 -11 19 -24l-40 -283l314 297c4 5 13 10 18 10h52c16 0 27 -17 11 -32l-326 -306l237 -336c6 -7 3 -26 -17 -26h-48c-6 0 -14 4 -15 7l-233 335l-45 -318c-2 -13 -13 -24 -25 -24h-34c-13 0 -20 11 -19 24z" />
    <glyph glyph-name="L" unicode="L" horiz-adv-x="449" 
d="M63 19l93 662c2 10 10 19 20 19h43c9 0 16 -9 15 -19l-87 -614h255c9 0 15 -9 14 -19l-4 -29c-2 -10 -10 -19 -20 -19h-314c-10 0 -16 9 -15 19z" />
    <glyph glyph-name="M" unicode="M" horiz-adv-x="793" 
d="M17 24l209 672c3 10 11 14 21 14h14c10 0 17 -5 18 -11l97 -549h2l253 549c3 6 9 11 19 11h14c10 0 18 -6 18 -14l22 -672c0 -14 -8 -24 -23 -24h-35c-12 0 -18 7 -18 14l-10 500h-1l-235 -513c-3 -6 -11 -11 -19 -11h-13c-11 0 -17 5 -18 11l-92 522h-1l-151 -509
c-2 -7 -9 -14 -21 -14h-35c-15 0 -19 11 -15 24z" />
    <glyph glyph-name="N" unicode="N" horiz-adv-x="716" 
d="M63 19l94 673c1 10 11 18 22 18h25l322 -561h1l75 532c1 10 11 19 23 19h32c11 0 18 -9 17 -19l-95 -673c-1 -10 -11 -18 -22 -18h-25l-323 571h-2l-73 -542c-1 -10 -12 -19 -23 -19h-32c-11 0 -17 9 -16 19z" />
    <glyph glyph-name="O" unicode="O" horiz-adv-x="758" 
d="M340 -10c-176 0 -305 159 -278 359c29 200 186 361 375 361c176 0 307 -161 278 -361c-28 -200 -184 -359 -375 -359zM348 60c141 0 274 130 296 289c23 159 -74 291 -215 291s-273 -132 -296 -291c-22 -159 74 -289 215 -289z" />
    <glyph glyph-name="P" unicode="P" horiz-adv-x="554" 
d="M63 19l93 662c2 10 10 19 20 19h201c100 0 173 -92 173 -193c0 -138 -106 -253 -235 -253h-142l-33 -235c-2 -10 -11 -19 -20 -19h-42c-10 0 -16 9 -15 19zM183 326h137c77 0 153 79 153 174c0 70 -48 124 -111 124h-137z" />
    <glyph glyph-name="Q" unicode="Q" horiz-adv-x="759" 
d="M340 -10c-174 0 -305 159 -277 359s184 361 374 361c176 0 307 -161 279 -361c-21 -147 -117 -273 -238 -329l79 -188c6 -13 -1 -30 -22 -30h-42c-8 0 -14 4 -19 16l-68 177c-21 -4 -45 -5 -66 -5zM348 60c141 0 274 130 297 289c22 159 -75 291 -216 291
s-273 -132 -295 -291c-23 -159 73 -289 214 -289z" />
    <glyph glyph-name="R" unicode="R" horiz-adv-x="612" 
d="M63 19l93 662c1 10 10 19 19 19h225c110 0 181 -88 181 -195c0 -97 -66 -192 -164 -223l87 -253c5 -13 -2 -29 -17 -29h-49c-6 0 -12 5 -13 9l-82 265h-168l-36 -255c-1 -10 -10 -19 -19 -19h-43c-10 0 -16 9 -14 19zM186 340h163c85 0 153 73 153 164
c0 66 -46 123 -112 123h-163z" />
    <glyph glyph-name="S" unicode="S" horiz-adv-x="501" 
d="M34 76c-6 8 -11 16 2 29l16 17c12 12 21 17 32 5c14 -16 61 -70 144 -70c67 0 130 57 130 121c0 63 -47 100 -130 148c-80 46 -134 90 -134 182c0 84 53 202 217 202c97 0 146 -44 155 -51c5 -4 14 -15 1 -34l-11 -16c-11 -13 -21 -19 -33 -9c-21 17 -71 43 -119 43
c-91 0 -134 -76 -134 -126c0 -56 38 -93 101 -127c96 -52 169 -101 169 -204c0 -111 -80 -196 -219 -196c-112 0 -177 74 -187 86z" />
    <glyph glyph-name="T" unicode="T" horiz-adv-x="435" 
d="M141 19l86 614h-153c-10 0 -16 9 -14 19l4 29c1 10 10 19 19 19h384c10 0 16 -9 14 -19l-4 -29c-1 -10 -10 -19 -20 -19h-153l-86 -614c-2 -10 -11 -19 -20 -19h-42c-9 0 -16 9 -15 19z" />
    <glyph glyph-name="U" unicode="U" horiz-adv-x="664" 
d="M89 258l59 423c2 10 11 19 20 19h43c10 0 16 -9 14 -19l-58 -417c-16 -114 33 -203 134 -203c102 0 178 94 193 201l59 419c1 10 10 19 19 19h43c9 0 16 -9 14 -19l-59 -423c-21 -152 -117 -268 -278 -268c-135 0 -224 116 -203 268z" />
    <glyph glyph-name="V" unicode="V" horiz-adv-x="606" 
d="M242 1l-179 673c-3 13 6 26 19 26h41c8 0 13 -6 14 -11l138 -558h4l294 558c2 5 7 11 17 11h49c13 0 18 -13 11 -26l-369 -673c-3 -6 -8 -11 -17 -11h-9c-6 0 -11 5 -13 11z" />
    <glyph glyph-name="W" unicode="W" horiz-adv-x="824" 
d="M170 4l-75 672c-2 14 7 24 19 24h42c8 0 14 -7 15 -14l47 -516h3l224 529c3 7 8 11 17 11h16c8 0 13 -5 14 -11l77 -529h3l191 516c3 7 11 14 18 14h48c13 0 18 -10 13 -24l-265 -672c-3 -8 -10 -14 -18 -14h-14c-8 0 -13 5 -14 11l-81 539h-4l-230 -539
c-3 -7 -10 -11 -17 -11h-14c-8 0 -14 6 -15 14z" />
    <glyph glyph-name="X" unicode="X" horiz-adv-x="547" 
d="M18 0c-17 0 -22 12 -13 25l232 334l-134 318c-5 13 2 23 17 23h48c6 0 12 -4 14 -9l107 -271h1l180 271c4 6 9 9 17 9h55c15 0 21 -13 12 -26l-221 -315l137 -334c6 -14 -1 -25 -16 -25h-49c-8 0 -13 6 -14 9l-110 288h-2l-194 -288c-3 -5 -10 -9 -17 -9h-50z" />
    <glyph glyph-name="Y" unicode="Y" horiz-adv-x="518" 
d="M182 19l45 318l-170 339c-6 12 0 24 14 24h46c7 0 12 -5 14 -9l139 -285h2l222 285c3 4 9 9 16 9h48c15 0 19 -16 10 -29l-264 -333l-45 -319c-1 -10 -11 -19 -20 -19h-42c-10 0 -16 9 -15 19z" />
    <glyph glyph-name="Z" unicode="Z" horiz-adv-x="493" 
d="M10 0c-9 0 -16 9 -14 19l2 18l404 593h-277c-9 0 -17 9 -15 19l5 32c2 10 11 19 20 19h366c9 0 16 -9 14 -19l-2 -13l-407 -598h288c10 0 17 -9 15 -19l-5 -32c-2 -10 -10 -19 -20 -19h-374z" />
    <glyph glyph-name="bracketleft" unicode="[" horiz-adv-x="308" 
d="M71 -237h123c9 0 15 -8 14 -18l-3 -26c-1 -10 -11 -19 -20 -19h-173c-9 0 -16 9 -15 19l136 962c1 10 10 19 19 19h174c9 0 15 -9 14 -19l-3 -25c-1 -11 -11 -19 -20 -19h-123z" />
    <glyph glyph-name="backslash" unicode="\" horiz-adv-x="308" 
d="M164 13l-82 662c-2 14 7 25 19 25h32c8 0 14 -6 15 -13l83 -662c2 -14 -8 -25 -20 -25h-33c-6 0 -13 6 -14 13z" />
    <glyph glyph-name="bracketright" unicode="]" horiz-adv-x="309" 
d="M-30 -237h122l123 874h-122c-9 0 -17 8 -15 19l4 25c2 10 10 19 19 19h174c9 0 15 -9 14 -19l-135 -962c-2 -10 -11 -19 -20 -19h-173c-9 0 -17 9 -15 19l4 26c2 10 11 18 20 18z" />
    <glyph glyph-name="asciicircum" unicode="^" horiz-adv-x="472" 
d="M66 398c-15 0 -18 16 -8 28l221 278c4 5 9 10 17 10h5c6 0 12 -5 14 -10l140 -283c6 -12 -1 -23 -16 -23h-37c-8 0 -13 6 -15 11l-100 208h-4l-159 -208c-4 -5 -12 -11 -18 -11h-40z" />
    <glyph glyph-name="underscore" unicode="_" horiz-adv-x="357" 
d="M1 -10h275c9 0 15 -8 14 -19l-2 -16c-1 -10 -10 -18 -20 -18h-275c-10 0 -15 8 -14 18l2 16c1 11 10 19 20 19z" />
    <glyph glyph-name="grave" unicode="`" horiz-adv-x="272" 
d="M231 562l-132 64c-12 6 -12 16 -7 24l21 34c6 9 19 7 24 3l125 -84c5 -3 8 -11 3 -19l-12 -20c-5 -8 -10 -8 -22 -2z" />
    <glyph glyph-name="a" unicode="a" 
d="M387 384l-43 -369c-1 -10 -9 -15 -18 -15h-22c-9 0 -12 6 -13 15l-4 27c-2 0 -48 -52 -119 -52c-80 0 -139 80 -139 177c0 152 91 243 199 243c65 0 97 -45 97 -45l13 26c3 6 7 9 14 9h22c11 0 14 -5 13 -16zM288 119l20 177s-23 48 -86 48c-59 0 -124 -49 -124 -177
c0 -57 28 -114 87 -114c64 0 103 66 103 66z" />
    <glyph glyph-name="b" unicode="b" horiz-adv-x="450" 
d="M33 19l93 662c1 10 10 19 19 19h36c9 0 16 -9 14 -19l-41 -297c2 0 41 26 96 26c85 0 148 -79 148 -178c0 -130 -85 -242 -198 -242c-68 0 -104 53 -104 53l-10 -27c-3 -9 -9 -16 -18 -16h-21c-9 0 -16 9 -14 19zM117 119c0 0 23 -66 85 -66c71 0 126 83 126 170
c0 67 -37 120 -95 120c-49 0 -88 -24 -88 -24z" />
    <glyph glyph-name="c" unicode="c" horiz-adv-x="409" 
d="M29 170c0 134 97 240 214 240c54 0 99 -26 125 -72c5 -9 1 -20 -8 -26l-18 -13c-11 -8 -20 -4 -25 4c-16 25 -41 40 -75 40c-72 0 -140 -73 -140 -165c0 -68 38 -125 95 -125c49 0 82 41 94 59c7 11 17 13 26 6l21 -18c8 -7 7 -16 1 -26c-26 -43 -79 -84 -149 -84
c-86 0 -161 77 -161 180z" />
    <glyph glyph-name="d" unicode="d" horiz-adv-x="451" 
d="M169 -10c-80 0 -139 80 -139 177c0 134 89 243 207 243c55 0 87 -26 89 -26l42 297c2 10 12 19 21 19h34c9 0 16 -9 15 -19l-93 -666c-1 -10 -9 -15 -18 -15h-22c-9 0 -12 6 -13 15l-4 27c-2 0 -48 -52 -119 -52zM186 53c64 0 103 66 103 66l28 200s-32 24 -81 24
c-75 0 -135 -74 -135 -169c0 -64 26 -121 85 -121z" />
    <glyph glyph-name="e" unicode="e" horiz-adv-x="403" 
d="M30 167c0 130 87 243 212 243c81 0 123 -45 123 -105c0 -87 -93 -138 -268 -122c-6 -67 32 -130 93 -130c34 0 67 16 90 31c10 6 18 6 25 -5l12 -17c5 -8 6 -15 -7 -26c-26 -19 -75 -46 -134 -46c-85 0 -146 81 -146 177zM106 235c118 -11 190 18 190 66
c0 27 -22 48 -63 48c-55 0 -113 -52 -127 -114z" />
    <glyph glyph-name="f" unicode="f" horiz-adv-x="303" 
d="M22 -281l86 621h-62c-10 0 -16 9 -15 19l4 22c2 11 9 19 19 19h62l20 140c16 116 80 170 166 170c49 0 80 -24 94 -41c5 -6 5 -16 0 -23l-19 -24c-7 -9 -16 -9 -23 -1c-10 11 -35 27 -61 27c-41 0 -77 -31 -88 -108l-20 -140h102c10 0 18 -8 16 -19l-4 -22
c-1 -10 -10 -19 -20 -19h-102l-86 -621c-2 -10 -11 -19 -20 -19h-35c-9 0 -16 9 -14 19z" />
    <glyph glyph-name="g" unicode="g" 
d="M29 151c0 163 102 259 199 259c70 0 93 -53 93 -53l13 34c2 5 6 9 14 9h24c8 0 14 -8 12 -19l-65 -441c-19 -142 -96 -200 -179 -200c-89 0 -130 68 -132 71c-3 4 -6 11 -6 16c0 4 1 7 4 10l22 17c3 2 7 6 12 6c3 0 7 -2 10 -6c4 -5 39 -54 92 -54c36 0 87 15 108 147
l18 98h-6c-19 -27 -54 -55 -107 -55c-70 0 -126 61 -126 161zM171 53c58 0 104 72 113 108l18 123s-17 60 -80 60c-59 0 -125 -66 -125 -187c0 -67 33 -104 74 -104z" />
    <glyph glyph-name="h" unicode="h" horiz-adv-x="463" 
d="M33 19l93 662c1 10 10 19 19 19h36c9 0 15 -9 14 -19l-45 -324c3 0 56 53 124 53c86 0 135 -63 118 -180l-30 -211c-1 -10 -11 -19 -20 -19h-36c-9 0 -15 9 -14 19l30 211c11 76 -15 113 -64 113c-64 0 -116 -56 -118 -56l-38 -268c-1 -10 -10 -19 -20 -19h-35
c-9 0 -15 9 -14 19z" />
    <glyph glyph-name="i" unicode="i" horiz-adv-x="208" 
d="M146 585c-23 0 -40 18 -40 41c0 30 25 54 53 54c24 0 40 -18 40 -42c0 -29 -25 -53 -53 -53zM33 19l50 362c1 10 9 19 20 19h36c9 0 15 -9 14 -19l-51 -362c-1 -10 -11 -19 -20 -19h-35c-9 0 -16 9 -14 19z" />
    <glyph glyph-name="j" unicode="j" horiz-adv-x="209" 
d="M147 585c-23 0 -39 18 -39 41c0 30 25 54 52 54c24 0 40 -18 40 -42c0 -29 -25 -53 -53 -53zM11 -140l73 521c2 11 9 19 20 19h35c9 0 17 -8 15 -19l-74 -521c-16 -116 -71 -170 -160 -170c-49 0 -86 26 -100 42c-6 6 -6 17 -1 23l20 26c7 10 15 9 23 1
c10 -10 38 -29 61 -29c41 0 77 30 88 107z" />
    <glyph glyph-name="k" unicode="k" horiz-adv-x="419" 
d="M33 19l93 662c1 10 10 19 19 19h36c9 0 15 -9 14 -19l-60 -433l171 140c7 6 15 12 23 12h56c15 0 13 -19 5 -25l-194 -158l167 -192c6 -7 2 -25 -13 -25h-46c-8 0 -14 5 -17 8l-159 193l-26 -182c-1 -10 -10 -19 -19 -19h-36c-9 0 -15 9 -14 19z" />
    <glyph glyph-name="l" unicode="l" horiz-adv-x="208" 
d="M33 19l93 662c1 10 11 19 20 19h35c9 0 15 -9 14 -19l-93 -662c-1 -10 -10 -19 -19 -19h-36c-9 0 -15 9 -14 19z" />
    <glyph glyph-name="m" unicode="m" horiz-adv-x="702" 
d="M33 19l50 362c1 10 7 19 20 19h20c8 0 12 -4 13 -12l4 -31c3 0 52 53 125 53c53 0 87 -30 104 -67c6 4 74 67 145 67c96 0 131 -76 117 -180l-30 -211c-1 -10 -10 -19 -20 -19h-35c-10 0 -16 9 -15 19l30 211c10 75 -12 113 -63 113c-58 0 -100 -43 -112 -56
c0 -17 -2 -36 -5 -57l-29 -211c-1 -10 -11 -19 -20 -19h-35c-9 0 -16 9 -14 19l29 211c11 76 -13 113 -66 113c-61 0 -105 -57 -107 -57l-37 -267c-1 -10 -11 -19 -20 -19h-35c-9 0 -16 9 -14 19z" />
    <glyph glyph-name="n" unicode="n" horiz-adv-x="463" 
d="M33 19l50 362c1 10 8 19 20 19h20c8 0 12 -4 13 -12l4 -31c2 0 60 53 134 53c97 0 132 -76 118 -180l-30 -211c-1 -10 -11 -19 -20 -19h-36c-9 0 -16 9 -14 19l29 211c11 76 -13 113 -63 113c-64 0 -117 -57 -119 -57l-37 -267c-1 -10 -10 -19 -21 -19h-34
c-9 0 -16 9 -14 19z" />
    <glyph glyph-name="o" unicode="o" horiz-adv-x="445" 
d="M29 172c0 128 93 238 210 238c85 0 155 -83 155 -181c0 -129 -93 -239 -210 -239c-85 0 -155 83 -155 182zM191 53c70 0 134 78 134 170c0 66 -38 120 -93 120c-70 0 -135 -74 -135 -165c0 -68 38 -125 94 -125z" />
    <glyph glyph-name="p" unicode="p" horiz-adv-x="451" 
d="M104 23l-43 -304c-1 -10 -10 -19 -20 -19h-35c-9 0 -16 9 -15 19l93 662c1 10 7 19 20 19h22c7 0 11 -3 13 -13l4 -19c2 0 37 42 112 42c84 0 144 -84 144 -179c0 -134 -87 -241 -206 -241c-55 0 -87 33 -89 33zM114 88c0 0 31 -35 79 -35c75 0 136 74 136 169
c0 64 -31 121 -91 121c-56 0 -95 -49 -95 -49z" />
    <glyph glyph-name="q" unicode="q" horiz-adv-x="451" 
d="M30 168c0 130 84 242 203 242c64 0 99 -42 101 -42l9 18c4 8 10 14 19 14h20c11 0 16 -6 14 -19l-93 -662c-1 -10 -11 -19 -20 -19h-35c-10 0 -16 9 -15 19l43 306c-2 0 -43 -35 -99 -35c-83 0 -147 79 -147 178zM101 173c0 -67 31 -120 94 -120c49 0 90 33 90 33l30 211
c-1 0 -30 46 -83 46c-78 0 -131 -83 -131 -170z" />
    <glyph glyph-name="r" unicode="r" horiz-adv-x="313" 
d="M33 19l50 362c1 10 8 19 20 19h20c7 0 12 -5 13 -14l4 -29c2 0 43 53 115 53c29 0 74 -5 59 -33l-17 -33c-7 -13 -14 -13 -23 -9c-7 3 -19 8 -39 8c-56 0 -94 -57 -96 -57l-37 -267c-2 -10 -12 -19 -22 -19h-33c-9 0 -16 9 -14 19z" />
    <glyph glyph-name="s" unicode="s" horiz-adv-x="336" 
d="M19 35c-4 4 -7 14 -2 21l17 23c6 8 16 10 24 3c0 0 35 -31 80 -31c37 0 61 22 61 54c0 29 -21 46 -64 72c-43 24 -86 58 -86 115c0 50 28 118 133 118c48 0 82 -18 98 -31c7 -6 10 -17 3 -28l-14 -20c-8 -11 -18 -11 -26 -6c0 0 -35 20 -68 20c-42 0 -55 -26 -55 -45
c0 -29 23 -43 54 -61c53 -30 101 -61 101 -122c0 -67 -49 -127 -144 -127c-56 0 -95 28 -112 45z" />
    <glyph glyph-name="t" unicode="t" horiz-adv-x="318" 
d="M64 100l34 240h-43c-10 0 -17 9 -15 19l4 22c2 11 9 19 19 19h44l15 111c2 10 11 19 20 19l36 2c9 0 15 -9 14 -19l-16 -113h100c10 0 16 -8 15 -19l-3 -22c-1 -10 -10 -19 -20 -19h-100l-33 -234c-6 -40 3 -48 22 -48c22 0 52 16 65 23c14 8 18 1 21 -7l11 -25
c5 -12 0 -18 -10 -25c-13 -9 -64 -34 -106 -34c-64 0 -83 48 -74 110z" />
    <glyph glyph-name="u" unicode="u" horiz-adv-x="452" 
d="M165 -10c-100 0 -131 75 -116 181l29 210c2 10 11 19 20 19h36c9 0 16 -9 15 -19l-30 -211c-11 -76 14 -117 63 -117c63 0 108 61 109 61l38 267c1 10 10 19 20 19h34c9 0 16 -9 15 -19l-51 -362c-1 -10 -9 -19 -20 -19h-20c-9 0 -11 7 -13 17l-4 26
c-3 -2 -51 -53 -125 -53z" />
    <glyph glyph-name="v" unicode="v" horiz-adv-x="377" 
d="M130 0l-103 382c-4 13 2 18 15 18h33c10 0 14 -6 16 -15l68 -263h1l150 267c3 6 10 11 21 11h30c14 0 19 -10 12 -23l-208 -377c-3 -6 -8 -10 -16 -10h-5c-8 0 -13 5 -14 10z" />
    <glyph glyph-name="w" unicode="w" horiz-adv-x="558" 
d="M98 0l-52 384c-1 10 4 16 17 16h32c10 0 16 -6 17 -14l30 -243h2l138 257c4 6 8 10 17 10h5c7 0 12 -5 13 -10l59 -257h2l99 243c2 6 8 14 20 14h28c14 0 20 -6 14 -20l-154 -380c-3 -6 -8 -10 -16 -10h-5c-7 0 -13 5 -14 10l-66 287h-1l-150 -287c-3 -5 -9 -10 -17 -10
h-4c-7 0 -13 4 -14 10z" />
    <glyph glyph-name="x" unicode="x" horiz-adv-x="392" 
d="M10 0c-15 0 -18 13 -8 26l143 178l-93 169c-7 13 3 27 18 27h31c7 0 12 -4 14 -8l72 -141h1l113 141c5 6 9 8 16 8h39c15 0 22 -14 11 -27l-145 -169l96 -179c7 -13 -1 -25 -15 -25h-34c-6 0 -11 5 -13 9l-77 147h-1l-114 -148c-3 -4 -9 -8 -16 -8h-38z" />
    <glyph glyph-name="y" unicode="y" horiz-adv-x="426" 
d="M139 1l-112 377c-4 13 3 22 17 22h35c6 0 12 -4 14 -11l89 -310h1l170 310c3 6 10 11 17 11h39c13 0 19 -10 12 -23l-370 -665c-3 -6 -10 -12 -17 -12h-42c-13 0 -18 8 -10 22z" />
    <glyph glyph-name="z" unicode="z" horiz-adv-x="340" 
d="M15 0c-9 0 -15 9 -14 19l1 10l215 306v2h-147c-9 0 -14 9 -13 19l3 25c1 11 10 19 19 19h228c14 0 21 -14 12 -27l-212 -309v-1h135c10 0 15 -8 14 -19l-3 -25c-1 -10 -10 -19 -20 -19h-218z" />
    <glyph glyph-name="braceleft" unicode="{" horiz-adv-x="363" 
d="M51 -71l22 161c7 45 -30 74 -51 78c-7 1 -12 6 -11 17l4 31c1 10 9 14 16 15c20 4 67 33 73 78l23 161c26 190 161 240 254 240c9 0 17 -5 16 -17l-2 -19c-1 -9 -7 -17 -15 -18c-85 -14 -168 -78 -183 -186l-19 -133c-14 -100 -67 -124 -92 -136v-3
c24 -12 67 -36 53 -136l-18 -133c-16 -108 50 -171 131 -185c7 -1 12 -6 10 -17l-4 -20c-2 -10 -11 -17 -20 -17c-93 0 -212 67 -187 239z" />
    <glyph glyph-name="bar" unicode="|" horiz-adv-x="191" 
d="M-4 -282l144 1023c1 11 11 19 20 19h7c9 0 15 -8 13 -19l-143 -1023c-2 -10 -11 -18 -20 -18h-6c-9 0 -16 8 -15 18z" />
    <glyph glyph-name="braceright" unicode="}" horiz-adv-x="364" 
d="M145 -71l19 133c14 100 63 124 90 136v3c-21 12 -65 36 -51 136l18 133c15 108 -50 172 -131 186c-7 1 -10 9 -9 18l3 19c2 12 11 17 20 17c93 0 212 -68 187 -240l-22 -161c-6 -45 32 -73 51 -78c8 -2 12 -7 11 -15l-4 -31c-2 -12 -9 -16 -16 -17
c-22 -4 -67 -33 -73 -78l-23 -161c-26 -190 -161 -239 -254 -239c-9 0 -17 7 -16 17l2 20c1 11 7 16 15 17c85 14 168 77 183 185z" />
    <glyph glyph-name="asciitilde" unicode="~" horiz-adv-x="515" 
d="M74 228c-7 6 -14 11 -21 17c-5 6 -3 16 2 24c8 12 58 92 132 92c41 0 71 -26 93 -46c12 -10 37 -33 61 -33c40 0 69 47 84 66c8 10 18 12 25 4l20 -17c5 -6 4 -16 -2 -24c-9 -11 -58 -92 -133 -92c-40 0 -70 26 -91 44c-16 13 -35 35 -62 35c-39 0 -69 -47 -83 -66
c-8 -10 -18 -12 -25 -4z" />
    <glyph glyph-name="uni00A0" unicode="&#xa0;" horiz-adv-x="222" 
 />
    <glyph glyph-name="Agrave" unicode="&#xc0;" horiz-adv-x="605" 
d="M-13 0c-14 0 -19 13 -12 26l369 673c3 6 9 11 17 11h9c7 0 12 -5 14 -11l178 -673c3 -13 -6 -26 -19 -26h-42c-9 0 -14 6 -15 11l-40 165h-312l-85 -165c-3 -5 -9 -11 -19 -11h-43zM171 238h256l-79 328h-6zM437 783l-132 64c-12 6 -12 16 -7 24l21 34c6 9 19 7 24 3
l125 -84c5 -3 8 -11 3 -19l-12 -20c-5 -8 -10 -8 -22 -2z" />
    <glyph glyph-name="Aacute" unicode="&#xc1;" horiz-adv-x="605" 
d="M-13 0c-14 0 -19 13 -12 26l369 673c3 6 9 11 17 11h9c7 0 12 -5 14 -11l178 -673c3 -13 -6 -26 -19 -26h-42c-9 0 -14 6 -15 11l-40 165h-312l-85 -165c-3 -5 -9 -11 -19 -11h-43zM171 238h256l-79 328h-6zM315 779c-13 -6 -19 -1 -22 8l-7 18c-3 8 1 15 8 19l148 84
c6 4 20 6 25 -8l13 -33c5 -12 -1 -18 -8 -21z" />
    <glyph glyph-name="Acircumflex" unicode="&#xc2;" horiz-adv-x="605" 
d="M-13 0c-14 0 -19 13 -12 26l369 673c3 6 9 11 17 11h9c7 0 12 -5 14 -11l178 -673c3 -13 -6 -26 -19 -26h-42c-9 0 -14 6 -15 11l-40 165h-312l-85 -165c-3 -5 -9 -11 -19 -11h-43zM171 238h256l-79 328h-6zM281 771c-9 -7 -18 -5 -22 3l-9 18c-6 12 -1 20 5 24l119 94
c5 4 10 7 18 7h3c7 0 15 -7 19 -12l84 -91c4 -5 5 -12 -2 -19l-14 -15c-7 -7 -12 -12 -21 -4l-78 66z" />
    <glyph glyph-name="Atilde" unicode="&#xc3;" horiz-adv-x="605" 
d="M-13 0c-14 0 -19 13 -12 26l369 673c3 6 9 11 17 11h9c7 0 12 -5 14 -11l178 -673c3 -13 -6 -26 -19 -26h-42c-9 0 -14 6 -15 11l-40 165h-312l-85 -165c-3 -5 -9 -11 -19 -11h-43zM171 238h256l-79 328h-6zM268 795l-16 8c-9 6 -7 16 -4 23c7 18 38 84 97 84
c52 0 60 -72 89 -72c24 0 36 30 42 47c4 10 12 19 25 11l14 -8c8 -5 10 -15 7 -23c-8 -26 -39 -85 -96 -85c-45 0 -64 73 -88 73c-27 0 -39 -33 -46 -50c-4 -9 -15 -14 -24 -8z" />
    <glyph glyph-name="Adieresis" unicode="&#xc4;" horiz-adv-x="605" 
d="M-13 0c-14 0 -19 13 -12 26l369 673c3 6 9 11 17 11h9c7 0 12 -5 14 -11l178 -673c3 -13 -6 -26 -19 -26h-42c-9 0 -14 6 -15 11l-40 165h-312l-85 -165c-3 -5 -9 -11 -19 -11h-43zM171 238h256l-79 328h-6zM473 792c-23 0 -39 18 -39 41c0 30 25 54 52 54
c23 0 40 -18 40 -42c0 -29 -26 -53 -53 -53zM278 792c-23 0 -39 18 -39 41c0 30 25 54 52 54c23 0 40 -18 40 -42c0 -29 -26 -53 -53 -53z" />
    <glyph glyph-name="Amacron" unicode="&#x100;" horiz-adv-x="605" 
d="M-13 0c-14 0 -19 13 -12 26l369 673c3 6 9 11 17 11h9c7 0 12 -5 14 -11l178 -673c3 -13 -6 -26 -19 -26h-42c-9 0 -14 6 -15 11l-40 165h-312l-85 -165c-3 -5 -9 -11 -19 -11h-43zM171 238h256l-79 328h-6zM264 821c-9 0 -15 8 -14 18l3 21c1 11 10 19 20 19h230
c10 0 16 -8 14 -19l-2 -21c-2 -10 -10 -18 -20 -18h-231z" />
    <glyph glyph-name="Abreve" unicode="&#x102;" horiz-adv-x="605" 
d="M-13 0c-14 0 -19 13 -12 26l369 673c3 6 9 11 17 11h9c7 0 12 -5 14 -11l178 -673c3 -13 -6 -26 -19 -26h-42c-9 0 -14 6 -15 11l-40 165h-312l-85 -165c-3 -5 -9 -11 -19 -11h-43zM171 238h256l-79 328h-6zM374 771c-58 0 -107 49 -106 114c0 11 5 20 16 20h19
c10 0 14 -8 15 -17c6 -38 27 -64 62 -64c32 0 63 29 78 64c5 11 11 17 19 17h25c10 0 14 -9 10 -20c-19 -65 -70 -114 -138 -114z" />
    <glyph glyph-name="Aring" unicode="&#xc5;" horiz-adv-x="605" 
d="M-13 0c-14 0 -19 13 -12 26l369 673c3 6 9 11 17 11h9c7 0 12 -5 14 -11l178 -673c3 -13 -6 -26 -19 -26h-42c-9 0 -14 6 -15 11l-40 165h-312l-85 -165c-3 -5 -9 -11 -19 -11h-43zM171 238h256l-79 328h-6zM372 758c-50 0 -85 42 -85 94c0 69 52 124 115 124
c49 0 85 -42 85 -94c0 -69 -53 -124 -115 -124zM378 806c31 0 59 33 59 69c0 27 -14 51 -42 51c-30 0 -60 -30 -60 -66c0 -28 15 -54 43 -54z" />
    <glyph glyph-name="Aringacute" unicode="&#x1fa;" horiz-adv-x="605" 
d="M334 897c-13 -6 -19 -1 -22 8l-7 18c-3 8 1 15 8 19l148 84c6 4 20 6 25 -8l13 -33c5 -12 -1 -18 -8 -21zM-13 0c-14 0 -19 13 -12 26l355 648c-32 14 -52 48 -52 88c0 69 52 124 115 124c49 0 85 -42 85 -94c0 -58 -38 -107 -87 -120l171 -646c3 -13 -6 -26 -19 -26h-42
c-9 0 -14 6 -15 11l-40 165h-312l-85 -165c-3 -5 -9 -11 -19 -11h-43zM369 716c31 0 59 33 59 69c0 27 -14 51 -42 51c-30 0 -60 -30 -60 -66c0 -28 15 -54 43 -54zM171 238h256l-79 328h-6z" />
    <glyph glyph-name="Aogonek" unicode="&#x104;" horiz-adv-x="605" 
d="M-13 0c-14 0 -19 13 -12 26l369 673c3 6 9 11 17 11h9c7 0 12 -5 14 -11l178 -673c3 -13 -6 -26 -19 -26h-19c-20 -17 -56 -57 -56 -107c0 -28 19 -49 45 -49c22 0 38 9 51 16c8 4 16 -1 14 -14l-3 -24c-1 -10 -8 -14 -15 -18c-9 -5 -35 -15 -63 -15c-45 0 -87 28 -87 85
c0 78 63 126 77 135l-41 167h-312l-85 -165c-3 -5 -9 -11 -19 -11h-43zM171 238h256l-79 328h-6z" />
    <glyph glyph-name="AE" unicode="&#xc6;" horiz-adv-x="822" 
d="M21 0h-48c-14 0 -17 13 -8 26l452 643c14 20 22 31 44 31h345c9 0 15 -9 14 -19l-4 -29c-1 -10 -10 -19 -20 -19h-301l-35 -244h258c9 0 15 -9 14 -19l-4 -29c-2 -11 -11 -19 -20 -19h-257l-36 -255h302c9 0 15 -9 14 -19l-4 -29c-1 -10 -10 -19 -20 -19h-356
c-10 0 -16 9 -15 19l22 157h-205l-113 -165c-4 -5 -9 -11 -19 -11zM198 238h169l46 319z" />
    <glyph glyph-name="AEacute" unicode="&#x1fc;" horiz-adv-x="822" 
d="M21 0h-48c-14 0 -17 13 -8 26l452 643c14 20 22 31 44 31h345c9 0 15 -9 14 -19l-4 -29c-1 -10 -10 -19 -20 -19h-301l-35 -244h258c9 0 15 -9 14 -19l-4 -29c-2 -11 -11 -19 -20 -19h-257l-36 -255h302c9 0 15 -9 14 -19l-4 -29c-1 -10 -10 -19 -20 -19h-356
c-10 0 -16 9 -15 19l22 157h-205l-113 -165c-4 -5 -9 -11 -19 -11zM198 238h169l46 319zM594 780c-13 -6 -19 -1 -22 8l-7 18c-3 8 1 15 8 19l148 84c6 4 20 6 25 -8l13 -33c5 -12 -1 -18 -8 -21z" />
    <glyph glyph-name="Cacute" unicode="&#x106;" horiz-adv-x="650" 
d="M61 301c0 225 162 409 379 409c91 0 151 -35 205 -93c7 -7 6 -21 -3 -28l-29 -23c-10 -8 -16 -6 -26 5c-33 38 -98 67 -157 67c-152 0 -287 -153 -287 -328c0 -132 83 -247 206 -247c75 0 123 38 174 78c10 8 18 7 22 3l31 -30c8 -8 3 -20 -4 -27
c-70 -67 -153 -97 -233 -97c-150 0 -278 139 -278 311zM400 779c-13 -6 -19 -1 -22 8l-7 18c-3 8 1 15 8 19l148 84c6 4 20 6 25 -8l13 -33c5 -12 -1 -18 -8 -21z" />
    <glyph glyph-name="Ccircumflex" unicode="&#x108;" horiz-adv-x="650" 
d="M61 301c0 225 162 409 379 409c91 0 151 -35 205 -93c7 -7 6 -21 -3 -28l-29 -23c-10 -8 -16 -6 -26 5c-33 38 -98 67 -157 67c-152 0 -287 -153 -287 -328c0 -132 83 -247 206 -247c75 0 123 38 174 78c10 8 18 7 22 3l31 -30c8 -8 3 -20 -4 -27
c-70 -67 -153 -97 -233 -97c-150 0 -278 139 -278 311zM367 771c-9 -7 -18 -5 -22 3l-9 18c-6 12 -1 20 5 24l119 94c5 4 10 7 18 7h3c7 0 15 -7 19 -12l84 -91c4 -5 5 -12 -2 -19l-14 -15c-7 -7 -12 -12 -21 -4l-78 66z" />
    <glyph glyph-name="Ccaron" unicode="&#x10c;" horiz-adv-x="650" 
d="M61 301c0 225 162 409 379 409c91 0 151 -35 205 -93c7 -7 6 -21 -3 -28l-29 -23c-10 -8 -16 -6 -26 5c-33 38 -98 67 -157 67c-152 0 -287 -153 -287 -328c0 -132 83 -247 206 -247c75 0 123 38 174 78c10 8 18 7 22 3l31 -30c8 -8 3 -20 -4 -27
c-70 -67 -153 -97 -233 -97c-150 0 -278 139 -278 311zM455 764c-7 0 -15 7 -19 12l-84 91c-4 5 -5 12 2 19l14 15c7 7 12 12 21 4l78 -66l102 71c9 7 18 5 22 -3l9 -18c6 -12 1 -20 -5 -24l-119 -94c-5 -4 -10 -7 -18 -7h-3z" />
    <glyph glyph-name="Cdotaccent" unicode="&#x10a;" horiz-adv-x="650" 
d="M61 301c0 225 162 409 379 409c91 0 151 -35 205 -93c7 -7 6 -21 -3 -28l-29 -23c-10 -8 -16 -6 -26 5c-33 38 -98 67 -157 67c-152 0 -287 -153 -287 -328c0 -132 83 -247 206 -247c75 0 123 38 174 78c10 8 18 7 22 3l31 -30c8 -8 3 -20 -4 -27
c-70 -67 -153 -97 -233 -97c-150 0 -278 139 -278 311zM463 796c-26 0 -46 23 -46 50c0 36 30 64 62 64c27 0 46 -22 46 -50c0 -35 -29 -64 -62 -64z" />
    <glyph glyph-name="Ccedilla" unicode="&#xc7;" horiz-adv-x="652" 
d="M283 -76l10 71c-129 25 -231 152 -231 306c0 225 162 409 379 409c91 0 151 -35 205 -93c7 -7 6 -21 -3 -28l-29 -23c-10 -8 -16 -6 -26 5c-33 38 -98 67 -157 67c-152 0 -287 -153 -287 -328c0 -132 83 -247 206 -247c75 0 123 38 174 78c10 8 18 7 22 3l31 -30
c8 -8 3 -20 -4 -27c-70 -67 -152 -96 -231 -97l-5 -44c47 -9 80 -42 80 -96c0 -57 -39 -110 -105 -110c-30 0 -56 16 -68 36c-6 9 -3 19 3 25l12 11c6 6 15 6 20 0c10 -12 23 -18 36 -18c26 0 46 24 46 55c0 39 -36 49 -65 55c-14 3 -14 15 -13 20z" />
    <glyph glyph-name="Dcaron" unicode="&#x10e;" horiz-adv-x="690" 
d="M63 19l93 662c1 10 10 19 19 19h203c157 0 271 -148 271 -304c0 -217 -164 -396 -369 -396h-204c-9 0 -15 9 -13 19zM146 69h129c159 0 290 137 290 325c0 138 -83 238 -210 238h-130zM364 764c-7 0 -15 7 -19 12l-84 91c-4 5 -5 12 2 19l14 15c7 7 12 12 21 4l78 -66
l102 71c9 7 18 5 22 -3l9 -18c6 -12 1 -20 -5 -24l-119 -94c-5 -4 -10 -7 -18 -7h-3z" />
    <glyph glyph-name="Dcroat" unicode="&#x110;" horiz-adv-x="694" 
d="M67 19l43 305h-27c-9 0 -14 9 -13 19l1 7c1 10 10 19 19 19h26l44 312c1 10 10 19 19 19h203c157 0 271 -142 271 -304c0 -217 -165 -396 -369 -396h-204c-9 0 -15 9 -13 19zM150 69h129c159 0 290 137 290 325c0 138 -83 238 -210 238h-130l-37 -263h183
c10 0 16 -9 14 -19l-1 -8c-1 -10 -9 -18 -19 -18h-184z" />
    <glyph glyph-name="Eth" unicode="&#xd0;" horiz-adv-x="694" 
d="M67 19l43 305h-27c-9 0 -14 9 -13 19l1 7c1 10 10 19 19 19h26l44 312c1 10 10 19 19 19h203c157 0 271 -142 271 -304c0 -217 -165 -396 -369 -396h-204c-9 0 -15 9 -13 19zM150 69h129c159 0 290 137 290 325c0 138 -83 238 -210 238h-130l-37 -263h183
c10 0 16 -9 14 -19l-1 -8c-1 -10 -9 -18 -19 -18h-184z" />
    <glyph glyph-name="Egrave" unicode="&#xc8;" horiz-adv-x="548" 
d="M63 19l93 662c1 10 10 19 19 19h357c10 0 16 -9 14 -19l-4 -29c-1 -10 -10 -19 -20 -19h-296l-35 -244h253c9 0 16 -9 14 -19l-4 -29c-1 -11 -10 -19 -19 -19h-253l-36 -255h297c10 0 16 -9 14 -19l-4 -29c-1 -10 -10 -19 -20 -19h-356c-10 0 -16 9 -14 19zM426 783
l-132 64c-12 6 -12 16 -7 24l21 34c6 9 19 7 24 3l125 -84c5 -3 8 -11 3 -19l-12 -20c-5 -8 -10 -8 -22 -2z" />
    <glyph glyph-name="Eacute" unicode="&#xc9;" horiz-adv-x="548" 
d="M63 19l93 662c1 10 10 19 19 19h357c10 0 16 -9 14 -19l-4 -29c-1 -10 -10 -19 -20 -19h-296l-35 -244h253c9 0 16 -9 14 -19l-4 -29c-1 -11 -10 -19 -19 -19h-253l-36 -255h297c10 0 16 -9 14 -19l-4 -29c-1 -10 -10 -19 -20 -19h-356c-10 0 -16 9 -14 19zM305 779
c-13 -6 -19 -1 -22 8l-7 18c-3 8 1 15 8 19l148 84c6 4 20 6 25 -8l13 -33c5 -12 -1 -18 -8 -21z" />
    <glyph glyph-name="Ecircumflex" unicode="&#xca;" horiz-adv-x="548" 
d="M63 19l93 662c1 10 10 19 19 19h357c10 0 16 -9 14 -19l-4 -29c-1 -10 -10 -19 -20 -19h-296l-35 -244h253c9 0 16 -9 14 -19l-4 -29c-1 -11 -10 -19 -19 -19h-253l-36 -255h297c10 0 16 -9 14 -19l-4 -29c-1 -10 -10 -19 -20 -19h-356c-10 0 -16 9 -14 19zM270 771
c-9 -7 -18 -5 -22 3l-9 18c-6 12 -1 20 5 24l119 94c5 4 10 7 18 7h3c7 0 15 -7 19 -12l84 -91c4 -5 5 -12 -2 -19l-14 -15c-7 -7 -12 -12 -21 -4l-78 66z" />
    <glyph glyph-name="Ecaron" unicode="&#x11a;" horiz-adv-x="548" 
d="M63 19l93 662c1 10 10 19 19 19h357c10 0 16 -9 14 -19l-4 -29c-1 -10 -10 -19 -20 -19h-296l-35 -244h253c9 0 16 -9 14 -19l-4 -29c-1 -11 -10 -19 -19 -19h-253l-36 -255h297c10 0 16 -9 14 -19l-4 -29c-1 -10 -10 -19 -20 -19h-356c-10 0 -16 9 -14 19zM355 764
c-7 0 -15 7 -19 12l-84 91c-4 5 -5 12 2 19l14 15c7 7 12 12 21 4l78 -66l102 71c9 7 18 5 22 -3l9 -18c6 -12 1 -20 -5 -24l-119 -94c-5 -4 -10 -7 -18 -7h-3z" />
    <glyph glyph-name="Edieresis" unicode="&#xcb;" horiz-adv-x="548" 
d="M63 19l93 662c1 10 10 19 19 19h357c10 0 16 -9 14 -19l-4 -29c-1 -10 -10 -19 -20 -19h-296l-35 -244h253c9 0 16 -9 14 -19l-4 -29c-1 -11 -10 -19 -19 -19h-253l-36 -255h297c10 0 16 -9 14 -19l-4 -29c-1 -10 -10 -19 -20 -19h-356c-10 0 -16 9 -14 19zM457 792
c-23 0 -39 18 -39 41c0 30 25 54 52 54c23 0 40 -18 40 -42c0 -29 -26 -53 -53 -53zM262 792c-23 0 -39 18 -39 41c0 30 25 54 52 54c23 0 40 -18 40 -42c0 -29 -26 -53 -53 -53z" />
    <glyph glyph-name="Emacron" unicode="&#x112;" horiz-adv-x="548" 
d="M63 19l93 662c1 10 10 19 19 19h357c10 0 16 -9 14 -19l-4 -29c-1 -10 -10 -19 -20 -19h-296l-35 -244h253c9 0 16 -9 14 -19l-4 -29c-1 -11 -10 -19 -19 -19h-253l-36 -255h297c10 0 16 -9 14 -19l-4 -29c-1 -10 -10 -19 -20 -19h-356c-10 0 -16 9 -14 19zM247 821
c-9 0 -15 8 -14 18l3 21c1 11 10 19 20 19h230c10 0 16 -8 14 -19l-2 -21c-2 -10 -10 -18 -20 -18h-231z" />
    <glyph glyph-name="Ebreve" unicode="&#x114;" horiz-adv-x="548" 
d="M63 19l93 662c1 10 10 19 19 19h357c10 0 16 -9 14 -19l-4 -29c-1 -10 -10 -19 -20 -19h-296l-35 -244h253c9 0 16 -9 14 -19l-4 -29c-1 -11 -10 -19 -19 -19h-253l-36 -255h297c10 0 16 -9 14 -19l-4 -29c-1 -10 -10 -19 -20 -19h-356c-10 0 -16 9 -14 19zM365 771
c-58 0 -107 49 -106 114c0 11 5 20 16 20h19c10 0 14 -8 15 -17c6 -38 27 -64 62 -64c32 0 63 29 78 64c5 11 11 17 19 17h25c10 0 14 -9 10 -20c-19 -65 -70 -114 -138 -114z" />
    <glyph glyph-name="Edotaccent" unicode="&#x116;" horiz-adv-x="548" 
d="M63 19l93 662c1 10 10 19 19 19h357c10 0 16 -9 14 -19l-4 -29c-1 -10 -10 -19 -20 -19h-296l-35 -244h253c9 0 16 -9 14 -19l-4 -29c-1 -11 -10 -19 -19 -19h-253l-36 -255h297c10 0 16 -9 14 -19l-4 -29c-1 -10 -10 -19 -20 -19h-356c-10 0 -16 9 -14 19zM367 796
c-26 0 -46 23 -46 50c0 36 30 64 62 64c27 0 46 -22 46 -50c0 -35 -29 -64 -62 -64z" />
    <glyph glyph-name="Eogonek" unicode="&#x118;" horiz-adv-x="548" 
d="M63 19l93 662c1 10 10 19 19 19h357c10 0 16 -9 14 -19l-4 -29c-1 -10 -10 -19 -20 -19h-296l-35 -244h253c9 0 16 -9 14 -19l-4 -29c-1 -11 -10 -19 -19 -19h-253l-36 -255h297c10 0 16 -9 14 -19l-3 -23c-2 -15 -11 -19 -19 -25c-20 -17 -56 -57 -56 -107
c0 -28 19 -49 45 -49c22 0 38 9 51 16c8 4 16 -1 14 -14l-3 -24c-1 -10 -8 -14 -15 -18c-9 -5 -35 -15 -63 -15c-45 0 -87 28 -87 85c0 64 42 107 65 126h-309c-10 0 -16 9 -14 19z" />
    <glyph glyph-name="Gcircumflex" unicode="&#x11c;" horiz-adv-x="676" 
d="M61 301c0 225 163 409 379 409c91 0 152 -35 206 -93c7 -7 6 -21 -3 -28l-35 -29c-10 -8 -16 -6 -26 5c-33 38 -91 73 -150 73c-152 0 -287 -150 -287 -325c0 -133 82 -249 205 -249c91 0 156 42 159 42l20 143h-99c-10 0 -16 8 -14 18l5 34c1 11 10 19 20 19h158
c8 0 15 -8 14 -17l-32 -233c-1 -7 -4 -13 -10 -16c0 0 -101 -64 -232 -64c-154 0 -278 139 -278 311zM366 771c-9 -7 -18 -5 -22 3l-9 18c-6 12 -1 20 5 24l119 94c5 4 10 7 18 7h3c7 0 15 -7 19 -12l84 -91c4 -5 5 -12 -2 -19l-14 -15c-7 -7 -12 -12 -21 -4l-78 66z" />
    <glyph glyph-name="Gbreve" unicode="&#x11e;" horiz-adv-x="676" 
d="M61 301c0 225 163 409 379 409c91 0 152 -35 206 -93c7 -7 6 -21 -3 -28l-35 -29c-10 -8 -16 -6 -26 5c-33 38 -91 73 -150 73c-152 0 -287 -150 -287 -325c0 -133 82 -249 205 -249c91 0 156 42 159 42l20 143h-99c-10 0 -16 8 -14 18l5 34c1 11 10 19 20 19h158
c8 0 15 -8 14 -17l-32 -233c-1 -7 -4 -13 -10 -16c0 0 -101 -64 -232 -64c-154 0 -278 139 -278 311zM464 771c-58 0 -107 49 -106 114c0 11 5 20 16 20h19c10 0 14 -8 15 -17c6 -38 27 -64 62 -64c32 0 63 29 78 64c5 11 11 17 19 17h25c10 0 14 -9 10 -20
c-19 -65 -70 -114 -138 -114z" />
    <glyph glyph-name="Gdotaccent" unicode="&#x120;" horiz-adv-x="676" 
d="M61 301c0 225 163 409 379 409c91 0 152 -35 206 -93c7 -7 6 -21 -3 -28l-35 -29c-10 -8 -16 -6 -26 5c-33 38 -91 73 -150 73c-152 0 -287 -150 -287 -325c0 -133 82 -249 205 -249c91 0 156 42 159 42l20 143h-99c-10 0 -16 8 -14 18l5 34c1 11 10 19 20 19h158
c8 0 15 -8 14 -17l-32 -233c-1 -7 -4 -13 -10 -16c0 0 -101 -64 -232 -64c-154 0 -278 139 -278 311zM462 796c-26 0 -46 23 -46 50c0 36 30 64 62 64c27 0 46 -22 46 -50c0 -35 -29 -64 -62 -64z" />
    <glyph glyph-name="Gcommaaccent" unicode="&#x122;" horiz-adv-x="676" 
d="M61 301c0 225 163 409 379 409c91 0 152 -35 206 -93c7 -7 6 -21 -3 -28l-35 -29c-10 -8 -16 -6 -26 5c-33 38 -91 73 -150 73c-152 0 -287 -150 -287 -325c0 -133 82 -249 205 -249c91 0 156 42 159 42l20 143h-99c-10 0 -16 8 -14 18l5 34c1 11 10 19 20 19h158
c8 0 15 -8 14 -17l-32 -233c-1 -7 -4 -13 -10 -16c0 0 -101 -64 -232 -64c-154 0 -278 139 -278 311zM277 -156c0 36 31 64 65 64c26 0 53 -15 53 -68c0 -94 -70 -174 -108 -207c-9 -9 -17 -8 -21 -2l-11 14c-4 5 -4 12 6 21c11 9 68 56 78 129c-3 -1 -8 -1 -14 -1
c-27 0 -48 23 -48 50z" />
    <glyph glyph-name="Hcircumflex" unicode="&#x124;" horiz-adv-x="707" 
d="M63 19l93 662c2 10 11 19 20 19h43c10 0 16 -9 15 -19l-42 -292h354l41 292c2 10 10 19 20 19h43c9 0 16 -9 14 -19l-93 -662c-1 -10 -10 -19 -19 -19h-43c-10 0 -16 9 -15 19l43 303h-354l-43 -303c-1 -10 -9 -19 -19 -19h-43c-9 0 -16 9 -15 19zM333 771
c-9 -7 -18 -5 -22 3l-9 18c-6 12 -1 20 5 24l119 94c5 4 10 7 18 7h3c7 0 15 -7 19 -12l84 -91c4 -5 5 -12 -2 -19l-14 -15c-7 -7 -12 -12 -21 -4l-78 66z" />
    <glyph glyph-name="Hbar" unicode="&#x126;" horiz-adv-x="707" 
d="M63 19l73 517h-20c-12 0 -16 9 -14 19l2 12c2 10 9 14 18 14h20l14 100c2 10 11 19 20 19h43c10 0 16 -9 15 -19l-15 -100h354l14 100c2 10 10 19 20 19h43c9 0 16 -9 14 -19l-14 -100h20c10 0 15 -6 14 -16l-1 -12c-1 -10 -10 -17 -19 -17h-20l-73 -517
c-1 -10 -10 -19 -19 -19h-43c-10 0 -16 9 -15 19l43 303h-354l-43 -303c-1 -10 -9 -19 -19 -19h-43c-9 0 -16 9 -15 19zM192 389h354l21 147h-354z" />
    <glyph glyph-name="Igrave" unicode="&#xcc;" horiz-adv-x="276" 
d="M63 19l93 662c1 10 10 19 19 19h44c9 0 16 -9 14 -19l-93 -662c-1 -10 -10 -19 -19 -19h-44c-9 0 -16 9 -14 19zM269 783l-132 64c-12 6 -12 16 -7 24l21 34c6 9 19 7 24 3l125 -84c5 -3 8 -11 3 -19l-12 -20c-5 -8 -10 -8 -22 -2z" />
    <glyph glyph-name="Iacute" unicode="&#xcd;" horiz-adv-x="276" 
d="M63 19l93 662c1 10 10 19 19 19h44c9 0 16 -9 14 -19l-93 -662c-1 -10 -10 -19 -19 -19h-44c-9 0 -16 9 -14 19zM147 779c-13 -6 -19 -1 -22 8l-7 18c-3 8 1 15 8 19l148 84c6 4 20 6 25 -8l13 -33c5 -12 -1 -18 -8 -21z" />
    <glyph glyph-name="Ibreve" unicode="&#x12c;" horiz-adv-x="276" 
d="M63 19l93 662c1 10 10 19 19 19h44c9 0 16 -9 14 -19l-93 -662c-1 -10 -10 -19 -19 -19h-44c-9 0 -16 9 -14 19zM208 771c-58 0 -107 49 -106 114c0 11 5 20 16 20h19c10 0 14 -8 15 -17c6 -38 27 -64 62 -64c32 0 63 29 78 64c5 11 11 17 19 17h25c10 0 14 -9 10 -20
c-19 -65 -70 -114 -138 -114z" />
    <glyph glyph-name="Icircumflex" unicode="&#xce;" horiz-adv-x="276" 
d="M63 19l93 662c1 10 10 19 19 19h44c9 0 16 -9 14 -19l-93 -662c-1 -10 -10 -19 -19 -19h-44c-9 0 -16 9 -14 19zM113 771c-9 -7 -18 -5 -22 3l-9 18c-6 12 -1 20 5 24l119 94c5 4 10 7 18 7h3c7 0 15 -7 19 -12l84 -91c4 -5 5 -12 -2 -19l-14 -15c-7 -7 -12 -12 -21 -4
l-78 66z" />
    <glyph glyph-name="Itilde" unicode="&#x128;" horiz-adv-x="276" 
d="M63 19l93 662c1 10 10 19 19 19h44c9 0 16 -9 14 -19l-93 -662c-1 -10 -10 -19 -19 -19h-44c-9 0 -16 9 -14 19zM100 795l-16 8c-9 6 -7 16 -4 23c7 18 38 84 97 84c52 0 60 -72 89 -72c24 0 36 30 42 47c4 10 12 19 25 11l14 -8c8 -5 10 -15 7 -23
c-8 -26 -39 -85 -96 -85c-45 0 -64 73 -88 73c-27 0 -39 -33 -46 -50c-4 -9 -15 -14 -24 -8z" />
    <glyph glyph-name="Idieresis" unicode="&#xcf;" horiz-adv-x="276" 
d="M63 19l93 662c1 10 10 19 19 19h44c9 0 16 -9 14 -19l-93 -662c-1 -10 -10 -19 -19 -19h-44c-9 0 -16 9 -14 19zM306 792c-23 0 -39 18 -39 41c0 30 25 54 52 54c23 0 40 -18 40 -42c0 -29 -26 -53 -53 -53zM111 792c-23 0 -39 18 -39 41c0 30 25 54 52 54
c23 0 40 -18 40 -42c0 -29 -26 -53 -53 -53z" />
    <glyph glyph-name="Imacron" unicode="&#x12a;" horiz-adv-x="276" 
d="M63 19l93 662c1 10 10 19 19 19h44c9 0 16 -9 14 -19l-93 -662c-1 -10 -10 -19 -19 -19h-44c-9 0 -16 9 -14 19zM97 821c-9 0 -15 8 -14 18l3 21c1 11 10 19 20 19h230c10 0 16 -8 14 -19l-2 -21c-2 -10 -10 -18 -20 -18h-231z" />
    <glyph glyph-name="Idotaccent" unicode="&#x130;" horiz-adv-x="276" 
d="M63 19l93 662c1 10 10 19 19 19h44c9 0 16 -9 14 -19l-93 -662c-1 -10 -10 -19 -19 -19h-44c-9 0 -16 9 -14 19zM209 796c-26 0 -46 23 -46 50c0 36 30 64 62 64c27 0 46 -22 46 -50c0 -35 -29 -64 -62 -64z" />
    <glyph glyph-name="Iogonek" unicode="&#x12e;" horiz-adv-x="276" 
d="M63 19l93 662c1 10 10 19 19 19h44c9 0 16 -9 14 -19l-93 -662c-1 -10 -10 -19 -19 -19h-7c-20 -17 -56 -57 -56 -107c0 -28 19 -49 45 -49c22 0 38 9 51 16c8 4 16 -1 14 -14l-3 -24c-1 -10 -8 -14 -15 -18c-9 -5 -35 -15 -63 -15c-45 0 -87 28 -87 85
c0 67 46 112 68 129c-4 3 -7 9 -5 16z" />
    <glyph glyph-name="Jcircumflex" unicode="&#x134;" horiz-adv-x="386" 
d="M-39 62c-6 10 -3 21 4 27l22 20c12 10 21 7 31 -6c11 -15 43 -45 85 -45c45 0 103 43 118 149l67 474c1 10 10 19 20 19h43c10 0 16 -9 14 -19l-66 -472c-21 -149 -87 -219 -201 -219c-76 0 -123 51 -137 72zM245 771c-9 -7 -18 -5 -22 3l-9 18c-6 12 -1 20 5 24l119 94
c5 4 10 7 18 7h3c7 0 15 -7 19 -12l84 -91c4 -5 5 -12 -2 -19l-14 -15c-7 -7 -12 -12 -21 -4l-78 66z" />
    <glyph glyph-name="Kcommaaccent" unicode="&#x136;" horiz-adv-x="571" 
d="M63 24l92 652c2 13 12 24 25 24h34c12 0 21 -11 19 -24l-40 -283l314 297c4 5 13 10 18 10h52c16 0 27 -17 11 -32l-326 -306l237 -336c6 -7 3 -26 -17 -26h-48c-6 0 -14 4 -15 7l-233 335l-45 -318c-2 -13 -13 -24 -25 -24h-34c-13 0 -20 11 -19 24zM186 -156
c0 36 31 64 65 64c26 0 53 -15 53 -68c0 -94 -70 -174 -108 -207c-9 -9 -17 -8 -21 -2l-11 14c-4 5 -4 12 6 21c11 9 68 56 78 129c-3 -1 -8 -1 -14 -1c-27 0 -48 23 -48 50z" />
    <glyph glyph-name="Lacute" unicode="&#x139;" horiz-adv-x="449" 
d="M63 19l93 662c2 10 10 19 20 19h43c9 0 16 -9 15 -19l-87 -614h255c9 0 15 -9 14 -19l-4 -29c-2 -10 -10 -19 -20 -19h-314c-10 0 -16 9 -15 19zM150 779c-13 -6 -19 -1 -22 8l-7 18c-3 8 1 15 8 19l148 84c6 4 20 6 25 -8l13 -33c5 -12 -1 -18 -8 -21z" />
    <glyph glyph-name="Lcaron" unicode="&#x13d;" horiz-adv-x="449" 
d="M63 19l93 662c2 10 10 19 20 19h43c9 0 16 -9 15 -19l-87 -614h255c9 0 15 -9 14 -19l-4 -29c-2 -10 -10 -19 -20 -19h-314c-10 0 -16 9 -15 19zM341 646c0 36 31 64 65 64c26 0 53 -15 53 -68c0 -94 -70 -174 -108 -207c-9 -9 -17 -8 -21 -2l-11 14c-4 5 -4 12 6 21
c11 9 68 56 78 129c-3 -1 -8 -1 -14 -1c-27 0 -48 23 -48 50z" />
    <glyph glyph-name="Lcommaaccent" unicode="&#x13b;" horiz-adv-x="450" 
d="M63 19l93 662c2 10 10 19 20 19h43c9 0 16 -9 15 -19l-87 -614h255c9 0 15 -9 14 -19l-4 -29c-2 -10 -10 -19 -20 -19h-314c-10 0 -16 9 -15 19zM164 -156c0 36 31 64 65 64c26 0 53 -15 53 -68c0 -94 -70 -174 -108 -207c-9 -9 -17 -8 -21 -2l-11 14c-4 5 -4 12 6 21
c11 9 68 56 78 129c-3 -1 -8 -1 -14 -1c-27 0 -48 23 -48 50z" />
    <glyph glyph-name="Lslash" unicode="&#x141;" horiz-adv-x="454" 
d="M67 19l41 292l-20 -12c-8 -5 -19 -4 -22 7l-3 10c-3 9 1 17 10 22l43 24l44 319c2 10 10 19 20 19h43c9 0 16 -9 15 -19l-39 -274l105 64c10 6 17 4 21 -4l5 -11c4 -9 1 -16 -11 -24l-127 -76l-41 -289h255c9 0 15 -9 14 -19l-4 -29c-2 -10 -10 -19 -20 -19h-314
c-10 0 -16 9 -15 19z" />
    <glyph glyph-name="Ldot" unicode="&#x13f;" horiz-adv-x="517" 
d="M63 19l93 662c2 10 10 19 20 19h43c9 0 16 -9 15 -19l-87 -614h255c9 0 15 -9 14 -19l-4 -29c-2 -10 -10 -19 -20 -19h-314c-10 0 -16 9 -15 19zM430 292c-26 0 -46 23 -46 50c0 36 30 64 62 64c27 0 46 -22 46 -50c0 -35 -29 -64 -62 -64z" />
    <glyph glyph-name="Nacute" unicode="&#x143;" horiz-adv-x="716" 
d="M63 19l94 673c1 10 11 18 22 18h25l322 -561h1l75 532c1 10 11 19 23 19h32c11 0 18 -9 17 -19l-95 -673c-1 -10 -11 -18 -22 -18h-25l-323 571h-2l-73 -542c-1 -10 -12 -19 -23 -19h-32c-11 0 -17 9 -16 19zM367 779c-13 -6 -19 -1 -22 8l-7 18c-3 8 1 15 8 19l148 84
c6 4 20 6 25 -8l13 -33c5 -12 -1 -18 -8 -21z" />
    <glyph glyph-name="Ncaron" unicode="&#x147;" horiz-adv-x="716" 
d="M63 19l94 673c1 10 11 18 22 18h25l322 -561h1l75 532c1 10 11 19 23 19h32c11 0 18 -9 17 -19l-95 -673c-1 -10 -11 -18 -22 -18h-25l-323 571h-2l-73 -542c-1 -10 -12 -19 -23 -19h-32c-11 0 -17 9 -16 19zM418 764c-7 0 -15 7 -19 12l-84 91c-4 5 -5 12 2 19l14 15
c7 7 12 12 21 4l78 -66l102 71c9 7 18 5 22 -3l9 -18c6 -12 1 -20 -5 -24l-119 -94c-5 -4 -10 -7 -18 -7h-3z" />
    <glyph glyph-name="Ntilde" unicode="&#xd1;" horiz-adv-x="716" 
d="M63 19l94 673c1 10 11 18 22 18h25l322 -561h1l75 532c1 10 11 19 23 19h32c11 0 18 -9 17 -19l-95 -673c-1 -10 -11 -18 -22 -18h-25l-323 571h-2l-73 -542c-1 -10 -12 -19 -23 -19h-32c-11 0 -17 9 -16 19zM316 795l-16 8c-9 6 -7 16 -4 23c7 18 38 84 97 84
c52 0 60 -72 89 -72c24 0 36 30 42 47c4 10 12 19 25 11l14 -8c8 -5 10 -15 7 -23c-8 -26 -39 -85 -96 -85c-45 0 -64 73 -88 73c-27 0 -39 -33 -46 -50c-4 -9 -15 -14 -24 -8z" />
    <glyph glyph-name="Ncommaaccent" unicode="&#x145;" horiz-adv-x="716" 
d="M63 19l94 673c1 10 11 18 22 18h25l322 -561h1l75 532c1 10 11 19 23 19h32c11 0 18 -9 17 -19l-95 -673c-1 -10 -11 -18 -22 -18h-25l-323 571h-2l-73 -542c-1 -10 -12 -19 -23 -19h-32c-11 0 -17 9 -16 19zM239 -156c0 36 31 64 65 64c26 0 53 -15 53 -68
c0 -94 -70 -174 -108 -207c-9 -9 -17 -8 -21 -2l-11 14c-4 5 -4 12 6 21c11 9 68 56 78 129c-3 -1 -8 -1 -14 -1c-27 0 -48 23 -48 50z" />
    <glyph glyph-name="Ograve" unicode="&#xd2;" horiz-adv-x="758" 
d="M340 -10c-176 0 -305 159 -278 359c29 200 186 361 375 361c176 0 307 -161 278 -361c-28 -200 -184 -359 -375 -359zM348 60c141 0 274 130 296 289c23 159 -74 291 -215 291s-273 -132 -296 -291c-22 -159 74 -289 215 -289zM516 783l-132 64c-12 6 -12 16 -7 24l21 34
c6 9 19 7 24 3l125 -84c5 -3 8 -11 3 -19l-12 -20c-5 -8 -10 -8 -22 -2z" />
    <glyph glyph-name="Oacute" unicode="&#xd3;" horiz-adv-x="758" 
d="M340 -10c-176 0 -305 159 -278 359c29 200 186 361 375 361c176 0 307 -161 278 -361c-28 -200 -184 -359 -375 -359zM348 60c141 0 274 130 296 289c23 159 -74 291 -215 291s-273 -132 -296 -291c-22 -159 74 -289 215 -289zM394 779c-13 -6 -19 -1 -22 8l-7 18
c-3 8 1 15 8 19l148 84c6 4 20 6 25 -8l13 -33c5 -12 -1 -18 -8 -21z" />
    <glyph glyph-name="Ocircumflex" unicode="&#xd4;" horiz-adv-x="758" 
d="M340 -10c-176 0 -305 159 -278 359c29 200 186 361 375 361c176 0 307 -161 278 -361c-28 -200 -184 -359 -375 -359zM348 60c141 0 274 130 296 289c23 159 -74 291 -215 291s-273 -132 -296 -291c-22 -159 74 -289 215 -289zM359 771c-9 -7 -18 -5 -22 3l-9 18
c-6 12 -1 20 5 24l119 94c5 4 10 7 18 7h3c7 0 15 -7 19 -12l84 -91c4 -5 5 -12 -2 -19l-14 -15c-7 -7 -12 -12 -21 -4l-78 66z" />
    <glyph glyph-name="Otilde" unicode="&#xd5;" horiz-adv-x="758" 
d="M340 -10c-176 0 -305 159 -278 359c29 200 186 361 375 361c176 0 307 -161 278 -361c-28 -200 -184 -359 -375 -359zM348 60c141 0 274 130 296 289c23 159 -74 291 -215 291s-273 -132 -296 -291c-22 -159 74 -289 215 -289zM346 795l-16 8c-9 6 -7 16 -4 23
c7 18 38 84 97 84c52 0 60 -72 89 -72c24 0 36 30 42 47c4 10 12 19 25 11l14 -8c8 -5 10 -15 7 -23c-8 -26 -39 -85 -96 -85c-45 0 -64 73 -88 73c-27 0 -39 -33 -46 -50c-4 -9 -15 -14 -24 -8z" />
    <glyph glyph-name="Odieresis" unicode="&#xd6;" horiz-adv-x="758" 
d="M340 -10c-176 0 -305 159 -278 359c29 200 186 361 375 361c176 0 307 -161 278 -361c-28 -200 -184 -359 -375 -359zM348 60c141 0 274 130 296 289c23 159 -74 291 -215 291s-273 -132 -296 -291c-22 -159 74 -289 215 -289zM552 792c-23 0 -39 18 -39 41
c0 30 25 54 52 54c23 0 40 -18 40 -42c0 -29 -26 -53 -53 -53zM357 792c-23 0 -39 18 -39 41c0 30 25 54 52 54c23 0 40 -18 40 -42c0 -29 -26 -53 -53 -53z" />
    <glyph glyph-name="Omacron" unicode="&#x14c;" horiz-adv-x="758" 
d="M340 -10c-176 0 -305 159 -278 359c29 200 186 361 375 361c176 0 307 -161 278 -361c-28 -200 -184 -359 -375 -359zM348 60c141 0 274 130 296 289c23 159 -74 291 -215 291s-273 -132 -296 -291c-22 -159 74 -289 215 -289zM344 821c-9 0 -15 8 -14 18l3 21
c1 11 10 19 20 19h230c10 0 16 -8 14 -19l-2 -21c-2 -10 -10 -18 -20 -18h-231z" />
    <glyph glyph-name="Obreve" unicode="&#x14e;" horiz-adv-x="758" 
d="M340 -10c-176 0 -305 159 -278 359c29 200 186 361 375 361c176 0 307 -161 278 -361c-28 -200 -184 -359 -375 -359zM348 60c141 0 274 130 296 289c23 159 -74 291 -215 291s-273 -132 -296 -291c-22 -159 74 -289 215 -289zM455 771c-58 0 -107 49 -106 114
c0 11 5 20 16 20h19c10 0 14 -8 15 -17c6 -38 27 -64 62 -64c32 0 63 29 78 64c5 11 11 17 19 17h25c10 0 14 -9 10 -20c-19 -65 -70 -114 -138 -114z" />
    <glyph glyph-name="Ohungarumlaut" unicode="&#x150;" horiz-adv-x="758" 
d="M340 -10c-176 0 -305 159 -278 359c29 200 186 361 375 361c176 0 307 -161 278 -361c-28 -200 -184 -359 -375 -359zM348 60c141 0 274 130 296 289c23 159 -74 291 -215 291s-273 -132 -296 -291c-22 -159 74 -289 215 -289zM517 769c-9 0 -16 9 -12 19l63 141
c4 10 11 19 20 19h40c17 0 21 -12 13 -25l-90 -139c-5 -8 -11 -15 -19 -15h-15zM368 769c-9 0 -16 9 -12 19l63 141c4 10 11 19 20 19h40c17 0 21 -12 13 -25l-90 -139c-5 -8 -11 -15 -19 -15h-15z" />
    <glyph glyph-name="Oslash" unicode="&#xd8;" horiz-adv-x="759" 
d="M47 22c-5 7 -5 19 3 26l64 62c-43 63 -64 147 -51 239c29 200 186 361 375 361c82 0 154 -35 205 -93l67 65c7 7 18 7 23 0l5 -5c5 -7 3 -19 -4 -26l-67 -65c42 -63 62 -146 49 -237c-28 -200 -184 -359 -375 -359c-81 0 -152 34 -202 89l-65 -62c-7 -7 -18 -6 -23 1z
M169 162l420 404c-39 46 -94 74 -159 74c-141 0 -273 -132 -296 -291c-10 -71 4 -137 35 -187zM192 130c38 -44 93 -70 157 -70c141 0 274 130 296 289c10 70 -3 134 -33 185z" />
    <glyph glyph-name="Oslashacute" unicode="&#x1fe;" horiz-adv-x="758" 
d="M46 22c-5 7 -5 19 3 26l64 62c-43 63 -64 147 -51 239c29 200 186 361 375 361c82 0 154 -35 205 -93l67 65c7 7 18 7 23 0l5 -5c5 -7 3 -19 -4 -26l-67 -65c42 -63 62 -146 49 -237c-28 -200 -184 -359 -375 -359c-81 0 -152 34 -202 89l-65 -62c-7 -7 -18 -6 -23 1z
M168 162l420 404c-39 46 -94 74 -159 74c-141 0 -273 -132 -296 -291c-10 -71 4 -137 35 -187zM191 130c38 -44 93 -70 157 -70c141 0 274 130 296 289c10 70 -3 134 -33 185zM392 779c-13 -6 -19 -1 -22 8l-7 18c-3 8 1 15 8 19l148 84c6 4 20 6 25 -8l13 -33
c5 -12 -1 -18 -8 -21z" />
    <glyph glyph-name="OE" unicode="&#x152;" horiz-adv-x="889" 
d="M61 310c0 216 173 400 378 400c42 0 78 -10 78 -10h356c10 0 15 -9 14 -19l-4 -29c-1 -10 -10 -19 -19 -19h-297l-34 -244h252c9 0 17 -9 15 -19l-5 -29c-2 -11 -10 -19 -19 -19h-253l-36 -255h297c10 0 15 -9 14 -19l-4 -29c-1 -10 -10 -19 -19 -19h-357
s-40 -10 -80 -10c-152 0 -277 138 -277 320zM133 310c0 -137 90 -250 215 -250c21 0 41 2 63 7l79 564c-20 5 -40 8 -61 8c-152 0 -296 -150 -296 -329z" />
    <glyph glyph-name="Racute" unicode="&#x154;" horiz-adv-x="613" 
d="M63 19l93 662c1 10 10 19 19 19h225c110 0 181 -88 181 -195c0 -97 -66 -192 -164 -223l87 -253c5 -13 -2 -29 -17 -29h-49c-6 0 -12 5 -13 9l-82 265h-168l-36 -255c-1 -10 -10 -19 -19 -19h-43c-10 0 -16 9 -14 19zM186 340h163c85 0 153 73 153 164
c0 66 -46 123 -112 123h-163zM295 779c-13 -6 -19 -1 -22 8l-7 18c-3 8 1 15 8 19l148 84c6 4 20 6 25 -8l13 -33c5 -12 -1 -18 -8 -21z" />
    <glyph glyph-name="Rcaron" unicode="&#x158;" horiz-adv-x="613" 
d="M63 19l93 662c1 10 10 19 19 19h225c110 0 181 -88 181 -195c0 -97 -66 -192 -164 -223l87 -253c5 -13 -2 -29 -17 -29h-49c-6 0 -12 5 -13 9l-82 265h-168l-36 -255c-1 -10 -10 -19 -19 -19h-43c-10 0 -16 9 -14 19zM186 340h163c85 0 153 73 153 164
c0 66 -46 123 -112 123h-163zM342 764c-7 0 -15 7 -19 12l-84 91c-4 5 -5 12 2 19l14 15c7 7 12 12 21 4l78 -66l102 71c9 7 18 5 22 -3l9 -18c6 -12 1 -20 -5 -24l-119 -94c-5 -4 -10 -7 -18 -7h-3z" />
    <glyph glyph-name="Rcommaaccent" unicode="&#x156;" horiz-adv-x="612" 
d="M63 19l93 662c1 10 10 19 19 19h225c110 0 181 -88 181 -195c0 -97 -66 -192 -164 -223l87 -253c5 -13 -2 -29 -17 -29h-49c-6 0 -12 5 -13 9l-82 265h-168l-36 -255c-1 -10 -10 -19 -19 -19h-43c-10 0 -16 9 -14 19zM186 340h163c85 0 153 73 153 164
c0 66 -46 123 -112 123h-163zM182 -156c0 36 31 64 65 64c26 0 53 -15 53 -68c0 -94 -70 -174 -108 -207c-9 -9 -17 -8 -21 -2l-11 14c-4 5 -4 12 6 21c11 9 68 56 78 129c-3 -1 -8 -1 -14 -1c-27 0 -48 23 -48 50z" />
    <glyph glyph-name="Sacute" unicode="&#x15a;" horiz-adv-x="501" 
d="M35 76c-6 8 -11 16 2 29l16 17c12 12 21 17 32 5c14 -16 61 -70 144 -70c67 0 130 57 130 121c0 63 -47 100 -130 148c-80 46 -134 90 -134 182c0 84 53 202 217 202c97 0 146 -44 155 -51c5 -4 14 -15 1 -34l-11 -16c-11 -13 -21 -19 -33 -9c-21 17 -71 43 -119 43
c-91 0 -134 -76 -134 -126c0 -56 38 -93 101 -127c96 -52 169 -101 169 -204c0 -111 -80 -196 -219 -196c-112 0 -177 74 -187 86zM268 779c-13 -6 -19 -1 -22 8l-7 18c-3 8 1 15 8 19l148 84c6 4 20 6 25 -8l13 -33c5 -12 -1 -18 -8 -21z" />
    <glyph glyph-name="Scircumflex" unicode="&#x15c;" horiz-adv-x="501" 
d="M35 76c-6 8 -11 16 2 29l16 17c12 12 21 17 32 5c14 -16 61 -70 144 -70c67 0 130 57 130 121c0 63 -47 100 -130 148c-80 46 -134 90 -134 182c0 84 53 202 217 202c97 0 146 -44 155 -51c5 -4 14 -15 1 -34l-11 -16c-11 -13 -21 -19 -33 -9c-21 17 -71 43 -119 43
c-91 0 -134 -76 -134 -126c0 -56 38 -93 101 -127c96 -52 169 -101 169 -204c0 -111 -80 -196 -219 -196c-112 0 -177 74 -187 86zM236 771c-9 -7 -18 -5 -22 3l-9 18c-6 12 -1 20 5 24l119 94c5 4 10 7 18 7h3c7 0 15 -7 19 -12l84 -91c4 -5 5 -12 -2 -19l-14 -15
c-7 -7 -12 -12 -21 -4l-78 66z" />
    <glyph glyph-name="Scaron" unicode="&#x160;" horiz-adv-x="501" 
d="M35 76c-6 8 -11 16 2 29l16 17c12 12 21 17 32 5c14 -16 61 -70 144 -70c67 0 130 57 130 121c0 63 -47 100 -130 148c-80 46 -134 90 -134 182c0 84 53 202 217 202c97 0 146 -44 155 -51c5 -4 14 -15 1 -34l-11 -16c-11 -13 -21 -19 -33 -9c-21 17 -71 43 -119 43
c-91 0 -134 -76 -134 -126c0 -56 38 -93 101 -127c96 -52 169 -101 169 -204c0 -111 -80 -196 -219 -196c-112 0 -177 74 -187 86zM325 764c-7 0 -15 7 -19 12l-84 91c-4 5 -5 12 2 19l14 15c7 7 12 12 21 4l78 -66l102 71c9 7 18 5 22 -3l9 -18c6 -12 1 -20 -5 -24
l-119 -94c-5 -4 -10 -7 -18 -7h-3z" />
    <glyph glyph-name="Scedilla" unicode="&#x15e;" horiz-adv-x="502" 
d="M35 76c-6 8 -11 16 2 29l16 17c12 12 21 17 32 5c14 -16 61 -70 144 -70c67 0 130 57 130 121c0 63 -47 100 -130 148c-80 46 -134 90 -134 182c0 84 53 202 217 202c97 0 146 -44 155 -51c5 -4 14 -15 1 -34l-11 -16c-11 -13 -21 -19 -33 -9c-21 17 -71 43 -119 43
c-91 0 -134 -76 -134 -126c0 -56 38 -93 101 -127c96 -52 169 -101 169 -204c0 -110 -78 -194 -215 -196l-5 -44c47 -9 80 -42 80 -96c0 -57 -39 -110 -105 -110c-30 0 -56 16 -68 36c-6 9 -3 19 3 25l12 11c6 6 15 6 20 0c10 -12 23 -18 36 -18c26 0 46 24 46 55
c0 39 -36 49 -65 55c-14 3 -14 15 -13 20l10 70c-85 15 -134 71 -142 82z" />
    <glyph glyph-name="Scommaaccent" unicode="&#x218;" horiz-adv-x="501" 
d="M35 76c-6 8 -11 16 2 29l16 17c12 12 21 17 32 5c14 -16 61 -70 144 -70c67 0 130 57 130 121c0 63 -47 100 -130 148c-80 46 -134 90 -134 182c0 84 53 202 217 202c97 0 146 -44 155 -51c5 -4 14 -15 1 -34l-11 -16c-11 -13 -21 -19 -33 -9c-21 17 -71 43 -119 43
c-91 0 -134 -76 -134 -126c0 -56 38 -93 101 -127c96 -52 169 -101 169 -204c0 -111 -80 -196 -219 -196c-112 0 -177 74 -187 86zM140 -156c0 36 31 64 65 64c26 0 53 -15 53 -68c0 -94 -70 -174 -108 -207c-9 -9 -17 -8 -21 -2l-11 14c-4 5 -4 12 6 21c11 9 68 56 78 129
c-3 -1 -8 -1 -14 -1c-27 0 -48 23 -48 50z" />
    <glyph glyph-name="Tcaron" unicode="&#x164;" horiz-adv-x="435" 
d="M141 19l86 614h-153c-10 0 -16 9 -14 19l4 29c1 10 10 19 19 19h384c10 0 16 -9 14 -19l-4 -29c-1 -10 -10 -19 -20 -19h-153l-86 -614c-2 -10 -11 -19 -20 -19h-42c-9 0 -16 9 -15 19zM282 764c-7 0 -15 7 -19 12l-84 91c-4 5 -5 12 2 19l14 15c7 7 12 12 21 4l78 -66
l102 71c9 7 18 5 22 -3l9 -18c6 -12 1 -20 -5 -24l-119 -94c-5 -4 -10 -7 -18 -7h-3z" />
    <glyph glyph-name="Tcommaaccent" unicode="&#x162;" horiz-adv-x="434" 
d="M141 19l86 614h-153c-10 0 -16 9 -14 19l4 29c1 10 10 19 19 19h384c10 0 16 -9 14 -19l-4 -29c-1 -10 -10 -19 -20 -19h-153l-86 -614c-2 -10 -11 -19 -20 -19h-42c-9 0 -16 9 -15 19zM98 -156c0 36 31 64 65 64c26 0 53 -15 53 -68c0 -94 -70 -174 -108 -207
c-9 -9 -17 -8 -21 -2l-11 14c-4 5 -4 12 6 21c11 9 68 56 78 129c-3 -1 -8 -1 -14 -1c-27 0 -48 23 -48 50z" />
    <glyph glyph-name="uni021A" unicode="&#x21a;" horiz-adv-x="434" 
d="M141 19l86 614h-153c-10 0 -16 9 -14 19l4 29c1 10 10 19 19 19h384c10 0 16 -9 14 -19l-4 -29c-1 -10 -10 -19 -20 -19h-153l-86 -614c-2 -10 -11 -19 -20 -19h-42c-9 0 -16 9 -15 19zM97 -156c0 36 31 64 65 64c26 0 53 -15 53 -68c0 -94 -70 -174 -108 -207
c-9 -9 -17 -8 -21 -2l-11 14c-4 5 -4 12 6 21c11 9 68 56 78 129c-3 -1 -8 -1 -14 -1c-27 0 -48 23 -48 50z" />
    <glyph glyph-name="Tbar" unicode="&#x166;" horiz-adv-x="435" 
d="M141 19l38 276h-104c-9 0 -14 9 -13 19l1 7c1 10 6 19 19 19h104l41 293h-153c-10 0 -16 9 -14 19l4 29c1 10 10 19 19 19h384c10 0 16 -9 14 -19l-4 -29c-1 -10 -10 -19 -20 -19h-153l-41 -293h104c10 0 16 -9 14 -19l-1 -8c-1 -10 -9 -18 -19 -18h-105l-38 -276
c-2 -10 -11 -19 -20 -19h-42c-9 0 -16 9 -15 19z" />
    <glyph glyph-name="Thorn" unicode="&#xde;" horiz-adv-x="553" 
d="M63 19l93 661c2 10 10 20 20 20h42c9 0 16 -9 15 -19l-15 -107h141c98 1 173 -87 173 -200c0 -134 -108 -246 -234 -246h-143l-15 -109c-2 -10 -11 -19 -20 -19h-42c-10 0 -16 9 -15 19zM165 202h137c77 0 153 77 153 172c0 70 -48 124 -111 124h-137z" />
    <glyph glyph-name="Ugrave" unicode="&#xd9;" horiz-adv-x="666" 
d="M90 258l59 423c2 10 11 19 20 19h43c10 0 16 -9 14 -19l-58 -417c-16 -114 33 -203 134 -203c102 0 178 94 193 201l59 419c1 10 10 19 19 19h43c9 0 16 -9 14 -19l-59 -423c-21 -152 -117 -268 -278 -268c-135 0 -224 116 -203 268zM464 783l-132 64c-12 6 -12 16 -7 24
l21 34c6 9 19 7 24 3l125 -84c5 -3 8 -11 3 -19l-12 -20c-5 -8 -10 -8 -22 -2z" />
    <glyph glyph-name="Uacute" unicode="&#xda;" horiz-adv-x="666" 
d="M90 258l59 423c2 10 11 19 20 19h43c10 0 16 -9 14 -19l-58 -417c-16 -114 33 -203 134 -203c102 0 178 94 193 201l59 419c1 10 10 19 19 19h43c9 0 16 -9 14 -19l-59 -423c-21 -152 -117 -268 -278 -268c-135 0 -224 116 -203 268zM342 779c-13 -6 -19 -1 -22 8l-7 18
c-3 8 1 15 8 19l148 84c6 4 20 6 25 -8l13 -33c5 -12 -1 -18 -8 -21z" />
    <glyph glyph-name="Ucircumflex" unicode="&#xdb;" horiz-adv-x="666" 
d="M90 258l59 423c2 10 11 19 20 19h43c10 0 16 -9 14 -19l-58 -417c-16 -114 33 -203 134 -203c102 0 178 94 193 201l59 419c1 10 10 19 19 19h43c9 0 16 -9 14 -19l-59 -423c-21 -152 -117 -268 -278 -268c-135 0 -224 116 -203 268zM308 771c-9 -7 -18 -5 -22 3l-9 18
c-6 12 -1 20 5 24l119 94c5 4 10 7 18 7h3c7 0 15 -7 19 -12l84 -91c4 -5 5 -12 -2 -19l-14 -15c-7 -7 -12 -12 -21 -4l-78 66z" />
    <glyph glyph-name="Utilde" unicode="&#x168;" horiz-adv-x="666" 
d="M90 258l59 423c2 10 11 19 20 19h43c10 0 16 -9 14 -19l-58 -417c-16 -114 33 -203 134 -203c102 0 178 94 193 201l59 419c1 10 10 19 19 19h43c9 0 16 -9 14 -19l-59 -423c-21 -152 -117 -268 -278 -268c-135 0 -224 116 -203 268zM293 795l-16 8c-9 6 -7 16 -4 23
c7 18 38 84 97 84c52 0 60 -72 89 -72c24 0 36 30 42 47c4 10 12 19 25 11l14 -8c8 -5 10 -15 7 -23c-8 -26 -39 -85 -96 -85c-45 0 -64 73 -88 73c-27 0 -39 -33 -46 -50c-4 -9 -15 -14 -24 -8z" />
    <glyph glyph-name="Udieresis" unicode="&#xdc;" horiz-adv-x="666" 
d="M90 258l59 423c2 10 11 19 20 19h43c10 0 16 -9 14 -19l-58 -417c-16 -114 33 -203 134 -203c102 0 178 94 193 201l59 419c1 10 10 19 19 19h43c9 0 16 -9 14 -19l-59 -423c-21 -152 -117 -268 -278 -268c-135 0 -224 116 -203 268zM499 792c-23 0 -39 18 -39 41
c0 30 25 54 52 54c23 0 40 -18 40 -42c0 -29 -26 -53 -53 -53zM304 792c-23 0 -39 18 -39 41c0 30 25 54 52 54c23 0 40 -18 40 -42c0 -29 -26 -53 -53 -53z" />
    <glyph glyph-name="Umacron" unicode="&#x16a;" horiz-adv-x="666" 
d="M90 258l59 423c2 10 11 19 20 19h43c10 0 16 -9 14 -19l-58 -417c-16 -114 33 -203 134 -203c102 0 178 94 193 201l59 419c1 10 10 19 19 19h43c9 0 16 -9 14 -19l-59 -423c-21 -152 -117 -268 -278 -268c-135 0 -224 116 -203 268zM291 821c-9 0 -15 8 -14 18l3 21
c1 11 10 19 20 19h230c10 0 16 -8 14 -19l-2 -21c-2 -10 -10 -18 -20 -18h-231z" />
    <glyph glyph-name="Ubreve" unicode="&#x16c;" horiz-adv-x="666" 
d="M90 258l59 423c2 10 11 19 20 19h43c10 0 16 -9 14 -19l-58 -417c-16 -114 33 -203 134 -203c102 0 178 94 193 201l59 419c1 10 10 19 19 19h43c9 0 16 -9 14 -19l-59 -423c-21 -152 -117 -268 -278 -268c-135 0 -224 116 -203 268zM402 771c-58 0 -107 49 -106 114
c0 11 5 20 16 20h19c10 0 14 -8 15 -17c6 -38 27 -64 62 -64c32 0 63 29 78 64c5 11 11 17 19 17h25c10 0 14 -9 10 -20c-19 -65 -70 -114 -138 -114z" />
    <glyph glyph-name="Uring" unicode="&#x16e;" horiz-adv-x="666" 
d="M90 258l59 423c2 10 11 19 20 19h43c10 0 16 -9 14 -19l-58 -417c-16 -114 33 -203 134 -203c102 0 178 94 193 201l59 419c1 10 10 19 19 19h43c9 0 16 -9 14 -19l-59 -423c-21 -152 -117 -268 -278 -268c-135 0 -224 116 -203 268zM398 758c-50 0 -85 42 -85 94
c0 69 52 124 115 124c49 0 85 -42 85 -94c0 -69 -53 -124 -115 -124zM404 806c31 0 59 33 59 69c0 27 -14 51 -42 51c-30 0 -60 -30 -60 -66c0 -28 15 -54 43 -54z" />
    <glyph glyph-name="Uhungarumlaut" unicode="&#x170;" horiz-adv-x="666" 
d="M90 258l59 423c2 10 11 19 20 19h43c10 0 16 -9 14 -19l-58 -417c-16 -114 33 -203 134 -203c102 0 178 94 193 201l59 419c1 10 10 19 19 19h43c9 0 16 -9 14 -19l-59 -423c-21 -152 -117 -268 -278 -268c-135 0 -224 116 -203 268zM469 769c-9 0 -16 9 -12 19l63 141
c4 10 11 19 20 19h40c17 0 21 -12 13 -25l-90 -139c-5 -8 -11 -15 -19 -15h-15zM320 769c-9 0 -16 9 -12 19l63 141c4 10 11 19 20 19h40c17 0 21 -12 13 -25l-90 -139c-5 -8 -11 -15 -19 -15h-15z" />
    <glyph glyph-name="Uogonek" unicode="&#x172;" horiz-adv-x="668" 
d="M206 -126c0 57 32 97 56 119c-117 16 -191 125 -171 265l59 423c2 10 11 19 20 19h43c10 0 16 -9 14 -19l-58 -417c-16 -114 33 -203 134 -203c102 0 178 94 193 201l59 419c1 10 10 19 19 19h43c9 0 16 -9 14 -19l-59 -423c-21 -147 -111 -260 -262 -267
c-20 -21 -46 -55 -46 -98c0 -28 19 -49 45 -49c22 0 38 9 51 16c8 4 16 -1 14 -14l-3 -24c-1 -10 -8 -14 -15 -18c-9 -5 -35 -15 -63 -15c-45 0 -87 28 -87 85z" />
    <glyph glyph-name="Wacute" unicode="&#x1e82;" horiz-adv-x="824" 
d="M170 4l-75 672c-2 14 7 24 19 24h42c8 0 14 -7 15 -14l47 -516h3l224 529c3 7 8 11 17 11h16c8 0 13 -5 14 -11l77 -529h3l191 516c3 7 11 14 18 14h48c13 0 18 -10 13 -24l-265 -672c-3 -8 -10 -14 -18 -14h-14c-8 0 -13 5 -14 11l-81 539h-4l-230 -539
c-3 -7 -10 -11 -17 -11h-14c-8 0 -14 6 -15 14zM423 779c-13 -6 -19 -1 -22 8l-7 18c-3 8 1 15 8 19l148 84c6 4 20 6 25 -8l13 -33c5 -12 -1 -18 -8 -21z" />
    <glyph glyph-name="Wcircumflex" unicode="&#x174;" horiz-adv-x="824" 
d="M170 4l-75 672c-2 14 7 24 19 24h42c8 0 14 -7 15 -14l47 -516h3l224 529c3 7 8 11 17 11h16c8 0 13 -5 14 -11l77 -529h3l191 516c3 7 11 14 18 14h48c13 0 18 -10 13 -24l-265 -672c-3 -8 -10 -14 -18 -14h-14c-8 0 -13 5 -14 11l-81 539h-4l-230 -539
c-3 -7 -10 -11 -17 -11h-14c-8 0 -14 6 -15 14zM388 771c-9 -7 -18 -5 -22 3l-9 18c-6 12 -1 20 5 24l119 94c5 4 10 7 18 7h3c7 0 15 -7 19 -12l84 -91c4 -5 5 -12 -2 -19l-14 -15c-7 -7 -12 -12 -21 -4l-78 66z" />
    <glyph glyph-name="Wdieresis" unicode="&#x1e84;" horiz-adv-x="824" 
d="M170 4l-75 672c-2 14 7 24 19 24h42c8 0 14 -7 15 -14l47 -516h3l224 529c3 7 8 11 17 11h16c8 0 13 -5 14 -11l77 -529h3l191 516c3 7 11 14 18 14h48c13 0 18 -10 13 -24l-265 -672c-3 -8 -10 -14 -18 -14h-14c-8 0 -13 5 -14 11l-81 539h-4l-230 -539
c-3 -7 -10 -11 -17 -11h-14c-8 0 -14 6 -15 14zM580 792c-23 0 -39 18 -39 41c0 30 25 54 52 54c23 0 40 -18 40 -42c0 -29 -26 -53 -53 -53zM385 792c-23 0 -39 18 -39 41c0 30 25 54 52 54c23 0 40 -18 40 -42c0 -29 -26 -53 -53 -53z" />
    <glyph glyph-name="Wgrave" unicode="&#x1e80;" horiz-adv-x="824" 
d="M170 4l-75 672c-2 14 7 24 19 24h42c8 0 14 -7 15 -14l47 -516h3l224 529c3 7 8 11 17 11h16c8 0 13 -5 14 -11l77 -529h3l191 516c3 7 11 14 18 14h48c13 0 18 -10 13 -24l-265 -672c-3 -8 -10 -14 -18 -14h-14c-8 0 -13 5 -14 11l-81 539h-4l-230 -539
c-3 -7 -10 -11 -17 -11h-14c-8 0 -14 6 -15 14zM544 783l-132 64c-12 6 -12 16 -7 24l21 34c6 9 19 7 24 3l125 -84c5 -3 8 -11 3 -19l-12 -20c-5 -8 -10 -8 -22 -2z" />
    <glyph glyph-name="Yacute" unicode="&#xdd;" horiz-adv-x="518" 
d="M182 19l45 318l-170 339c-6 12 0 24 14 24h46c7 0 12 -5 14 -9l139 -285h2l222 285c3 4 9 9 16 9h48c15 0 19 -16 10 -29l-264 -333l-45 -319c-1 -10 -11 -19 -20 -19h-42c-10 0 -16 9 -15 19zM264 779c-13 -6 -19 -1 -22 8l-7 18c-3 8 1 15 8 19l148 84c6 4 20 6 25 -8
l13 -33c5 -12 -1 -18 -8 -21z" />
    <glyph glyph-name="Ycircumflex" unicode="&#x176;" horiz-adv-x="518" 
d="M182 19l45 318l-170 339c-6 12 0 24 14 24h46c7 0 12 -5 14 -9l139 -285h2l222 285c3 4 9 9 16 9h48c15 0 19 -16 10 -29l-264 -333l-45 -319c-1 -10 -11 -19 -20 -19h-42c-10 0 -16 9 -15 19zM229 771c-9 -7 -18 -5 -22 3l-9 18c-6 12 -1 20 5 24l119 94c5 4 10 7 18 7
h3c7 0 15 -7 19 -12l84 -91c4 -5 5 -12 -2 -19l-14 -15c-7 -7 -12 -12 -21 -4l-78 66z" />
    <glyph glyph-name="Ydieresis" unicode="&#x178;" horiz-adv-x="518" 
d="M182 19l45 318l-170 339c-6 12 0 24 14 24h46c7 0 12 -5 14 -9l139 -285h2l222 285c3 4 9 9 16 9h48c15 0 19 -16 10 -29l-264 -333l-45 -319c-1 -10 -11 -19 -20 -19h-42c-10 0 -16 9 -15 19zM421 792c-23 0 -39 18 -39 41c0 30 25 54 52 54c23 0 40 -18 40 -42
c0 -29 -26 -53 -53 -53zM226 792c-23 0 -39 18 -39 41c0 30 25 54 52 54c23 0 40 -18 40 -42c0 -29 -26 -53 -53 -53z" />
    <glyph glyph-name="Ygrave" unicode="&#x1ef2;" horiz-adv-x="518" 
d="M182 19l45 318l-170 339c-6 12 0 24 14 24h46c7 0 12 -5 14 -9l139 -285h2l222 285c3 4 9 9 16 9h48c15 0 19 -16 10 -29l-264 -333l-45 -319c-1 -10 -11 -19 -20 -19h-42c-10 0 -16 9 -15 19zM385 783l-132 64c-12 6 -12 16 -7 24l21 34c6 9 19 7 24 3l125 -84
c5 -3 8 -11 3 -19l-12 -20c-5 -8 -10 -8 -22 -2z" />
    <glyph glyph-name="Zacute" unicode="&#x179;" horiz-adv-x="493" 
d="M10 0c-9 0 -16 9 -14 19l2 18l404 593h-277c-9 0 -17 9 -15 19l5 32c2 10 11 19 20 19h366c9 0 16 -9 14 -19l-2 -13l-407 -598h288c10 0 17 -9 15 -19l-5 -32c-2 -10 -10 -19 -20 -19h-374zM263 779c-13 -6 -19 -1 -22 8l-7 18c-3 8 1 15 8 19l148 84c6 4 20 6 25 -8
l13 -33c5 -12 -1 -18 -8 -21z" />
    <glyph glyph-name="Zcaron" unicode="&#x17d;" horiz-adv-x="493" 
d="M10 0c-9 0 -16 9 -14 19l2 18l404 593h-277c-9 0 -17 9 -15 19l5 32c2 10 11 19 20 19h366c9 0 16 -9 14 -19l-2 -13l-407 -598h288c10 0 17 -9 15 -19l-5 -32c-2 -10 -10 -19 -20 -19h-374zM315 764c-7 0 -15 7 -19 12l-84 91c-4 5 -5 12 2 19l14 15c7 7 12 12 21 4
l78 -66l102 71c9 7 18 5 22 -3l9 -18c6 -12 1 -20 -5 -24l-119 -94c-5 -4 -10 -7 -18 -7h-3z" />
    <glyph glyph-name="Zdotaccent" unicode="&#x17b;" horiz-adv-x="493" 
d="M10 0c-9 0 -16 9 -14 19l2 18l404 593h-277c-9 0 -17 9 -15 19l5 32c2 10 11 19 20 19h366c9 0 16 -9 14 -19l-2 -13l-407 -598h288c10 0 17 -9 15 -19l-5 -32c-2 -10 -10 -19 -20 -19h-374zM329 796c-26 0 -46 23 -46 50c0 36 30 64 62 64c27 0 46 -22 46 -50
c0 -35 -29 -64 -62 -64z" />
    <glyph glyph-name="agrave" unicode="&#xe0;" 
d="M343 562l-132 64c-12 6 -12 16 -7 24l21 34c6 9 19 7 24 3l125 -84c5 -3 8 -11 3 -19l-12 -20c-5 -8 -10 -8 -22 -2zM387 384l-43 -369c-1 -10 -9 -15 -18 -15h-22c-9 0 -12 6 -13 15l-4 27c-2 0 -48 -52 -119 -52c-80 0 -139 80 -139 177c0 152 91 243 199 243
c65 0 97 -45 97 -45l13 26c3 6 7 9 14 9h22c11 0 14 -5 13 -16zM288 119l20 177s-23 48 -86 48c-59 0 -124 -49 -124 -177c0 -57 28 -114 87 -114c64 0 103 66 103 66z" />
    <glyph glyph-name="aacute" unicode="&#xe1;" 
d="M221 557c-13 -6 -19 -1 -22 8l-7 18c-3 8 1 15 8 19l148 84c6 4 20 6 25 -8l13 -33c5 -12 -1 -18 -8 -21zM387 384l-43 -369c-1 -10 -9 -15 -18 -15h-22c-9 0 -12 6 -13 15l-4 27c-2 0 -48 -52 -119 -52c-80 0 -139 80 -139 177c0 152 91 243 199 243c65 0 97 -45 97 -45
l13 26c3 6 7 9 14 9h22c11 0 14 -5 13 -16zM288 119l20 177s-23 48 -86 48c-59 0 -124 -49 -124 -177c0 -57 28 -114 87 -114c64 0 103 66 103 66z" />
    <glyph glyph-name="acircumflex" unicode="&#xe2;" 
d="M165 554l-9 18c-6 12 -1 20 5 24l119 94c5 4 10 7 18 7h3c7 0 15 -7 19 -12l84 -91c4 -5 5 -12 -2 -19l-14 -15c-7 -7 -12 -12 -21 -4l-78 66l-102 -71c-9 -7 -18 -5 -22 3zM387 384l-43 -369c-1 -10 -9 -15 -18 -15h-22c-9 0 -12 6 -13 15l-4 27c-2 0 -48 -52 -119 -52
c-80 0 -139 80 -139 177c0 152 91 243 199 243c65 0 97 -45 97 -45l13 26c3 6 7 9 14 9h22c11 0 14 -5 13 -16zM288 119l20 177s-23 48 -86 48c-59 0 -124 -49 -124 -177c0 -57 28 -114 87 -114c64 0 103 66 103 66z" />
    <glyph glyph-name="atilde" unicode="&#xe3;" 
d="M174 575l-16 8c-9 6 -7 16 -4 23c7 18 38 84 95 84c54 0 59 -72 91 -72c24 0 36 30 42 47c4 10 12 19 25 11l14 -8c8 -5 10 -15 7 -23c-8 -26 -39 -85 -93 -85c-48 0 -63 73 -91 73c-27 0 -39 -33 -46 -50c-4 -9 -15 -14 -24 -8zM387 384l-43 -369c-1 -10 -9 -15 -18 -15
h-22c-9 0 -12 6 -13 15l-4 27c-2 0 -48 -52 -119 -52c-80 0 -139 80 -139 177c0 152 91 243 199 243c65 0 97 -45 97 -45l13 26c3 6 7 9 14 9h22c11 0 14 -5 13 -16zM288 119l20 177s-23 48 -86 48c-59 0 -124 -49 -124 -177c0 -57 28 -114 87 -114c64 0 103 66 103 66z" />
    <glyph glyph-name="adieresis" unicode="&#xe4;" 
d="M372 585c-23 0 -39 18 -39 41c0 30 25 54 52 54c24 0 40 -18 40 -42c0 -29 -25 -53 -53 -53zM197 585c-22 0 -39 18 -39 41c0 30 25 54 53 54c23 0 39 -18 39 -42c0 -29 -25 -53 -53 -53zM387 384l-43 -369c-1 -10 -9 -15 -18 -15h-22c-9 0 -12 6 -13 15l-4 27
c-2 0 -48 -52 -119 -52c-80 0 -139 80 -139 177c0 152 91 243 199 243c65 0 97 -45 97 -45l13 26c3 6 7 9 14 9h22c11 0 14 -5 13 -16zM288 119l20 177s-23 48 -86 48c-59 0 -124 -49 -124 -177c0 -57 28 -114 87 -114c64 0 103 66 103 66z" />
    <glyph glyph-name="amacron" unicode="&#x101;" 
d="M169 583c-10 0 -16 8 -15 18l3 21c2 11 10 19 20 19h231c9 0 16 -8 14 -19l-3 -21c-1 -10 -10 -18 -20 -18h-230zM387 384l-43 -369c-1 -10 -9 -15 -18 -15h-22c-9 0 -12 6 -13 15l-4 27c-2 0 -48 -52 -119 -52c-80 0 -139 80 -139 177c0 152 91 243 199 243
c65 0 97 -45 97 -45l13 26c3 6 7 9 14 9h22c11 0 14 -5 13 -16zM288 119l20 177s-23 48 -86 48c-59 0 -124 -49 -124 -177c0 -57 28 -114 87 -114c64 0 103 66 103 66z" />
    <glyph glyph-name="abreve" unicode="&#x103;" 
d="M280 531c-58 0 -107 49 -106 114c0 11 5 20 16 20h19c10 0 14 -8 15 -17c6 -38 27 -64 62 -64c32 0 63 29 78 64c5 11 11 17 19 17h25c10 0 14 -9 10 -20c-19 -65 -70 -114 -138 -114zM387 384l-43 -369c-1 -10 -9 -15 -18 -15h-22c-9 0 -12 6 -13 15l-4 27
c-2 0 -48 -52 -119 -52c-80 0 -139 80 -139 177c0 152 91 243 199 243c65 0 97 -45 97 -45l13 26c3 6 7 9 14 9h22c11 0 14 -5 13 -16zM288 119l20 177s-23 48 -86 48c-59 0 -124 -49 -124 -177c0 -57 28 -114 87 -114c64 0 103 66 103 66z" />
    <glyph glyph-name="aring" unicode="&#xe5;" 
d="M272 492c-50 0 -85 42 -85 94c0 69 52 124 115 124c49 0 85 -42 85 -94c0 -69 -53 -124 -115 -124zM278 540c31 0 59 33 59 69c0 27 -14 51 -42 51c-30 0 -60 -30 -60 -66c0 -28 15 -54 43 -54zM387 384l-43 -369c-1 -10 -9 -15 -18 -15h-22c-9 0 -12 6 -13 15l-4 27
c-2 0 -48 -52 -119 -52c-80 0 -139 80 -139 177c0 152 91 243 199 243c65 0 97 -45 97 -45l13 26c3 6 7 9 14 9h22c11 0 14 -5 13 -16zM288 119l20 177s-23 48 -86 48c-59 0 -124 -49 -124 -177c0 -57 28 -114 87 -114c64 0 103 66 103 66z" />
    <glyph glyph-name="aringacute" unicode="&#x1fb;" 
d="M267 440c-50 0 -85 42 -85 94c0 69 52 124 115 124c49 0 85 -42 85 -94c0 -69 -53 -124 -115 -124zM273 488c31 0 59 33 59 69c0 27 -14 51 -42 51c-30 0 -60 -30 -60 -66c0 -28 15 -54 43 -54zM244 671c-13 -6 -19 -1 -22 8l-7 18c-3 8 1 15 8 19l148 84c6 4 20 6 25 -8
l13 -33c5 -12 -1 -18 -8 -21zM387 384l-43 -369c-1 -10 -9 -15 -18 -15h-22c-9 0 -12 6 -13 15l-4 27c-2 0 -48 -52 -119 -52c-80 0 -139 80 -139 177c0 152 91 243 199 243c65 0 97 -45 97 -45l13 26c3 6 7 9 14 9h22c11 0 14 -5 13 -16zM288 119l20 177s-23 48 -86 48
c-59 0 -124 -49 -124 -177c0 -57 28 -114 87 -114c64 0 103 66 103 66z" />
    <glyph glyph-name="aogonek" unicode="&#x105;" 
d="M387 384l-43 -369c-1 -10 -9 -15 -18 -15c-20 -17 -56 -57 -56 -107c0 -28 19 -49 45 -49c22 0 38 9 51 16c8 4 16 -1 14 -14l-3 -24c-1 -10 -8 -14 -15 -18c-9 -5 -35 -15 -63 -15c-45 0 -87 28 -87 85c0 83 71 132 79 137l-4 31c-2 0 -48 -52 -119 -52
c-80 0 -139 80 -139 177c0 152 91 243 199 243c61 0 94 -41 97 -45l13 26c3 6 7 9 14 9h22c11 0 14 -5 13 -16zM288 119l20 177s-23 48 -86 48c-59 0 -124 -49 -124 -177c0 -57 28 -114 87 -114c64 0 103 66 103 66z" />
    <glyph glyph-name="ae" unicode="&#xe6;" horiz-adv-x="612" 
d="M119 -10c-70 0 -115 53 -104 134c11 75 73 129 157 129c47 0 82 -10 82 -10c16 83 6 105 -39 105c-56 0 -98 -17 -111 -22c-13 -4 -20 3 -21 13l-2 27c-1 10 7 17 18 20c0 0 60 24 129 24c60 0 79 -25 89 -55c36 32 85 55 134 55c81 0 123 -45 123 -105
c0 -87 -93 -138 -268 -122c-6 -67 32 -130 93 -130c34 0 67 17 87 30c13 8 20 9 29 -5l11 -16c6 -9 6 -15 -7 -26c-26 -21 -75 -46 -134 -46c-54 0 -93 25 -118 67c-31 -34 -92 -67 -148 -67zM316 239c118 -11 189 14 189 62c0 27 -22 48 -63 48c-55 0 -112 -48 -126 -110z
M77 122c-7 -43 25 -69 62 -69c38 0 76 24 95 49l12 89s-25 8 -73 8c-45 0 -88 -27 -96 -77z" />
    <glyph glyph-name="aeacute" unicode="&#x1fd;" horiz-adv-x="612" 
d="M119 -10c-70 0 -115 53 -104 134c11 75 73 129 157 129c47 0 82 -10 82 -10c16 83 6 105 -39 105c-56 0 -98 -17 -111 -22c-13 -4 -20 3 -21 13l-2 27c-1 10 7 17 18 20c0 0 60 24 129 24c60 0 79 -25 89 -55c36 32 85 55 134 55c81 0 123 -45 123 -105
c0 -87 -93 -138 -268 -122c-6 -67 32 -130 93 -130c34 0 67 17 87 30c13 8 20 9 29 -5l11 -16c6 -9 6 -15 -7 -26c-26 -21 -75 -46 -134 -46c-54 0 -93 25 -118 67c-31 -34 -92 -67 -148 -67zM316 239c118 -11 189 14 189 62c0 27 -22 48 -63 48c-55 0 -112 -48 -126 -110z
M77 122c-7 -43 25 -69 62 -69c38 0 76 24 95 49l12 89s-25 8 -73 8c-45 0 -88 -27 -96 -77zM326 557c-13 -6 -19 -1 -22 8l-7 18c-3 8 1 15 8 19l148 84c6 4 20 6 25 -8l13 -33c5 -12 -1 -18 -8 -21z" />
    <glyph glyph-name="cacute" unicode="&#x107;" horiz-adv-x="409" 
d="M29 170c0 134 97 240 214 240c54 0 99 -26 125 -72c5 -9 1 -20 -8 -26l-18 -13c-11 -8 -20 -4 -25 4c-16 25 -41 40 -75 40c-72 0 -140 -73 -140 -165c0 -68 38 -125 95 -125c49 0 82 41 94 59c7 11 17 13 26 6l21 -18c8 -7 7 -16 1 -26c-26 -43 -79 -84 -149 -84
c-86 0 -161 77 -161 180zM210 557c-13 -6 -19 -1 -22 8l-7 18c-3 8 1 15 8 19l148 84c6 4 20 6 25 -8l13 -33c5 -12 -1 -18 -8 -21z" />
    <glyph glyph-name="ccircumflex" unicode="&#x109;" horiz-adv-x="409" 
d="M29 170c0 134 97 240 214 240c54 0 99 -26 125 -72c5 -9 1 -20 -8 -26l-18 -13c-11 -8 -20 -4 -25 4c-16 25 -41 40 -75 40c-72 0 -140 -73 -140 -165c0 -68 38 -125 95 -125c49 0 82 41 94 59c7 11 17 13 26 6l21 -18c8 -7 7 -16 1 -26c-26 -43 -79 -84 -149 -84
c-86 0 -161 77 -161 180zM156 554l-9 18c-6 12 -1 20 5 24l119 94c5 4 10 7 18 7h3c7 0 15 -7 19 -12l84 -91c4 -5 5 -12 -2 -19l-14 -15c-7 -7 -12 -12 -21 -4l-78 66l-102 -71c-9 -7 -18 -5 -22 3z" />
    <glyph glyph-name="ccaron" unicode="&#x10d;" horiz-adv-x="409" 
d="M29 170c0 134 97 240 214 240c54 0 99 -26 125 -72c5 -9 1 -20 -8 -26l-18 -13c-11 -8 -20 -4 -25 4c-16 25 -41 40 -75 40c-72 0 -140 -73 -140 -165c0 -68 38 -125 95 -125c49 0 82 41 94 59c7 11 17 13 26 6l21 -18c8 -7 7 -16 1 -26c-26 -43 -79 -84 -149 -84
c-86 0 -161 77 -161 180zM266 544c-7 0 -15 7 -19 12l-84 91c-4 5 -5 12 2 19l14 15c7 7 12 12 21 4l78 -66l102 71c9 7 18 5 22 -3l9 -18c6 -12 1 -20 -5 -24l-119 -94c-5 -4 -10 -7 -18 -7h-3z" />
    <glyph glyph-name="cdotaccent" unicode="&#x10b;" horiz-adv-x="409" 
d="M29 170c0 134 97 240 214 240c54 0 99 -26 125 -72c5 -9 1 -20 -8 -26l-18 -13c-11 -8 -20 -4 -25 4c-16 25 -41 40 -75 40c-72 0 -140 -73 -140 -165c0 -68 38 -125 95 -125c49 0 82 41 94 59c7 11 17 13 26 6l21 -18c8 -7 7 -16 1 -26c-26 -43 -79 -84 -149 -84
c-86 0 -161 77 -161 180zM272 566c-27 0 -46 23 -46 50c0 36 30 64 62 64c27 0 46 -22 46 -50c0 -35 -30 -64 -62 -64z" />
    <glyph glyph-name="ccedilla" unicode="&#xe7;" horiz-adv-x="411" 
d="M143 -1c-63 22 -113 87 -113 171c0 134 99 240 216 240c54 0 97 -26 123 -72c5 -9 1 -20 -8 -26l-18 -13c-11 -8 -20 -4 -25 4c-16 25 -41 40 -75 40c-72 0 -140 -73 -140 -165c0 -68 38 -125 95 -125c49 0 82 41 94 59c7 11 17 13 26 6l21 -18c8 -7 7 -16 1 -26
c-26 -43 -80 -83 -149 -84l-5 -44c47 -9 80 -42 80 -96c0 -57 -39 -110 -105 -110c-30 0 -56 16 -68 36c-6 9 -3 19 3 25l12 11c6 6 15 6 20 0c10 -12 23 -18 36 -18c26 0 46 24 46 55c0 39 -36 49 -65 55c-14 3 -14 15 -13 20z" />
    <glyph glyph-name="dcaron" unicode="&#x10f;" horiz-adv-x="481" 
d="M169 -10c-80 0 -139 80 -139 177c0 134 89 243 207 243c55 0 87 -26 89 -26l42 297c2 10 12 19 21 19h34c9 0 16 -9 15 -19l-93 -666c-1 -10 -9 -15 -18 -15h-22c-9 0 -12 6 -13 15l-4 27c-2 0 -48 -52 -119 -52zM186 53c64 0 103 66 103 66l28 200s-32 24 -81 24
c-75 0 -135 -74 -135 -169c0 -64 26 -121 85 -121zM511 433l-11 14c-7 9 -1 15 8 24c11 10 64 53 75 126c-3 -1 -9 -1 -14 -1c-26 0 -45 23 -45 50c0 36 30 64 62 64c25 0 51 -15 51 -68c0 -93 -69 -174 -104 -207c-10 -9 -17 -8 -22 -2z" />
    <glyph glyph-name="dcroat" unicode="&#x111;" horiz-adv-x="451" 
d="M169 -10c-80 0 -139 80 -139 177c0 134 89 243 207 243c55 0 87 -26 89 -26l21 152h-133c-10 0 -16 8 -15 18l1 8c1 10 10 19 20 19h134l14 100c2 10 12 19 21 19h34c9 0 16 -9 15 -19l-14 -100h29c9 0 16 -8 14 -19l-1 -7c-2 -12 -10 -19 -19 -19h-30l-72 -521
c-1 -10 -9 -15 -18 -15h-22c-9 0 -12 6 -13 15l-4 27c-2 0 -48 -52 -119 -52zM186 53c64 0 103 66 103 66l28 200s-32 24 -81 24c-75 0 -135 -74 -135 -169c0 -64 26 -121 85 -121z" />
    <glyph glyph-name="eth" unicode="&#xf0;" horiz-adv-x="499" 
d="M31 188c0 151 106 248 225 248c71 0 122 -43 125 -45c-7 68 -44 128 -87 172l-94 -56c-9 -5 -18 -1 -21 7l-3 7c-4 8 0 20 9 25l76 46c-38 32 -64 47 -78 54c-11 5 -12 12 -5 24l16 26c4 7 12 10 21 7c24 -11 66 -34 110 -74l72 40c10 6 18 2 22 -7l3 -7
c4 -8 0 -20 -9 -25l-56 -31c52 -58 99 -151 99 -266c0 -181 -99 -343 -255 -343c-98 0 -170 90 -170 198zM101 192c0 -73 44 -136 109 -136c115 0 171 150 172 250c-1 0 -47 65 -127 65s-154 -80 -154 -179z" />
    <glyph glyph-name="egrave" unicode="&#xe8;" horiz-adv-x="403" 
d="M30 167c0 130 87 243 212 243c81 0 123 -45 123 -105c0 -87 -93 -138 -268 -122c-6 -67 32 -130 93 -130c34 0 67 16 90 31c10 6 18 6 25 -5l12 -17c5 -8 6 -15 -7 -26c-26 -19 -75 -46 -134 -46c-85 0 -146 81 -146 177zM106 235c118 -11 190 18 190 66
c0 27 -22 48 -63 48c-55 0 -113 -52 -127 -114zM320 562l-132 64c-12 6 -12 16 -7 24l21 34c6 9 19 7 24 3l125 -84c5 -3 8 -11 3 -19l-12 -20c-5 -8 -10 -8 -22 -2z" />
    <glyph glyph-name="eacute" unicode="&#xe9;" horiz-adv-x="403" 
d="M30 167c0 130 87 243 212 243c81 0 123 -45 123 -105c0 -87 -93 -138 -268 -122c-6 -67 32 -130 93 -130c34 0 67 16 90 31c10 6 18 6 25 -5l12 -17c5 -8 6 -15 -7 -26c-26 -19 -75 -46 -134 -46c-85 0 -146 81 -146 177zM106 235c118 -11 190 18 190 66
c0 27 -22 48 -63 48c-55 0 -113 -52 -127 -114zM198 557c-13 -6 -19 -1 -22 8l-7 18c-3 8 1 15 8 19l148 84c6 4 20 6 25 -8l13 -33c5 -12 -1 -18 -8 -21z" />
    <glyph glyph-name="ecircumflex" unicode="&#xea;" horiz-adv-x="403" 
d="M30 167c0 130 87 243 212 243c81 0 123 -45 123 -105c0 -87 -93 -138 -268 -122c-6 -67 32 -130 93 -130c34 0 67 16 90 31c10 6 18 6 25 -5l12 -17c5 -8 6 -15 -7 -26c-26 -19 -75 -46 -134 -46c-85 0 -146 81 -146 177zM106 235c118 -11 190 18 190 66
c0 27 -22 48 -63 48c-55 0 -113 -52 -127 -114zM143 554l-9 18c-6 12 -1 20 5 24l119 94c5 4 10 7 18 7h3c7 0 15 -7 19 -12l84 -91c4 -5 5 -12 -2 -19l-14 -15c-7 -7 -12 -12 -21 -4l-78 66l-102 -71c-9 -7 -18 -5 -22 3z" />
    <glyph glyph-name="ecaron" unicode="&#x11b;" horiz-adv-x="403" 
d="M30 167c0 130 87 243 212 243c81 0 123 -45 123 -105c0 -87 -93 -138 -268 -122c-6 -67 32 -130 93 -130c34 0 67 16 90 31c10 6 18 6 25 -5l12 -17c5 -8 6 -15 -7 -26c-26 -19 -75 -46 -134 -46c-85 0 -146 81 -146 177zM106 235c118 -11 190 18 190 66
c0 27 -22 48 -63 48c-55 0 -113 -52 -127 -114zM254 544c-7 0 -15 7 -19 12l-84 91c-4 5 -5 12 2 19l14 15c7 7 12 12 21 4l78 -66l102 71c9 7 18 5 22 -3l9 -18c6 -12 1 -20 -5 -24l-119 -94c-5 -4 -10 -7 -18 -7h-3z" />
    <glyph glyph-name="edieresis" unicode="&#xeb;" horiz-adv-x="403" 
d="M30 167c0 130 87 243 212 243c81 0 123 -45 123 -105c0 -87 -93 -138 -268 -122c-6 -67 32 -130 93 -130c34 0 67 16 90 31c10 6 18 6 25 -5l12 -17c5 -8 6 -15 -7 -26c-26 -19 -75 -46 -134 -46c-85 0 -146 81 -146 177zM106 235c118 -11 190 18 190 66
c0 27 -22 48 -63 48c-55 0 -113 -52 -127 -114zM349 585c-23 0 -39 18 -39 41c0 30 25 54 52 54c24 0 40 -18 40 -42c0 -29 -25 -53 -53 -53zM174 585c-22 0 -39 18 -39 41c0 30 25 54 53 54c23 0 39 -18 39 -42c0 -29 -25 -53 -53 -53z" />
    <glyph glyph-name="emacron" unicode="&#x113;" horiz-adv-x="403" 
d="M30 167c0 130 87 243 212 243c81 0 123 -45 123 -105c0 -87 -93 -138 -268 -122c-6 -67 32 -130 93 -130c34 0 67 16 90 31c10 6 18 6 25 -5l12 -17c5 -8 6 -15 -7 -26c-26 -19 -75 -46 -134 -46c-85 0 -146 81 -146 177zM106 235c118 -11 190 18 190 66
c0 27 -22 48 -63 48c-55 0 -113 -52 -127 -114zM146 583c-10 0 -16 8 -15 18l3 21c2 11 10 19 20 19h231c9 0 16 -8 14 -19l-3 -21c-1 -10 -10 -18 -20 -18h-230z" />
    <glyph glyph-name="ebreve" unicode="&#x115;" horiz-adv-x="403" 
d="M30 167c0 130 87 243 212 243c81 0 123 -45 123 -105c0 -87 -93 -138 -268 -122c-6 -67 32 -130 93 -130c34 0 67 16 90 31c10 6 18 6 25 -5l12 -17c5 -8 6 -15 -7 -26c-26 -19 -75 -46 -134 -46c-85 0 -146 81 -146 177zM106 235c118 -11 190 18 190 66
c0 27 -22 48 -63 48c-55 0 -113 -52 -127 -114zM258 531c-58 0 -107 49 -106 114c0 11 5 20 16 20h19c10 0 14 -8 15 -17c6 -38 27 -64 62 -64c32 0 63 29 78 64c5 11 11 17 19 17h25c10 0 14 -9 10 -20c-19 -65 -70 -114 -138 -114z" />
    <glyph glyph-name="edotaccent" unicode="&#x117;" horiz-adv-x="403" 
d="M30 167c0 130 87 243 212 243c81 0 123 -45 123 -105c0 -87 -93 -138 -268 -122c-6 -67 32 -130 93 -130c34 0 67 16 90 31c10 6 18 6 25 -5l12 -17c5 -8 6 -15 -7 -26c-26 -19 -75 -46 -134 -46c-85 0 -146 81 -146 177zM106 235c118 -11 190 18 190 66
c0 27 -22 48 -63 48c-55 0 -113 -52 -127 -114zM259 566c-27 0 -46 23 -46 50c0 36 30 64 62 64c27 0 46 -22 46 -50c0 -35 -30 -64 -62 -64z" />
    <glyph glyph-name="eogonek" unicode="&#x119;" horiz-adv-x="404" 
d="M148 -7c-70 15 -118 89 -118 174c0 130 87 243 212 243c81 0 123 -45 123 -105c0 -87 -93 -138 -268 -122c-6 -67 32 -130 93 -130c34 0 67 16 90 31c10 6 18 6 25 -5l12 -17c5 -8 6 -15 -7 -26c-23 -17 -64 -39 -113 -45c-21 -20 -47 -54 -47 -98c0 -28 19 -49 45 -49
c22 0 38 9 51 16c8 4 16 -1 14 -14l-3 -24c-1 -10 -8 -14 -15 -18c-9 -5 -35 -15 -63 -15c-45 0 -87 28 -87 85s33 98 56 119zM107 239c118 -11 189 14 189 62c0 27 -22 48 -63 48c-55 0 -112 -48 -126 -110z" />
    <glyph glyph-name="gcircumflex" unicode="&#x11d;" 
d="M29 151c0 163 102 259 199 259c70 0 93 -53 93 -53l13 34c2 5 6 9 14 9h24c8 0 14 -8 12 -19l-63 -441c-19 -142 -96 -200 -179 -200c-89 0 -130 68 -132 71c-3 4 -6 11 -6 16c0 4 1 7 4 10l22 17c3 2 7 6 12 6c3 0 7 -2 10 -6c4 -5 39 -54 92 -54c36 0 87 15 108 147
l16 98h-6c-19 -27 -54 -55 -107 -55c-70 0 -126 61 -126 161zM171 53c58 0 104 72 113 108l18 123s-17 60 -80 60c-59 0 -125 -66 -125 -187c0 -67 33 -104 74 -104zM146 554l-9 18c-6 12 -1 20 5 24l119 94c5 4 10 7 18 7h3c7 0 15 -7 19 -12l84 -91c4 -5 5 -12 -2 -19
l-14 -15c-7 -7 -12 -12 -21 -4l-78 66l-102 -71c-9 -7 -18 -5 -22 3z" />
    <glyph glyph-name="gbreve" unicode="&#x11f;" 
d="M29 151c0 163 102 259 199 259c70 0 93 -53 93 -53l13 34c2 5 6 9 14 9h24c8 0 14 -8 12 -19l-63 -441c-19 -142 -96 -200 -179 -200c-89 0 -130 68 -132 71c-3 4 -6 11 -6 16c0 4 1 7 4 10l22 17c3 2 7 6 12 6c3 0 7 -2 10 -6c4 -5 39 -54 92 -54c36 0 87 15 108 147
l16 98h-6c-19 -27 -54 -55 -107 -55c-70 0 -126 61 -126 161zM171 53c58 0 104 72 113 108l18 123s-17 60 -80 60c-59 0 -125 -66 -125 -187c0 -67 33 -104 74 -104zM262 531c-58 0 -107 49 -106 114c0 11 5 20 16 20h19c10 0 14 -8 15 -17c6 -38 27 -64 62 -64
c32 0 63 29 78 64c5 11 11 17 19 17h25c10 0 14 -9 10 -20c-19 -65 -70 -114 -138 -114z" />
    <glyph glyph-name="gdotaccent" unicode="&#x121;" 
d="M29 151c0 163 102 259 199 259c70 0 93 -53 93 -53l13 34c2 5 6 9 14 9h24c8 0 14 -8 12 -19l-63 -441c-19 -142 -96 -200 -179 -200c-89 0 -130 68 -132 71c-3 4 -6 11 -6 16c0 4 1 7 4 10l22 17c3 2 7 6 12 6c3 0 7 -2 10 -6c4 -5 39 -54 92 -54c36 0 87 15 108 147
l16 98h-6c-19 -27 -54 -55 -107 -55c-70 0 -126 61 -126 161zM171 53c58 0 104 72 113 108l18 123s-17 60 -80 60c-59 0 -125 -66 -125 -187c0 -67 33 -104 74 -104zM262 566c-27 0 -46 23 -46 50c0 36 30 64 62 64c27 0 46 -22 46 -50c0 -35 -30 -64 -62 -64z" />
    <glyph glyph-name="gcommaaccent" unicode="&#x123;" 
d="M257 531c-26 0 -52 15 -52 67c0 94 69 175 105 208c10 9 17 8 22 2l10 -14c6 -8 2 -15 -8 -24s-64 -53 -74 -126c3 1 8 1 13 1c26 0 46 -23 46 -50c0 -36 -30 -64 -62 -64zM29 151c0 163 102 259 199 259c70 0 93 -53 93 -53l13 34c2 5 6 9 14 9h24c8 0 14 -8 12 -19
l-63 -441c-19 -142 -96 -200 -179 -200c-89 0 -130 68 -132 71c-3 4 -6 11 -6 16c0 4 1 7 4 10l22 17c3 2 7 6 12 6c3 0 7 -2 10 -6c4 -5 39 -54 92 -54c36 0 87 15 108 147l16 98h-6c-19 -27 -54 -55 -107 -55c-70 0 -126 61 -126 161zM171 53c58 0 104 72 113 108l18 123
s-17 60 -80 60c-59 0 -125 -66 -125 -187c0 -67 33 -104 74 -104z" />
    <glyph glyph-name="hcircumflex" unicode="&#x125;" horiz-adv-x="463" 
d="M33 19l93 662c1 10 10 19 19 19h36c9 0 15 -9 14 -19l-45 -324c3 0 56 53 124 53c86 0 135 -63 118 -180l-30 -211c-1 -10 -11 -19 -20 -19h-36c-9 0 -15 9 -14 19l30 211c11 76 -15 113 -64 113c-64 0 -116 -56 -118 -56l-38 -268c-1 -10 -10 -19 -20 -19h-35
c-9 0 -15 9 -14 19zM56 771l-9 18c-6 12 -1 20 5 24l119 94c5 4 10 7 18 7h3c7 0 15 -7 19 -12l84 -91c4 -5 5 -12 -2 -19l-14 -15c-7 -7 -12 -12 -21 -4l-78 66l-102 -71c-9 -7 -18 -5 -22 3z" />
    <glyph glyph-name="hbar" unicode="&#x127;" horiz-adv-x="462" 
d="M33 19l72 517h-29c-9 0 -15 9 -14 19l1 7c1 10 10 19 19 19h29l15 100c1 10 10 19 19 19h36c9 0 16 -9 14 -19l-14 -100h134c10 0 16 -9 15 -19l-1 -8c-1 -10 -10 -18 -20 -18h-134l-25 -179c3 0 56 53 124 53c110 0 131 -88 113 -213l-25 -178c-1 -10 -11 -19 -20 -19
h-36c-9 0 -15 9 -14 19l30 211c10 76 -15 113 -64 113c-64 0 -118 -56 -118 -56l-38 -268c-1 -11 -9 -19 -25 -19h-30c-9 0 -16 9 -14 19z" />
    <glyph glyph-name="dotlessi" unicode="&#x131;" horiz-adv-x="207" 
d="M33 19l50 362c2 10 11 19 20 19h35c9 0 16 -9 15 -19l-51 -362c-1 -10 -11 -19 -20 -19h-35c-9 0 -15 9 -14 19z" />
    <glyph glyph-name="igrave" unicode="&#xec;" horiz-adv-x="207" 
d="M206 562l-132 64c-12 6 -12 16 -7 24l21 34c6 9 19 7 24 3l125 -84c5 -3 8 -11 3 -19l-12 -20c-5 -8 -10 -8 -22 -2zM33 19l50 362c2 10 11 19 20 19h35c9 0 16 -9 15 -19l-51 -362c-1 -10 -11 -19 -20 -19h-35c-9 0 -15 9 -14 19z" />
    <glyph glyph-name="iacute" unicode="&#xed;" horiz-adv-x="207" 
d="M84 557c-13 -6 -19 -1 -22 8l-7 18c-3 8 1 15 8 19l148 84c6 4 20 6 25 -8l13 -33c5 -12 -1 -18 -8 -21zM33 19l50 362c2 10 11 19 20 19h35c9 0 16 -9 15 -19l-51 -362c-1 -10 -11 -19 -20 -19h-35c-9 0 -15 9 -14 19z" />
    <glyph glyph-name="ibreve" unicode="&#x12d;" horiz-adv-x="207" 
d="M142 531c-58 0 -107 49 -106 114c0 11 5 20 16 20h19c10 0 14 -8 15 -17c6 -38 27 -64 62 -64c32 0 63 29 78 64c5 11 11 17 19 17h25c10 0 14 -9 10 -20c-19 -65 -70 -114 -138 -114zM33 19l50 362c2 10 11 19 20 19h35c9 0 16 -9 15 -19l-51 -362
c-1 -10 -11 -19 -20 -19h-35c-9 0 -15 9 -14 19z" />
    <glyph glyph-name="icircumflex" unicode="&#xee;" horiz-adv-x="207" 
d="M32 19l50 362c2 10 11 19 20 19h35c9 0 16 -9 15 -19l-51 -362c-1 -10 -11 -19 -20 -19h-35c-9 0 -15 9 -14 19zM27 554l-9 18c-6 12 -1 20 5 24l119 94c5 4 10 7 18 7h3c7 0 15 -7 19 -12l84 -91c4 -5 5 -12 -2 -19l-14 -15c-7 -7 -12 -12 -21 -4l-78 66l-102 -71
c-9 -7 -18 -5 -22 3z" />
    <glyph glyph-name="itilde" unicode="&#x129;" horiz-adv-x="207" 
d="M36 575l-16 8c-9 6 -7 16 -4 23c7 18 38 84 95 84c54 0 59 -72 91 -72c24 0 36 30 42 47c4 10 12 19 25 11l14 -8c8 -5 10 -15 7 -23c-8 -26 -39 -85 -93 -85c-48 0 -63 73 -91 73c-27 0 -39 -33 -46 -50c-4 -9 -15 -14 -24 -8zM33 19l50 362c2 10 11 19 20 19h35
c9 0 16 -9 15 -19l-51 -362c-1 -10 -11 -19 -20 -19h-35c-9 0 -15 9 -14 19z" />
    <glyph glyph-name="idieresis" unicode="&#xef;" horiz-adv-x="207" 
d="M234 585c-23 0 -39 18 -39 41c0 30 25 54 52 54c24 0 40 -18 40 -42c0 -29 -25 -53 -53 -53zM59 585c-22 0 -39 18 -39 41c0 30 25 54 53 54c23 0 39 -18 39 -42c0 -29 -25 -53 -53 -53zM33 19l50 362c2 10 11 19 20 19h35c9 0 16 -9 15 -19l-51 -362
c-1 -10 -11 -19 -20 -19h-35c-9 0 -15 9 -14 19z" />
    <glyph glyph-name="imacron" unicode="&#x12b;" horiz-adv-x="207" 
d="M32 583c-10 0 -16 8 -15 18l3 21c2 11 10 19 20 19h231c9 0 16 -8 14 -19l-3 -21c-1 -10 -10 -18 -20 -18h-230zM33 19l50 362c2 10 11 19 20 19h35c9 0 16 -9 15 -19l-51 -362c-1 -10 -11 -19 -20 -19h-35c-9 0 -15 9 -14 19z" />
    <glyph glyph-name="iogonek" unicode="&#x12f;" horiz-adv-x="208" 
d="M146 585c-23 0 -40 18 -40 41c0 30 25 54 53 54c24 0 40 -18 40 -42c0 -29 -25 -53 -53 -53zM35 7c-2 3 -3 7 -2 12l50 362c1 10 9 19 20 19h36c9 0 15 -9 14 -19l-51 -362c-1 -10 -11 -19 -20 -19h-7c-20 -17 -56 -57 -56 -107c0 -28 19 -49 45 -49c22 0 38 9 51 16
c8 4 16 -1 14 -14l-3 -24c-1 -10 -8 -14 -15 -18c-9 -5 -35 -15 -63 -15c-45 0 -87 28 -87 85c0 74 55 120 74 133z" />
    <glyph glyph-name="dotlessj" unicode="&#x237;" horiz-adv-x="209" 
d="M11 -140l73 521c2 11 9 19 20 19h35c9 0 17 -8 15 -19l-74 -521c-16 -116 -71 -170 -160 -170c-49 0 -86 26 -100 42c-6 6 -6 17 -1 23l20 26c7 10 15 9 23 1c10 -10 38 -29 61 -29c41 0 77 30 88 107z" />
    <glyph glyph-name="jcircumflex" unicode="&#x135;" horiz-adv-x="209" 
d="M11 -140l73 521c2 11 9 19 20 19h35c9 0 17 -8 15 -19l-74 -521c-16 -116 -71 -170 -160 -170c-49 0 -86 26 -100 42c-6 6 -6 17 -1 23l20 26c7 10 15 9 23 1c10 -10 38 -29 61 -29c41 0 77 30 88 107zM31 554l-9 18c-6 12 -1 20 5 24l119 94c5 4 10 7 18 7h3
c7 0 15 -7 19 -12l84 -91c4 -5 5 -12 -2 -19l-14 -15c-7 -7 -12 -12 -21 -4l-78 66l-102 -71c-9 -7 -18 -5 -22 3z" />
    <glyph glyph-name="kcommaaccent" unicode="&#x137;" horiz-adv-x="419" 
d="M33 19l93 662c1 10 10 19 19 19h36c9 0 15 -9 14 -19l-60 -433l171 140c7 6 15 12 23 12h56c15 0 13 -19 5 -25l-194 -158l167 -192c6 -7 2 -25 -13 -25h-46c-8 0 -14 5 -17 8l-159 193l-26 -182c-1 -10 -10 -19 -19 -19h-36c-9 0 -15 9 -14 19zM122 -156
c0 36 31 64 65 64c26 0 53 -15 53 -68c0 -94 -70 -174 -108 -207c-9 -9 -17 -8 -21 -2l-11 14c-4 5 -4 12 6 21c11 9 68 56 78 129c-3 -1 -8 -1 -14 -1c-27 0 -48 23 -48 50z" />
    <glyph glyph-name="kgreenlandic" unicode="&#x138;" horiz-adv-x="413" 
d="M33 19l51 362c1 10 11 19 20 19h35c9 0 15 -9 14 -19l-23 -163l178 170c9 9 16 12 23 12h50c15 0 11 -19 4 -25l-194 -179l165 -171c6 -7 2 -25 -13 -25h-44c-8 0 -13 5 -16 8l-160 163l-21 -152c-1 -10 -11 -19 -20 -19h-35c-9 0 -15 9 -14 19z" />
    <glyph glyph-name="lacute" unicode="&#x13a;" horiz-adv-x="208" 
d="M33 19l93 662c1 10 11 19 20 19h35c9 0 15 -9 14 -19l-93 -662c-1 -10 -10 -19 -19 -19h-36c-9 0 -15 9 -14 19zM113 774c-13 -6 -19 -1 -22 8l-7 18c-3 8 1 15 8 19l148 84c6 4 20 6 25 -8l13 -33c5 -12 -1 -18 -8 -21z" />
    <glyph glyph-name="lcaron" unicode="&#x13e;" horiz-adv-x="238" 
d="M262 434l-11 14c-4 5 -2 15 8 24c11 9 64 53 75 126c-4 -1 -9 -1 -14 -1c-26 0 -46 23 -46 50c0 36 31 64 63 64c25 0 51 -15 51 -67c0 -94 -69 -175 -105 -208c-10 -9 -17 -8 -21 -2zM33 19l93 662c1 10 11 19 20 19h35c9 0 16 -9 14 -19l-93 -662
c-1 -10 -10 -19 -19 -19h-36c-9 0 -16 9 -14 19z" />
    <glyph glyph-name="lcommaaccent" unicode="&#x13c;" horiz-adv-x="207" 
d="M33 19l93 662c1 10 11 19 20 19h35c9 0 15 -9 14 -19l-93 -662c-1 -10 -10 -19 -19 -19h-36c-9 0 -15 9 -14 19zM-15 -156c0 36 31 64 65 64c26 0 53 -15 53 -68c0 -94 -70 -174 -108 -207c-9 -9 -17 -8 -21 -2l-11 14c-4 5 -4 12 6 21c11 9 68 56 78 129
c-3 -1 -8 -1 -14 -1c-27 0 -48 23 -48 50z" />
    <glyph glyph-name="lslash" unicode="&#x142;" horiz-adv-x="228" 
d="M46 19l42 303l-47 -29c-8 -5 -19 -2 -22 7l-3 8c-3 8 1 18 10 24l70 41l43 308c1 10 11 19 20 19h35c9 0 16 -9 14 -19l-37 -268l83 52c10 6 19 3 22 -5l3 -8c3 -9 -1 -20 -10 -26l-105 -64l-49 -343c-1 -10 -10 -19 -19 -19h-36c-9 0 -16 9 -14 19z" />
    <glyph glyph-name="ldot" unicode="&#x140;" horiz-adv-x="305" 
d="M33 19l93 662c1 10 11 19 20 19h35c9 0 15 -9 14 -19l-93 -662c-1 -10 -10 -19 -19 -19h-36c-9 0 -15 9 -14 19zM263 303c-27 0 -46 23 -46 50c0 36 30 64 62 64c27 0 46 -22 46 -50c0 -35 -30 -64 -62 -64z" />
    <glyph glyph-name="nacute" unicode="&#x144;" horiz-adv-x="462" 
d="M33 19l50 362c1 10 8 19 20 19h20c8 0 12 -4 13 -12l4 -31c2 0 60 53 134 53c97 0 132 -76 118 -180l-30 -211c-1 -10 -11 -19 -20 -19h-36c-9 0 -16 9 -14 19l29 211c11 76 -13 113 -63 113c-64 0 -117 -57 -119 -57l-37 -267c-1 -10 -10 -19 -21 -19h-34
c-9 0 -16 9 -14 19zM210 557c-13 -6 -19 -1 -22 8l-7 18c-3 8 1 15 8 19l148 84c6 4 20 6 25 -8l13 -33c5 -12 -1 -18 -8 -21z" />
    <glyph glyph-name="ncaron" unicode="&#x148;" horiz-adv-x="462" 
d="M33 19l50 362c1 10 8 19 20 19h20c8 0 12 -4 13 -12l4 -31c2 0 60 53 134 53c97 0 132 -76 118 -180l-30 -211c-1 -10 -11 -19 -20 -19h-36c-9 0 -16 9 -14 19l29 211c11 76 -13 113 -63 113c-64 0 -117 -57 -119 -57l-37 -267c-1 -10 -10 -19 -21 -19h-34
c-9 0 -16 9 -14 19zM262 544c-7 0 -15 7 -19 12l-84 91c-4 5 -5 12 2 19l14 15c7 7 12 12 21 4l78 -66l102 71c9 7 18 5 22 -3l9 -18c6 -12 1 -20 -5 -24l-119 -94c-5 -4 -10 -7 -18 -7h-3z" />
    <glyph glyph-name="ntilde" unicode="&#xf1;" horiz-adv-x="462" 
d="M33 19l50 362c1 10 8 19 20 19h20c8 0 12 -4 13 -12l4 -31c2 0 60 53 134 53c97 0 132 -76 118 -180l-30 -211c-1 -10 -11 -19 -20 -19h-36c-9 0 -16 9 -14 19l29 211c11 76 -13 113 -63 113c-64 0 -117 -57 -119 -57l-37 -267c-1 -10 -10 -19 -21 -19h-34
c-9 0 -16 9 -14 19zM161 575l-16 8c-9 6 -7 16 -4 23c7 18 38 84 95 84c54 0 59 -72 91 -72c24 0 36 30 42 47c4 10 12 19 25 11l14 -8c8 -5 10 -15 7 -23c-8 -26 -39 -85 -93 -85c-48 0 -63 73 -91 73c-27 0 -39 -33 -46 -50c-4 -9 -15 -14 -24 -8z" />
    <glyph glyph-name="ncommaaccent" unicode="&#x146;" horiz-adv-x="463" 
d="M33 19l50 362c1 10 8 19 20 19h20c8 0 12 -4 13 -12l4 -31c2 0 60 53 134 53c97 0 132 -76 118 -180l-30 -211c-1 -10 -11 -19 -20 -19h-36c-9 0 -16 9 -14 19l29 211c11 76 -13 113 -63 113c-64 0 -117 -57 -119 -57l-37 -267c-1 -10 -10 -19 -21 -19h-34
c-9 0 -16 9 -14 19zM122 -156c0 36 31 64 65 64c26 0 53 -15 53 -68c0 -94 -70 -174 -108 -207c-9 -9 -17 -8 -21 -2l-11 14c-4 5 -4 12 6 21c11 9 68 56 78 129c-3 -1 -8 -1 -14 -1c-27 0 -48 23 -48 50z" />
    <glyph glyph-name="napostrophe" unicode="&#x149;" horiz-adv-x="462" 
d="M33 19l50 362c1 10 8 19 20 19h20c8 0 12 -4 13 -12l4 -31c2 0 60 53 134 53c97 0 132 -76 118 -180l-30 -211c-1 -10 -11 -19 -20 -19h-36c-9 0 -16 9 -14 19l29 211c11 76 -13 113 -63 113c-64 0 -117 -57 -119 -57l-37 -267c-1 -10 -10 -19 -21 -19h-34
c-9 0 -16 9 -14 19zM-64 646c0 36 31 64 65 64c26 0 53 -15 53 -68c0 -94 -70 -174 -108 -207c-9 -9 -17 -8 -21 -2l-11 14c-4 5 -4 12 6 21c11 9 68 56 78 129c-3 -1 -8 -1 -14 -1c-27 0 -48 23 -48 50z" />
    <glyph glyph-name="ograve" unicode="&#xf2;" horiz-adv-x="445" 
d="M29 172c0 128 93 238 210 238c85 0 155 -83 155 -181c0 -129 -93 -239 -210 -239c-85 0 -155 83 -155 182zM191 53c70 0 134 78 134 170c0 66 -38 120 -93 120c-70 0 -135 -74 -135 -165c0 -68 38 -125 94 -125zM322 562l-132 64c-12 6 -12 16 -7 24l21 34c6 9 19 7 24 3
l125 -84c5 -3 8 -11 3 -19l-12 -20c-5 -8 -10 -8 -22 -2z" />
    <glyph glyph-name="oacute" unicode="&#xf3;" horiz-adv-x="445" 
d="M29 172c0 128 93 238 210 238c85 0 155 -83 155 -181c0 -129 -93 -239 -210 -239c-85 0 -155 83 -155 182zM191 53c70 0 134 78 134 170c0 66 -38 120 -93 120c-70 0 -135 -74 -135 -165c0 -68 38 -125 94 -125zM200 557c-13 -6 -19 -1 -22 8l-7 18c-3 8 1 15 8 19
l148 84c6 4 20 6 25 -8l13 -33c5 -12 -1 -18 -8 -21z" />
    <glyph glyph-name="ocircumflex" unicode="&#xf4;" horiz-adv-x="445" 
d="M29 172c0 128 93 238 210 238c85 0 155 -83 155 -181c0 -129 -93 -239 -210 -239c-85 0 -155 83 -155 182zM191 53c70 0 134 78 134 170c0 66 -38 120 -93 120c-70 0 -135 -74 -135 -165c0 -68 38 -125 94 -125zM144 554l-9 18c-6 12 -1 20 5 24l119 94c5 4 10 7 18 7h3
c7 0 15 -7 19 -12l84 -91c4 -5 5 -12 -2 -19l-14 -15c-7 -7 -12 -12 -21 -4l-78 66l-102 -71c-9 -7 -18 -5 -22 3z" />
    <glyph glyph-name="otilde" unicode="&#xf5;" horiz-adv-x="445" 
d="M29 172c0 128 93 238 210 238c85 0 155 -83 155 -181c0 -129 -93 -239 -210 -239c-85 0 -155 83 -155 182zM191 53c70 0 134 78 134 170c0 66 -38 120 -93 120c-70 0 -135 -74 -135 -165c0 -68 38 -125 94 -125zM154 575l-16 8c-9 6 -7 16 -4 23c7 18 38 84 95 84
c54 0 59 -72 91 -72c24 0 36 30 42 47c4 10 12 19 25 11l14 -8c8 -5 10 -15 7 -23c-8 -26 -39 -85 -93 -85c-48 0 -63 73 -91 73c-27 0 -39 -33 -46 -50c-4 -9 -15 -14 -24 -8z" />
    <glyph glyph-name="odieresis" unicode="&#xf6;" horiz-adv-x="445" 
d="M29 172c0 128 93 238 210 238c85 0 155 -83 155 -181c0 -129 -93 -239 -210 -239c-85 0 -155 83 -155 182zM191 53c70 0 134 78 134 170c0 66 -38 120 -93 120c-70 0 -135 -74 -135 -165c0 -68 38 -125 94 -125zM351 585c-23 0 -39 18 -39 41c0 30 25 54 52 54
c24 0 40 -18 40 -42c0 -29 -25 -53 -53 -53zM176 585c-22 0 -39 18 -39 41c0 30 25 54 53 54c23 0 39 -18 39 -42c0 -29 -25 -53 -53 -53z" />
    <glyph glyph-name="omacron" unicode="&#x14d;" horiz-adv-x="445" 
d="M29 172c0 128 93 238 210 238c85 0 155 -83 155 -181c0 -129 -93 -239 -210 -239c-85 0 -155 83 -155 182zM191 53c70 0 134 78 134 170c0 66 -38 120 -93 120c-70 0 -135 -74 -135 -165c0 -68 38 -125 94 -125zM148 583c-10 0 -16 8 -15 18l3 21c2 11 10 19 20 19h231
c9 0 16 -8 14 -19l-3 -21c-1 -10 -10 -18 -20 -18h-230z" />
    <glyph glyph-name="obreve" unicode="&#x14f;" horiz-adv-x="445" 
d="M29 172c0 128 93 238 210 238c85 0 155 -83 155 -181c0 -129 -93 -239 -210 -239c-85 0 -155 83 -155 182zM191 53c70 0 134 78 134 170c0 66 -38 120 -93 120c-70 0 -135 -74 -135 -165c0 -68 38 -125 94 -125zM260 531c-58 0 -107 49 -106 114c0 11 5 20 16 20h19
c10 0 14 -8 15 -17c6 -38 27 -64 62 -64c32 0 63 29 78 64c5 11 11 17 19 17h25c10 0 14 -9 10 -20c-19 -65 -70 -114 -138 -114z" />
    <glyph glyph-name="ohungarumlaut" unicode="&#x151;" horiz-adv-x="445" 
d="M29 172c0 128 93 238 210 238c85 0 155 -83 155 -181c0 -129 -93 -239 -210 -239c-85 0 -155 83 -155 182zM191 53c70 0 134 78 134 170c0 66 -38 120 -93 120c-70 0 -135 -74 -135 -165c0 -68 38 -125 94 -125zM323 521c-9 0 -16 9 -12 19l63 141c4 10 11 19 20 19h40
c17 0 21 -12 13 -25l-90 -139c-5 -8 -11 -15 -19 -15h-15zM174 521c-9 0 -16 9 -12 19l63 141c4 10 11 19 20 19h40c17 0 21 -12 13 -25l-90 -139c-5 -8 -11 -15 -19 -15h-15z" />
    <glyph glyph-name="oslash" unicode="&#xf8;" horiz-adv-x="445" 
d="M34 24l-4 5c-6 7 -4 19 3 26l20 20c-15 28 -24 61 -24 97c0 128 93 238 210 238c42 0 80 -20 108 -52l24 23c8 8 19 8 24 0l5 -5c6 -7 5 -19 -4 -26l-26 -25c15 -28 24 -61 24 -96c0 -129 -93 -239 -210 -239c-42 0 -80 20 -108 52l-18 -18c-8 -8 -18 -7 -24 0zM105 125
l192 185c-16 21 -39 34 -65 34c-70 0 -135 -75 -135 -166c0 -19 2 -37 8 -53zM125 88c16 -21 39 -33 66 -33c70 0 134 76 134 168c0 18 -3 35 -8 51z" />
    <glyph glyph-name="oslashacute" unicode="&#x1ff;" horiz-adv-x="445" 
d="M199 557c-13 -6 -19 -1 -22 8l-7 18c-3 8 1 15 8 19l148 84c6 4 20 6 25 -8l13 -33c5 -12 -1 -18 -8 -21zM34 24l-4 5c-6 7 -4 19 3 26l20 20c-15 28 -24 61 -24 97c0 128 93 238 210 238c42 0 80 -20 108 -52l24 23c8 8 19 8 24 0l5 -5c6 -7 5 -19 -4 -26l-26 -25
c15 -28 24 -61 24 -96c0 -129 -93 -239 -210 -239c-42 0 -80 20 -108 52l-18 -18c-8 -8 -18 -7 -24 0zM105 125l192 185c-16 21 -39 34 -65 34c-70 0 -135 -75 -135 -166c0 -19 2 -37 8 -53zM125 88c16 -21 39 -33 66 -33c70 0 134 76 134 168c0 18 -3 35 -8 51z" />
    <glyph glyph-name="oe" unicode="&#x153;" horiz-adv-x="689" 
d="M29 171c0 128 93 239 210 239c57 0 99 -36 124 -85c39 51 101 85 165 85c81 0 123 -45 123 -105c0 -87 -93 -138 -268 -122c-6 -67 32 -130 93 -130c34 0 67 17 87 30c13 8 22 8 29 -4l9 -15c6 -10 8 -17 -5 -28c-26 -19 -75 -46 -134 -46s-100 33 -124 81
c-39 -46 -98 -81 -157 -81c-90 0 -152 82 -152 181zM393 239c118 -11 189 14 189 62c0 27 -22 48 -63 48c-55 0 -112 -48 -126 -110zM189 56c70 0 135 74 135 166c0 66 -36 122 -96 122c-66 0 -131 -75 -131 -172c0 -62 36 -116 92 -116z" />
    <glyph glyph-name="racute" unicode="&#x155;" horiz-adv-x="313" 
d="M33 19l50 362c1 10 8 19 20 19h20c7 0 12 -5 13 -14l4 -29c2 0 43 53 115 53c29 0 74 -5 59 -33l-17 -33c-7 -13 -14 -13 -23 -9c-7 3 -19 8 -39 8c-56 0 -94 -57 -96 -57l-37 -267c-2 -10 -12 -19 -22 -19h-33c-9 0 -16 9 -14 19zM145 557c-13 -6 -19 -1 -22 8l-7 18
c-3 8 1 15 8 19l148 84c6 4 20 6 25 -8l13 -33c5 -12 -1 -18 -8 -21z" />
    <glyph glyph-name="rcaron" unicode="&#x159;" horiz-adv-x="313" 
d="M33 19l50 362c1 10 8 19 20 19h20c7 0 12 -5 13 -14l4 -29c2 0 43 53 115 53c29 0 74 -5 59 -33l-17 -33c-7 -13 -14 -13 -23 -9c-7 3 -19 8 -39 8c-56 0 -94 -57 -96 -57l-37 -267c-2 -10 -12 -19 -22 -19h-33c-9 0 -16 9 -14 19zM188 544c-7 0 -15 7 -19 12l-84 91
c-4 5 -5 12 2 19l14 15c7 7 12 12 21 4l78 -66l102 71c9 7 18 5 22 -3l9 -18c6 -12 1 -20 -5 -24l-119 -94c-5 -4 -10 -7 -18 -7h-3z" />
    <glyph glyph-name="rcommaaccent" unicode="&#x157;" horiz-adv-x="313" 
d="M33 19l50 362c1 10 8 19 20 19h20c7 0 12 -5 13 -14l4 -29c2 0 43 53 115 53c29 0 74 -5 59 -33l-17 -33c-7 -13 -14 -13 -23 -9c-7 3 -19 8 -39 8c-56 0 -94 -57 -96 -57l-37 -267c-2 -10 -12 -19 -22 -19h-33c-9 0 -16 9 -14 19zM-13 -156c0 36 31 64 65 64
c26 0 53 -15 53 -68c0 -94 -70 -174 -108 -207c-9 -9 -17 -8 -21 -2l-11 14c-4 5 -4 12 6 21c11 9 68 56 78 129c-3 -1 -8 -1 -14 -1c-27 0 -48 23 -48 50z" />
    <glyph glyph-name="sacute" unicode="&#x15b;" horiz-adv-x="336" 
d="M19 35c-4 4 -7 14 -2 21l17 23c6 8 16 10 24 3c0 0 35 -31 80 -31c37 0 61 22 61 54c0 29 -21 46 -64 72c-43 24 -86 58 -86 115c0 50 28 118 133 118c48 0 82 -18 98 -31c7 -6 10 -17 3 -28l-14 -20c-8 -11 -18 -11 -26 -6c0 0 -35 20 -68 20c-42 0 -55 -26 -55 -45
c0 -29 23 -43 54 -61c53 -30 101 -61 101 -122c0 -67 -49 -127 -144 -127c-56 0 -95 28 -112 45zM152 557c-13 -6 -19 -1 -22 8l-7 18c-3 8 1 15 8 19l148 84c6 4 20 6 25 -8l13 -33c5 -12 -1 -18 -8 -21z" />
    <glyph glyph-name="scircumflex" unicode="&#x15d;" horiz-adv-x="336" 
d="M19 35c-4 4 -7 14 -2 21l17 23c6 8 16 10 24 3c0 0 35 -31 80 -31c37 0 61 22 61 54c0 29 -21 46 -64 72c-43 24 -86 58 -86 115c0 50 28 118 133 118c48 0 82 -18 98 -31c7 -6 10 -17 3 -28l-14 -20c-8 -11 -18 -11 -26 -6c0 0 -35 20 -68 20c-42 0 -55 -26 -55 -45
c0 -29 23 -43 54 -61c53 -30 101 -61 101 -122c0 -67 -49 -127 -144 -127c-56 0 -95 28 -112 45zM96 554l-9 18c-6 12 -1 20 5 24l119 94c5 4 10 7 18 7h3c7 0 15 -7 19 -12l84 -91c4 -5 5 -12 -2 -19l-14 -15c-7 -7 -12 -12 -21 -4l-78 66l-102 -71c-9 -7 -18 -5 -22 3z
" />
    <glyph glyph-name="scaron" unicode="&#x161;" horiz-adv-x="336" 
d="M19 35c-4 4 -7 14 -2 21l17 23c6 8 16 10 24 3c0 0 35 -31 80 -31c37 0 61 22 61 54c0 29 -21 46 -64 72c-43 24 -86 58 -86 115c0 50 28 118 133 118c48 0 82 -18 98 -31c7 -6 10 -17 3 -28l-14 -20c-8 -11 -18 -11 -26 -6c0 0 -35 20 -68 20c-42 0 -55 -26 -55 -45
c0 -29 23 -43 54 -61c53 -30 101 -61 101 -122c0 -67 -49 -127 -144 -127c-56 0 -95 28 -112 45zM207 544c-7 0 -15 7 -19 12l-84 91c-4 5 -5 12 2 19l14 15c7 7 12 12 21 4l78 -66l102 71c9 7 18 5 22 -3l9 -18c6 -12 1 -20 -5 -24l-119 -94c-5 -4 -10 -7 -18 -7h-3z" />
    <glyph glyph-name="scedilla" unicode="&#x15f;" horiz-adv-x="338" 
d="M20 35c-4 4 -7 14 -2 21l17 23c6 8 16 10 24 3c0 0 35 -31 80 -31c37 0 61 22 61 54c0 29 -21 46 -64 72c-43 24 -86 58 -86 115c0 50 28 118 133 118c48 0 82 -18 98 -31c7 -6 10 -17 3 -28l-14 -20c-8 -11 -18 -11 -26 -6c0 0 -35 20 -68 20c-42 0 -55 -26 -55 -45
c0 -29 23 -43 54 -61c53 -30 101 -61 101 -122c0 -66 -48 -125 -140 -127l-5 -44c47 -9 80 -42 80 -96c0 -57 -39 -110 -105 -110c-30 0 -56 16 -68 36c-6 9 -3 19 3 25l12 11c6 6 15 6 20 0c10 -12 23 -18 36 -18c26 0 46 24 46 55c0 39 -36 49 -65 55c-14 3 -14 15 -13 20
l10 72c-32 9 -55 27 -67 39z" />
    <glyph glyph-name="scommaaccent" unicode="&#x219;" horiz-adv-x="337" 
d="M19 35c-4 4 -7 14 -2 21l17 23c6 8 16 10 24 3c0 0 35 -31 80 -31c37 0 61 22 61 54c0 29 -21 46 -64 72c-43 24 -86 58 -86 115c0 50 28 118 133 118c48 0 82 -18 98 -31c7 -6 10 -17 3 -28l-14 -20c-8 -11 -18 -11 -26 -6c0 0 -35 20 -68 20c-42 0 -55 -26 -55 -45
c0 -29 23 -43 54 -61c53 -30 101 -61 101 -122c0 -67 -49 -127 -144 -127c-56 0 -95 28 -112 45zM56 -156c0 36 31 64 65 64c26 0 53 -15 53 -68c0 -94 -70 -174 -108 -207c-9 -9 -17 -8 -21 -2l-11 14c-4 5 -4 12 6 21c11 9 68 56 78 129c-3 -1 -8 -1 -14 -1
c-27 0 -48 23 -48 50z" />
    <glyph glyph-name="germandbls" unicode="&#xdf;" horiz-adv-x="492" 
d="M187 32l9 27c3 9 12 13 21 9c11 -5 39 -17 70 -17c43 0 79 34 79 88c0 73 -95 144 -95 207c0 66 112 152 112 224c0 51 -35 78 -71 78c-77 0 -130 -80 -153 -238l-99 -691c-1 -10 -11 -19 -20 -19h-36c-9 0 -16 9 -14 19l99 692c28 198 111 299 235 299
c69 0 132 -38 132 -126c0 -111 -111 -185 -111 -232c0 -40 91 -120 91 -217c0 -96 -71 -145 -144 -145c-42 0 -79 12 -94 19c-7 3 -16 9 -11 23z" />
    <glyph glyph-name="tcaron" unicode="&#x165;" horiz-adv-x="318" 
d="M64 100l34 240h-43c-10 0 -17 9 -15 19l4 22c2 11 9 19 19 19h44l15 111c2 10 11 19 20 19l36 2c9 0 15 -9 14 -19l-16 -113h100c10 0 16 -8 15 -19l-3 -22c-1 -10 -10 -19 -20 -19h-100l-33 -234c-6 -40 3 -48 22 -48c22 0 52 16 65 23c14 8 18 1 21 -7l11 -25
c5 -12 0 -18 -10 -25c-13 -9 -64 -34 -106 -34c-64 0 -82 48 -74 110zM354 433l-11 14c-7 9 -1 15 8 24c11 10 64 53 75 126c-3 -1 -9 -1 -14 -1c-26 0 -45 23 -45 50c0 36 30 64 62 64c25 0 51 -15 51 -68c0 -93 -69 -174 -104 -207c-10 -9 -17 -8 -22 -2z" />
    <glyph glyph-name="tcommaaccent" unicode="&#x163;" horiz-adv-x="319" 
d="M64 100l34 240h-43c-10 0 -17 9 -15 19l4 22c2 11 9 19 19 19h44l15 111c2 10 11 19 20 19l36 2c9 0 15 -9 14 -19l-16 -113h100c10 0 16 -8 15 -19l-3 -22c-1 -10 -10 -19 -20 -19h-100l-33 -234c-6 -40 3 -48 22 -48c22 0 52 16 65 23c14 8 18 1 21 -7l11 -25
c5 -12 0 -18 -10 -25c-13 -9 -64 -34 -106 -34c-64 0 -82 48 -74 110zM60 -156c0 36 31 64 65 64c26 0 53 -15 53 -68c0 -94 -70 -174 -108 -207c-9 -9 -17 -8 -21 -2l-11 14c-4 5 -4 12 6 21c11 9 68 56 78 129c-3 -1 -8 -1 -14 -1c-27 0 -48 23 -48 50z" />
    <glyph glyph-name="uni021B" unicode="&#x21b;" horiz-adv-x="319" 
d="M64 100l34 240h-43c-10 0 -17 9 -15 19l4 22c2 11 9 19 19 19h44l15 111c2 10 11 19 20 19l36 2c9 0 15 -9 14 -19l-16 -113h100c10 0 16 -8 15 -19l-3 -22c-1 -10 -10 -19 -20 -19h-100l-33 -234c-6 -40 3 -48 22 -48c22 0 52 16 65 23c14 8 18 1 21 -7l11 -25
c5 -12 0 -18 -10 -25c-13 -9 -64 -34 -106 -34c-64 0 -82 48 -74 110zM60 -156c0 36 31 64 65 64c26 0 53 -15 53 -68c0 -94 -70 -174 -108 -207c-9 -9 -17 -8 -21 -2l-11 14c-4 5 -4 12 6 21c11 9 68 56 78 129c-3 -1 -8 -1 -14 -1c-27 0 -48 23 -48 50z" />
    <glyph glyph-name="tbar" unicode="&#x167;" horiz-adv-x="318" 
d="M64 100l10 73h-35c-9 0 -14 9 -13 19l1 7c1 10 6 19 19 19h35l17 122h-43c-10 0 -17 9 -15 19l4 22c2 11 9 19 19 19h44l15 111c2 10 11 19 20 19l36 2c9 0 15 -9 14 -19l-16 -113h100c10 0 16 -8 15 -19l-3 -22c-1 -10 -10 -19 -20 -19h-100l-17 -122h82
c10 0 16 -9 15 -19l-1 -8c-2 -10 -8 -18 -20 -18h-83l-9 -67c-6 -40 3 -48 22 -48c22 0 52 16 65 23c14 8 18 1 21 -7l11 -25c5 -12 0 -18 -10 -25c-13 -9 -64 -34 -106 -34c-64 0 -82 48 -74 110z" />
    <glyph glyph-name="thorn" unicode="&#xfe;" horiz-adv-x="451" 
d="M104 23l-43 -304c-1 -10 -11 -19 -20 -19h-35c-9 0 -16 9 -15 19l136 962c1 10 10 19 19 19h36c9 0 15 -9 14 -19l-43 -309c2 0 41 38 102 38c88 0 144 -88 144 -179c0 -134 -88 -241 -207 -241c-54 0 -86 33 -88 33zM114 92c2 0 33 -35 79 -35c75 0 136 74 136 169
c0 64 -31 121 -91 121c-56 0 -96 -49 -96 -49c-10 -69 -19 -137 -28 -206z" />
    <glyph glyph-name="ugrave" unicode="&#xf9;" horiz-adv-x="454" 
d="M166 -10c-100 0 -131 75 -116 181l29 210c2 10 11 19 20 19h36c9 0 16 -9 15 -19l-30 -211c-11 -76 14 -117 63 -117c63 0 108 61 109 61l38 267c1 10 10 19 20 19h34c9 0 16 -9 15 -19l-51 -362c-1 -10 -9 -19 -20 -19h-20c-9 0 -11 7 -13 17l-4 26
c-3 -2 -51 -53 -125 -53zM326 562l-132 64c-12 6 -12 16 -7 24l21 34c6 9 19 7 24 3l125 -84c5 -3 8 -11 3 -19l-12 -20c-5 -8 -10 -8 -22 -2z" />
    <glyph glyph-name="uacute" unicode="&#xfa;" horiz-adv-x="454" 
d="M166 -10c-100 0 -131 75 -116 181l29 210c2 10 11 19 20 19h36c9 0 16 -9 15 -19l-30 -211c-11 -76 14 -117 63 -117c63 0 108 61 109 61l38 267c1 10 10 19 20 19h34c9 0 16 -9 15 -19l-51 -362c-1 -10 -9 -19 -20 -19h-20c-9 0 -11 7 -13 17l-4 26
c-3 -2 -51 -53 -125 -53zM205 557c-13 -6 -19 -1 -22 8l-7 18c-3 8 1 15 8 19l148 84c6 4 20 6 25 -8l13 -33c5 -12 -1 -18 -8 -21z" />
    <glyph glyph-name="ucircumflex" unicode="&#xfb;" horiz-adv-x="454" 
d="M166 -10c-100 0 -131 75 -116 181l29 210c2 10 11 19 20 19h36c9 0 16 -9 15 -19l-30 -211c-11 -76 14 -117 63 -117c63 0 108 61 109 61l38 267c1 10 10 19 20 19h34c9 0 16 -9 15 -19l-51 -362c-1 -10 -9 -19 -20 -19h-20c-9 0 -11 7 -13 17l-4 26
c-3 -2 -51 -53 -125 -53zM149 554l-9 18c-6 12 -1 20 5 24l119 94c5 4 10 7 18 7h3c7 0 15 -7 19 -12l84 -91c4 -5 5 -12 -2 -19l-14 -15c-7 -7 -12 -12 -21 -4l-78 66l-102 -71c-9 -7 -18 -5 -22 3z" />
    <glyph glyph-name="utilde" unicode="&#x169;" horiz-adv-x="454" 
d="M166 -10c-100 0 -131 75 -116 181l29 210c2 10 11 19 20 19h36c9 0 16 -9 15 -19l-30 -211c-11 -76 14 -117 63 -117c63 0 108 61 109 61l38 267c1 10 10 19 20 19h34c9 0 16 -9 15 -19l-51 -362c-1 -10 -9 -19 -20 -19h-20c-9 0 -11 7 -13 17l-4 26
c-3 -2 -51 -53 -125 -53zM158 575l-16 8c-9 6 -7 16 -4 23c7 18 38 84 95 84c54 0 59 -72 91 -72c24 0 36 30 42 47c4 10 12 19 25 11l14 -8c8 -5 10 -15 7 -23c-8 -26 -39 -85 -93 -85c-48 0 -63 73 -91 73c-27 0 -39 -33 -46 -50c-4 -9 -15 -14 -24 -8z" />
    <glyph glyph-name="udieresis" unicode="&#xfc;" horiz-adv-x="454" 
d="M166 -10c-100 0 -131 75 -116 181l29 210c2 10 11 19 20 19h36c9 0 16 -9 15 -19l-30 -211c-11 -76 14 -117 63 -117c63 0 108 61 109 61l38 267c1 10 10 19 20 19h34c9 0 16 -9 15 -19l-51 -362c-1 -10 -9 -19 -20 -19h-20c-9 0 -11 7 -13 17l-4 26
c-3 -2 -51 -53 -125 -53zM355 585c-23 0 -39 18 -39 41c0 30 25 54 52 54c24 0 40 -18 40 -42c0 -29 -25 -53 -53 -53zM180 585c-22 0 -39 18 -39 41c0 30 25 54 53 54c23 0 39 -18 39 -42c0 -29 -25 -53 -53 -53z" />
    <glyph glyph-name="umacron" unicode="&#x16b;" horiz-adv-x="454" 
d="M166 -10c-100 0 -131 75 -116 181l29 210c2 10 11 19 20 19h36c9 0 16 -9 15 -19l-30 -211c-11 -76 14 -117 63 -117c63 0 108 61 109 61l38 267c1 10 10 19 20 19h34c9 0 16 -9 15 -19l-51 -362c-1 -10 -9 -19 -20 -19h-20c-9 0 -11 7 -13 17l-4 26
c-3 -2 -51 -53 -125 -53zM151 583c-10 0 -16 8 -15 18l3 21c2 11 10 19 20 19h231c9 0 16 -8 14 -19l-3 -21c-1 -10 -10 -18 -20 -18h-230z" />
    <glyph glyph-name="ubreve" unicode="&#x16d;" horiz-adv-x="454" 
d="M166 -10c-100 0 -131 75 -116 181l29 210c2 10 11 19 20 19h36c9 0 16 -9 15 -19l-30 -211c-11 -76 14 -117 63 -117c63 0 108 61 109 61l38 267c1 10 10 19 20 19h34c9 0 16 -9 15 -19l-51 -362c-1 -10 -9 -19 -20 -19h-20c-9 0 -11 7 -13 17l-4 26
c-3 -2 -51 -53 -125 -53zM263 531c-58 0 -107 49 -106 114c0 11 5 20 16 20h19c10 0 14 -8 15 -17c6 -38 27 -64 62 -64c32 0 63 29 78 64c5 11 11 17 19 17h25c10 0 14 -9 10 -20c-19 -65 -70 -114 -138 -114z" />
    <glyph glyph-name="uring" unicode="&#x16f;" horiz-adv-x="454" 
d="M166 -10c-100 0 -131 75 -116 181l29 210c2 10 11 19 20 19h36c9 0 16 -9 15 -19l-30 -211c-11 -76 14 -117 63 -117c63 0 108 61 109 61l38 267c1 10 10 19 20 19h34c9 0 16 -9 15 -19l-51 -362c-1 -10 -9 -19 -20 -19h-20c-9 0 -11 7 -13 17l-4 26
c-3 -2 -51 -53 -125 -53zM253 492c-50 0 -85 42 -85 94c0 69 52 124 115 124c49 0 85 -42 85 -94c0 -69 -53 -124 -115 -124zM259 540c31 0 59 33 59 69c0 27 -14 51 -42 51c-30 0 -60 -30 -60 -66c0 -28 15 -54 43 -54z" />
    <glyph glyph-name="uhungarumlaut" unicode="&#x171;" horiz-adv-x="454" 
d="M166 -10c-100 0 -131 75 -116 181l29 210c2 10 11 19 20 19h36c9 0 16 -9 15 -19l-30 -211c-11 -76 14 -117 63 -117c63 0 108 61 109 61l38 267c1 10 10 19 20 19h34c9 0 16 -9 15 -19l-51 -362c-1 -10 -9 -19 -20 -19h-20c-9 0 -11 7 -13 17l-4 26
c-3 -2 -51 -53 -125 -53zM323 521c-9 0 -16 9 -12 19l63 141c4 10 11 19 20 19h40c17 0 21 -12 13 -25l-90 -139c-5 -8 -11 -15 -19 -15h-15zM174 521c-9 0 -16 9 -12 19l63 141c4 10 11 19 20 19h40c17 0 21 -12 13 -25l-90 -139c-5 -8 -11 -15 -19 -15h-15z" />
    <glyph glyph-name="uogonek" unicode="&#x173;" horiz-adv-x="453" 
d="M165 -10c-100 0 -131 75 -116 181l29 210c2 10 11 19 20 19h36c9 0 16 -9 15 -19l-30 -211c-11 -76 14 -113 63 -113c63 0 108 57 109 57l38 267c1 10 10 19 20 19h34c9 0 16 -9 15 -19l-51 -362c-1 -9 -8 -18 -18 -19c-20 -17 -56 -57 -56 -107c0 -28 19 -49 45 -49
c22 0 38 9 51 16c8 4 16 -1 14 -14l-3 -24c-1 -10 -8 -14 -15 -18c-9 -5 -35 -15 -63 -15c-45 0 -87 28 -87 85c0 88 80 139 80 139l-5 30c-3 -2 -51 -53 -125 -53z" />
    <glyph glyph-name="wacute" unicode="&#x1e83;" horiz-adv-x="558" 
d="M98 0l-52 384c-1 10 4 16 17 16h32c10 0 16 -6 17 -14l30 -243h2l138 257c4 6 8 10 17 10h5c7 0 12 -5 13 -10l59 -257h2l99 243c2 6 8 14 20 14h28c14 0 20 -6 14 -20l-154 -380c-3 -6 -8 -10 -16 -10h-5c-7 0 -13 5 -14 10l-66 287h-1l-150 -287c-3 -5 -9 -10 -17 -10
h-4c-7 0 -13 4 -14 10zM262 557c-13 -6 -19 -1 -22 8l-7 18c-3 8 1 15 8 19l148 84c6 4 20 6 25 -8l13 -33c5 -12 -1 -18 -8 -21z" />
    <glyph glyph-name="wcircumflex" unicode="&#x175;" horiz-adv-x="558" 
d="M98 0l-52 384c-1 10 4 16 17 16h32c10 0 16 -6 17 -14l30 -243h2l138 257c4 6 8 10 17 10h5c7 0 12 -5 13 -10l59 -257h2l99 243c2 6 8 14 20 14h28c14 0 20 -6 14 -20l-154 -380c-3 -6 -8 -10 -16 -10h-5c-7 0 -13 5 -14 10l-66 287h-1l-150 -287c-3 -5 -9 -10 -17 -10
h-4c-7 0 -13 4 -14 10zM206 554l-9 18c-6 12 -1 20 5 24l119 94c5 4 10 7 18 7h3c7 0 15 -7 19 -12l84 -91c4 -5 5 -12 -2 -19l-14 -15c-7 -7 -12 -12 -21 -4l-78 66l-102 -71c-9 -7 -18 -5 -22 3z" />
    <glyph glyph-name="wdieresis" unicode="&#x1e85;" horiz-adv-x="558" 
d="M98 0l-52 384c-1 10 4 16 17 16h32c10 0 16 -6 17 -14l30 -243h2l138 257c4 6 8 10 17 10h5c7 0 12 -5 13 -10l59 -257h2l99 243c2 6 8 14 20 14h28c14 0 20 -6 14 -20l-154 -380c-3 -6 -8 -10 -16 -10h-5c-7 0 -13 5 -14 10l-66 287h-1l-150 -287c-3 -5 -9 -10 -17 -10
h-4c-7 0 -13 4 -14 10zM412 585c-23 0 -39 18 -39 41c0 30 25 54 52 54c24 0 40 -18 40 -42c0 -29 -25 -53 -53 -53zM237 585c-22 0 -39 18 -39 41c0 30 25 54 53 54c23 0 39 -18 39 -42c0 -29 -25 -53 -53 -53z" />
    <glyph glyph-name="wgrave" unicode="&#x1e81;" horiz-adv-x="558" 
d="M98 0l-52 384c-1 10 4 16 17 16h32c10 0 16 -6 17 -14l30 -243h2l138 257c4 6 8 10 17 10h5c7 0 12 -5 13 -10l59 -257h2l99 243c2 6 8 14 20 14h28c14 0 20 -6 14 -20l-154 -380c-3 -6 -8 -10 -16 -10h-5c-7 0 -13 5 -14 10l-66 287h-1l-150 -287c-3 -5 -9 -10 -17 -10
h-4c-7 0 -13 4 -14 10zM383 562l-132 64c-12 6 -12 16 -7 24l21 34c6 9 19 7 24 3l125 -84c5 -3 8 -11 3 -19l-12 -20c-5 -8 -10 -8 -22 -2z" />
    <glyph glyph-name="yacute" unicode="&#xfd;" horiz-adv-x="426" 
d="M139 1l-112 377c-4 13 3 22 17 22h35c6 0 12 -4 14 -11l89 -310h1l170 310c3 6 10 11 17 11h39c13 0 19 -10 12 -23l-370 -665c-3 -6 -10 -12 -17 -12h-42c-13 0 -18 8 -10 22zM190 557c-13 -6 -19 -1 -22 8l-7 18c-3 8 1 15 8 19l148 84c6 4 20 6 25 -8l13 -33
c5 -12 -1 -18 -8 -21z" />
    <glyph glyph-name="ycircumflex" unicode="&#x177;" horiz-adv-x="426" 
d="M139 1l-112 377c-4 13 3 22 17 22h35c6 0 12 -4 14 -11l89 -310h1l170 310c3 6 10 11 17 11h39c13 0 19 -10 12 -23l-370 -665c-3 -6 -10 -12 -17 -12h-42c-13 0 -18 8 -10 22zM134 554l-9 18c-6 12 -1 20 5 24l119 94c5 4 10 7 18 7h3c7 0 15 -7 19 -12l84 -91
c4 -5 5 -12 -2 -19l-14 -15c-7 -7 -12 -12 -21 -4l-78 66l-102 -71c-9 -7 -18 -5 -22 3z" />
    <glyph glyph-name="ydieresis" unicode="&#xff;" horiz-adv-x="426" 
d="M139 1l-112 377c-4 13 3 22 17 22h35c6 0 12 -4 14 -11l89 -310h1l170 310c3 6 10 11 17 11h39c13 0 19 -10 12 -23l-370 -665c-3 -6 -10 -12 -17 -12h-42c-13 0 -18 8 -10 22zM340 585c-23 0 -39 18 -39 41c0 30 25 54 52 54c24 0 40 -18 40 -42c0 -29 -25 -53 -53 -53z
M165 585c-22 0 -39 18 -39 41c0 30 25 54 53 54c23 0 39 -18 39 -42c0 -29 -25 -53 -53 -53z" />
    <glyph glyph-name="ygrave" unicode="&#x1ef3;" horiz-adv-x="426" 
d="M139 1l-112 377c-4 13 3 22 17 22h35c6 0 12 -4 14 -11l89 -310h1l170 310c3 6 10 11 17 11h39c13 0 19 -10 12 -23l-370 -665c-3 -6 -10 -12 -17 -12h-42c-13 0 -18 8 -10 22zM311 562l-132 64c-12 6 -12 16 -7 24l21 34c6 9 19 7 24 3l125 -84c5 -3 8 -11 3 -19
l-12 -20c-5 -8 -10 -8 -22 -2z" />
    <glyph glyph-name="zacute" unicode="&#x17a;" horiz-adv-x="340" 
d="M15 0c-9 0 -15 9 -14 19l1 10l215 306v2h-147c-9 0 -14 9 -13 19l3 25c1 11 10 19 19 19h228c14 0 21 -14 12 -27l-212 -309v-1h135c10 0 15 -8 14 -19l-3 -25c-1 -10 -10 -19 -20 -19h-218zM145 557c-13 -6 -19 -1 -22 8l-7 18c-3 8 1 15 8 19l148 84c6 4 20 6 25 -8
l13 -33c5 -12 -1 -18 -8 -21z" />
    <glyph glyph-name="zcaron" unicode="&#x17e;" horiz-adv-x="340" 
d="M15 0c-9 0 -15 9 -14 19l1 10l215 306v2h-147c-9 0 -14 9 -13 19l3 25c1 11 10 19 19 19h228c14 0 21 -14 12 -27l-212 -309v-1h135c10 0 15 -8 14 -19l-3 -25c-1 -10 -10 -19 -20 -19h-218zM203 544c-7 0 -15 7 -19 12l-84 91c-4 5 -5 12 2 19l14 15c7 7 12 12 21 4
l78 -66l102 71c9 7 18 5 22 -3l9 -18c6 -12 1 -20 -5 -24l-119 -94c-5 -4 -10 -7 -18 -7h-3z" />
    <glyph glyph-name="zdotaccent" unicode="&#x17c;" horiz-adv-x="340" 
d="M15 0c-9 0 -15 9 -14 19l1 10l215 306v2h-147c-9 0 -14 9 -13 19l3 25c1 11 10 19 19 19h228c14 0 21 -14 12 -27l-212 -309v-1h135c10 0 15 -8 14 -19l-3 -25c-1 -10 -10 -19 -20 -19h-218zM213 566c-27 0 -46 23 -46 50c0 36 30 64 62 64c27 0 46 -22 46 -50
c0 -35 -30 -64 -62 -64z" />
    <glyph glyph-name="IJ" unicode="&#x132;" horiz-adv-x="658" 
d="M63 19l93 662c1 10 10 19 19 19h44c9 0 16 -9 14 -19l-93 -662c-1 -10 -10 -19 -19 -19h-44c-9 0 -16 9 -14 19zM233 62c-6 10 -3 21 4 27l22 20c12 10 21 7 31 -6c11 -15 43 -45 85 -45c45 0 103 43 118 149l67 474c1 10 10 19 20 19h43c10 0 16 -9 14 -19l-66 -472
c-21 -149 -87 -219 -201 -219c-76 0 -123 51 -137 72z" />
    <glyph glyph-name="ij" unicode="&#x133;" horiz-adv-x="425" 
d="M146 585c-23 0 -40 18 -40 41c0 30 25 54 53 54c24 0 40 -18 40 -42c0 -29 -25 -53 -53 -53zM33 19l50 362c1 10 9 19 20 19h36c9 0 15 -9 14 -19l-51 -362c-1 -10 -11 -19 -20 -19h-35c-9 0 -16 9 -14 19zM363 585c-23 0 -39 18 -39 41c0 30 25 54 52 54
c24 0 40 -18 40 -42c0 -29 -25 -53 -53 -53zM227 -140l73 521c2 11 9 19 20 19h35c9 0 17 -8 15 -19l-74 -521c-16 -116 -71 -170 -160 -170c-49 0 -86 26 -100 42c-6 6 -6 17 -1 23l20 26c7 10 15 9 23 1c10 -10 38 -29 61 -29c41 0 77 30 88 107z" />
    <glyph glyph-name="grave.cap" horiz-adv-x="272" 
d="M234 783l-132 64c-12 6 -12 16 -7 24l21 34c6 9 19 7 24 3l125 -84c5 -3 8 -11 3 -19l-12 -20c-5 -8 -10 -8 -22 -2z" />
    <glyph glyph-name="acute" unicode="&#xb4;" horiz-adv-x="272" 
d="M113 557c-13 -6 -19 -1 -22 8l-7 18c-3 8 1 15 8 19l148 84c6 4 20 6 25 -8l13 -33c5 -12 -1 -18 -8 -21z" />
    <glyph glyph-name="acute.cap" horiz-adv-x="272" 
d="M113 779c-13 -6 -19 -1 -22 8l-7 18c-3 8 1 15 8 19l148 84c6 4 20 6 25 -8l13 -33c5 -12 -1 -18 -8 -21z" />
    <glyph glyph-name="circumflex" unicode="&#x2c6;" horiz-adv-x="336" 
d="M72 554l-9 18c-6 12 -1 20 5 24l119 94c5 4 10 7 18 7h3c7 0 15 -7 19 -12l84 -91c4 -5 5 -12 -2 -19l-14 -15c-7 -7 -12 -12 -21 -4l-78 66l-102 -71c-9 -7 -18 -5 -22 3z" />
    <glyph glyph-name="circumflex.cap" horiz-adv-x="336" 
d="M103 771c-9 -7 -18 -5 -22 3l-9 18c-6 12 -1 20 5 24l119 94c5 4 10 7 18 7h3c7 0 15 -7 19 -12l84 -91c4 -5 5 -12 -2 -19l-14 -15c-7 -7 -12 -12 -21 -4l-78 66z" />
    <glyph glyph-name="caron" unicode="&#x2c7;" horiz-adv-x="336" 
d="M180 544c-7 0 -15 7 -19 12l-84 91c-4 5 -5 12 2 19l14 15c7 7 12 12 21 4l78 -66l102 71c9 7 18 5 22 -3l9 -18c6 -12 1 -20 -5 -24l-119 -94c-5 -4 -10 -7 -18 -7h-3z" />
    <glyph glyph-name="caron.cap" horiz-adv-x="336" 
d="M190 764c-7 0 -15 7 -19 12l-84 91c-4 5 -5 12 2 19l14 15c7 7 12 12 21 4l78 -66l102 71c9 7 18 5 22 -3l9 -18c6 -12 1 -20 -5 -24l-119 -94c-5 -4 -10 -7 -18 -7h-3z" />
    <glyph glyph-name="caron.alt" horiz-adv-x="336" 
d="M137 646c0 36 31 64 65 64c26 0 53 -15 53 -68c0 -94 -70 -174 -108 -207c-9 -9 -17 -8 -21 -2l-11 14c-4 5 -4 12 6 21c11 9 68 56 78 129c-3 -1 -8 -1 -14 -1c-27 0 -48 23 -48 50z" />
    <glyph glyph-name="tilde" unicode="&#x2dc;" horiz-adv-x="342" 
d="M80 575l-16 8c-9 6 -7 16 -4 23c7 18 38 84 95 84c54 0 59 -72 91 -72c24 0 36 30 42 47c4 10 12 19 25 11l14 -8c8 -5 10 -15 7 -23c-8 -26 -39 -85 -93 -85c-48 0 -63 73 -91 73c-27 0 -39 -33 -46 -50c-4 -9 -15 -14 -24 -8z" />
    <glyph glyph-name="tilde.cap" horiz-adv-x="342" 
d="M90 795l-16 8c-9 6 -7 16 -4 23c7 18 38 84 97 84c52 0 60 -72 89 -72c24 0 36 30 42 47c4 10 12 19 25 11l14 -8c8 -5 10 -15 7 -23c-8 -26 -39 -85 -96 -85c-45 0 -64 73 -88 73c-27 0 -39 -33 -46 -50c-4 -9 -15 -14 -24 -8z" />
    <glyph glyph-name="dieresis" unicode="&#xa8;" horiz-adv-x="373" 
d="M309 585c-23 0 -39 18 -39 41c0 30 25 54 52 54c24 0 40 -18 40 -42c0 -29 -25 -53 -53 -53zM134 585c-22 0 -39 18 -39 41c0 30 25 54 53 54c23 0 39 -18 39 -42c0 -29 -25 -53 -53 -53z" />
    <glyph glyph-name="dieresis.cap" horiz-adv-x="427" 
d="M342 792c-23 0 -39 18 -39 41c0 30 25 54 52 54c23 0 40 -18 40 -42c0 -29 -26 -53 -53 -53zM147 792c-23 0 -39 18 -39 41c0 30 25 54 52 54c23 0 40 -18 40 -42c0 -29 -26 -53 -53 -53z" />
    <glyph glyph-name="macron" unicode="&#xaf;" horiz-adv-x="373" 
d="M54 583c-10 0 -16 8 -15 18l3 21c2 11 10 19 20 19h231c9 0 16 -8 14 -19l-3 -21c-1 -10 -10 -18 -20 -18h-230z" />
    <glyph glyph-name="macron.cap" horiz-adv-x="373" 
d="M106 821c-9 0 -15 8 -14 18l3 21c1 11 10 19 20 19h230c10 0 16 -8 14 -19l-2 -21c-2 -10 -10 -18 -20 -18h-231z" />
    <glyph glyph-name="uni02C9" unicode="&#x2c9;" horiz-adv-x="373" 
d="M93 583c-10 0 -16 8 -15 18l3 21c2 11 10 19 20 19h231c9 0 16 -8 14 -19l-3 -21c-1 -10 -10 -18 -20 -18h-230z" />
    <glyph glyph-name="breve" unicode="&#x2d8;" horiz-adv-x="311" 
d="M171 531c-58 0 -107 49 -106 114c0 11 5 20 16 20h19c10 0 14 -8 15 -17c6 -38 27 -64 62 -64c32 0 63 29 78 64c5 11 11 17 19 17h25c10 0 14 -9 10 -20c-19 -65 -70 -114 -138 -114z" />
    <glyph glyph-name="breve.cap" horiz-adv-x="311" 
d="M185 771c-58 0 -107 49 -106 114c0 11 5 20 16 20h19c10 0 14 -8 15 -17c6 -38 27 -64 62 -64c32 0 63 29 78 64c5 11 11 17 19 17h25c10 0 14 -9 10 -20c-19 -65 -70 -114 -138 -114z" />
    <glyph glyph-name="ring" unicode="&#x2da;" horiz-adv-x="261" 
d="M140 492c-50 0 -85 42 -85 94c0 69 52 124 115 124c49 0 85 -42 85 -94c0 -69 -53 -124 -115 -124zM146 540c31 0 59 33 59 69c0 27 -14 51 -42 51c-30 0 -60 -30 -60 -66c0 -28 15 -54 43 -54z" />
    <glyph glyph-name="ring.cap" horiz-adv-x="261" 
d="M158 758c-50 0 -85 42 -85 94c0 69 52 124 115 124c49 0 85 -42 85 -94c0 -69 -53 -124 -115 -124zM164 806c31 0 59 33 59 69c0 27 -14 51 -42 51c-30 0 -60 -30 -60 -66c0 -28 15 -54 43 -54z" />
    <glyph glyph-name="hungarumlaut" unicode="&#x2dd;" horiz-adv-x="353" 
d="M225 521c-9 0 -16 9 -12 19l63 141c4 10 11 19 20 19h40c17 0 21 -12 13 -25l-90 -139c-5 -8 -11 -15 -19 -15h-15zM76 521c-9 0 -16 9 -12 19l63 141c4 10 11 19 20 19h40c17 0 21 -12 13 -25l-90 -139c-5 -8 -11 -15 -19 -15h-15z" />
    <glyph glyph-name="hungarumlaut.cap" horiz-adv-x="353" 
d="M232 769c-9 0 -16 9 -12 19l63 141c4 10 11 19 20 19h40c17 0 21 -12 13 -25l-90 -139c-5 -8 -11 -15 -19 -15h-15zM83 769c-9 0 -16 9 -12 19l63 141c4 10 11 19 20 19h40c17 0 21 -12 13 -25l-90 -139c-5 -8 -11 -15 -19 -15h-15z" />
    <glyph glyph-name="dotaccent" unicode="&#x2d9;" horiz-adv-x="197" 
d="M117 566c-27 0 -46 23 -46 50c0 36 30 64 62 64c27 0 46 -22 46 -50c0 -35 -30 -64 -62 -64z" />
    <glyph glyph-name="dotaccent.cap" horiz-adv-x="197" 
d="M129 796c-26 0 -46 23 -46 50c0 36 30 64 62 64c27 0 46 -22 46 -50c0 -35 -29 -64 -62 -64z" />
    <glyph glyph-name="cedilla" unicode="&#xb8;" horiz-adv-x="223" 
d="M76 0h50l-7 -54c47 -9 80 -42 80 -96c0 -57 -39 -110 -105 -110c-30 0 -56 16 -68 36c-6 9 -3 19 3 25l12 11c6 6 15 6 20 0c10 -12 23 -18 36 -18c26 0 46 24 46 55c0 39 -36 49 -65 55c-14 3 -14 15 -13 20z" />
    <glyph glyph-name="cedilla.cap" horiz-adv-x="223" 
d="M76 0h50l-7 -54c47 -9 80 -42 80 -96c0 -57 -39 -110 -105 -110c-30 0 -56 16 -68 36c-6 9 -3 19 3 25l12 11c6 6 15 6 20 0c10 -12 23 -18 36 -18c26 0 46 24 46 55c0 39 -36 49 -65 55c-14 3 -14 15 -13 20z" />
    <glyph glyph-name="ogonek" unicode="&#x2db;" horiz-adv-x="249" 
d="M126 11h48s-70 -50 -70 -118c0 -28 19 -49 45 -49c22 0 38 9 51 16c8 4 16 -1 14 -14l-3 -24c-1 -10 -8 -14 -15 -18c-9 -5 -35 -15 -63 -15c-45 0 -87 28 -87 85c0 88 80 137 80 137z" />
    <glyph glyph-name="ogonek.cap" horiz-adv-x="249" 
d="M126 11h48s-70 -50 -70 -118c0 -28 19 -49 45 -49c22 0 38 9 51 16c8 4 16 -1 14 -14l-3 -24c-1 -10 -8 -14 -15 -18c-9 -5 -35 -15 -63 -15c-45 0 -87 28 -87 85c0 88 80 137 80 137z" />
    <glyph glyph-name="commaaccent" horiz-adv-x="263" 
d="M113 -156c0 36 31 64 65 64c26 0 53 -15 53 -68c0 -94 -70 -174 -108 -207c-9 -9 -17 -8 -21 -2l-11 14c-4 5 -4 12 6 21c11 9 68 56 78 129c-3 -1 -8 -1 -14 -1c-27 0 -48 23 -48 50z" />
    <glyph glyph-name="commaaccent.alt" horiz-adv-x="263" 
d="M113 -156c0 36 31 64 65 64c26 0 53 -15 53 -68c0 -94 -70 -174 -108 -207c-9 -9 -17 -8 -21 -2l-11 14c-4 5 -4 12 6 21c11 9 68 56 78 129c-3 -1 -8 -1 -14 -1c-27 0 -48 23 -48 50z" />
    <glyph glyph-name="commaaccent.cap" horiz-adv-x="263" 
d="M113 -156c0 36 31 64 65 64c26 0 53 -15 53 -68c0 -94 -70 -174 -108 -207c-9 -9 -17 -8 -21 -2l-11 14c-4 5 -4 12 6 21c11 9 68 56 78 129c-3 -1 -8 -1 -14 -1c-27 0 -48 23 -48 50z" />
    <glyph glyph-name="ellipsis" unicode="&#x2026;" horiz-adv-x="568" 
d="M376 40c0 36 30 64 62 64c27 0 46 -22 46 -49c0 -35 -29 -65 -62 -65c-27 0 -46 23 -46 50zM196 40c0 36 30 64 62 64c27 0 46 -22 46 -50c0 -35 -29 -64 -62 -64c-26 0 -46 23 -46 50zM19 40c0 36 30 64 62 64c27 0 46 -22 46 -50c0 -35 -29 -64 -62 -64
c-27 0 -46 23 -46 50z" />
    <glyph glyph-name="uni00AD" unicode="&#xad;" horiz-adv-x="313" 
d="M92 220c-10 0 -17 8 -15 18l3 19c2 11 10 19 20 19h191c10 0 16 -8 14 -19l-3 -19c-2 -10 -10 -18 -20 -18h-190z" />
    <glyph glyph-name="exclamdown" unicode="&#xa1;" horiz-adv-x="226" 
d="M115 296c-28 0 -48 22 -48 50c0 35 30 64 64 64c27 0 47 -23 47 -50c0 -36 -31 -64 -63 -64zM65 112c2 8 11 16 19 16h14c8 0 15 -8 15 -16l-20 -279l-16 -114c-1 -10 -10 -19 -19 -19h-54c-9 0 -16 9 -15 19l16 112z" />
    <glyph glyph-name="questiondown" unicode="&#xbf;" horiz-adv-x="242" 
d="M124 296c-28 0 -47 22 -47 50c0 35 30 64 63 64c28 0 48 -23 48 -50c0 -36 -31 -64 -64 -64zM-3 -15c34 25 64 46 69 82l6 41c2 14 12 20 21 20h33c9 0 15 -8 14 -19l-6 -42c-10 -69 -55 -96 -93 -127c-37 -30 -79 -52 -79 -113c0 -40 30 -75 81 -75c70 0 105 49 126 70
c9 9 15 8 23 1l18 -15c11 -10 5 -22 0 -30c-7 -11 -57 -88 -179 -88c-81 0 -140 53 -140 132c0 84 57 126 106 163z" />
    <glyph glyph-name="quoteleft" unicode="&#x2018;" horiz-adv-x="196" 
d="M120 426c-25 0 -51 15 -51 68c0 93 69 174 104 207c10 9 17 8 22 2l11 -14c7 -9 1 -15 -8 -24c-11 -10 -64 -53 -75 -126c3 1 9 1 14 1c26 0 45 -23 45 -50c0 -36 -30 -64 -62 -64z" />
    <glyph glyph-name="quoteright" unicode="&#x2019;" horiz-adv-x="193" 
d="M82 433l-11 14c-7 9 -1 15 8 24c11 10 64 53 75 126c-3 -1 -9 -1 -14 -1c-26 0 -45 23 -45 50c0 36 30 64 62 64c25 0 51 -15 51 -68c0 -93 -69 -174 -104 -207c-10 -9 -17 -8 -22 -2z" />
    <glyph glyph-name="quotedblleft" unicode="&#x201c;" horiz-adv-x="362" 
d="M286 426c-25 0 -51 15 -51 68c0 93 69 174 104 207c10 9 17 8 22 2l11 -14c7 -9 1 -15 -8 -24c-11 -10 -64 -53 -75 -126c3 1 9 1 14 1c26 0 45 -23 45 -50c0 -36 -30 -64 -62 -64zM120 426c-25 0 -51 15 -51 68c0 93 69 174 104 207c10 9 17 8 22 2l11 -14
c7 -9 1 -15 -8 -24c-11 -10 -64 -53 -75 -126c3 1 9 1 14 1c26 0 45 -23 45 -50c0 -36 -30 -64 -62 -64z" />
    <glyph glyph-name="quotedblright" unicode="&#x201d;" horiz-adv-x="359" 
d="M248 433l-11 14c-7 9 -1 15 8 24c11 10 64 53 75 126c-3 -1 -9 -1 -14 -1c-26 0 -45 23 -45 50c0 36 30 64 62 64c25 0 51 -15 51 -68c0 -93 -69 -174 -104 -207c-10 -9 -17 -8 -22 -2zM82 433l-11 14c-7 9 -1 15 8 24c11 10 64 53 75 126c-3 -1 -9 -1 -14 -1
c-26 0 -45 23 -45 50c0 36 30 64 62 64c25 0 51 -15 51 -68c0 -93 -69 -174 -104 -207c-10 -9 -17 -8 -22 -2z" />
    <glyph glyph-name="quotesinglbase" unicode="&#x201a;" horiz-adv-x="225" 
d="M25 40c0 36 30 64 62 64c25 0 51 -15 51 -68c0 -93 -69 -174 -104 -207c-10 -9 -17 -8 -22 -2l-11 14c-7 9 -1 15 8 24c11 10 64 53 75 126c-3 -1 -9 -1 -14 -1c-26 0 -45 23 -45 50z" />
    <glyph glyph-name="quotedblbase" unicode="&#x201e;" horiz-adv-x="390" 
d="M189 40c0 36 30 64 62 64c25 0 51 -15 51 -68c0 -93 -69 -174 -104 -207c-10 -9 -17 -8 -22 -2l-11 14c-7 9 -1 15 8 24c11 10 64 53 75 126c-3 -1 -9 -1 -14 -1c-26 0 -45 23 -45 50zM24 38c0 36 30 64 62 64c26 0 52 -15 52 -68c0 -93 -69 -174 -105 -207
c-10 -9 -17 -8 -22 -2l-10 14c-5 5 -2 15 8 24s64 53 74 126c-3 -1 -8 -1 -13 -1c-27 0 -46 23 -46 50z" />
    <glyph glyph-name="guilsinglleft" unicode="&#x2039;" horiz-adv-x="239" 
d="M102 39l-72 155c-4 8 -1 18 3 24l114 148c4 5 11 12 20 12h22c15 0 18 -15 9 -31l-86 -144l39 -142c4 -16 -2 -30 -18 -30h-18c-7 0 -11 4 -13 8z" />
    <glyph glyph-name="guilsinglright" unicode="&#x203a;" horiz-adv-x="238" 
d="M29 31c-15 0 -18 15 -9 31l86 144l-39 142c-4 16 2 30 18 30h18c7 0 11 -4 13 -8l72 -155c4 -8 1 -18 -3 -24l-114 -148c-4 -5 -11 -12 -20 -12h-22z" />
    <glyph glyph-name="guillemotleft" unicode="&#xab;" horiz-adv-x="391" 
d="M254 39l-72 155c-4 8 -1 18 3 24l114 148c4 5 11 12 20 12h22c15 0 18 -15 9 -31l-86 -144l39 -142c4 -16 -2 -30 -18 -30h-18c-7 0 -11 4 -13 8zM102 39l-72 155c-4 8 -1 18 3 24l114 148c4 5 11 12 20 12h22c15 0 18 -15 9 -31l-86 -144l39 -142c4 -16 -2 -30 -18 -30
h-18c-7 0 -11 4 -13 8z" />
    <glyph glyph-name="guillemotright" unicode="&#xbb;" horiz-adv-x="391" 
d="M173 62l86 144l-39 142c-4 16 2 30 18 30h18c7 0 11 -4 13 -8l72 -155c4 -8 1 -18 -3 -24l-114 -148c-4 -5 -11 -12 -20 -12h-22c-15 0 -18 15 -9 31zM29 31c-15 0 -18 15 -9 31l86 144l-39 142c-4 16 2 30 18 30h18c7 0 11 -4 13 -8l72 -155c4 -8 1 -18 -3 -24
l-114 -148c-4 -5 -11 -12 -20 -12h-22z" />
    <glyph glyph-name="endash" unicode="&#x2013;" horiz-adv-x="540" 
d="M100 223c-10 0 -17 8 -15 18l2 11c2 11 10 19 20 19h335c10 0 17 -8 15 -19l-2 -11c-2 -10 -9 -18 -19 -18h-336z" />
    <glyph glyph-name="emdash" unicode="&#x2014;" horiz-adv-x="738" 
d="M100 223c-10 0 -17 8 -15 18l2 11c2 11 10 19 20 19h533c10 0 17 -8 15 -19l-2 -11c-2 -10 -9 -18 -19 -18h-534z" />
    <glyph glyph-name="bullet" unicode="&#x2022;" horiz-adv-x="323" 
d="M146 119c-48 0 -84 42 -84 92c0 66 56 122 114 122c51 0 87 -43 87 -95c0 -65 -56 -119 -117 -119z" />
    <glyph glyph-name="periodcentered" unicode="&#xb7;" horiz-adv-x="227" 
d="M110 204c-28 0 -49 23 -49 50c0 36 32 64 65 64c28 0 49 -22 49 -50c0 -35 -31 -64 -65 -64z" />
    <glyph glyph-name="uni2219" unicode="&#x2219;" horiz-adv-x="324" 
d="M199 204c-28 0 -49 23 -49 50c0 36 32 64 65 64c28 0 49 -22 49 -50c0 -35 -31 -64 -65 -64z" />
    <glyph glyph-name="dagger" unicode="&#x2020;" horiz-adv-x="556" 
d="M175 -284l69 618h-174c-9 0 -15 9 -14 19l4 28c1 10 10 19 19 19h172l40 281c1 10 10 19 19 19h52c9 0 16 -9 14 -19l-39 -281h175c9 0 15 -9 14 -19l-4 -28c-1 -10 -10 -19 -19 -19h-178l-104 -618c-1 -8 -11 -16 -20 -16h-11c-8 0 -16 8 -15 16z" />
    <glyph glyph-name="daggerdbl" unicode="&#x2021;" horiz-adv-x="556" 
d="M36 19l4 28c1 10 10 19 19 19h154l38 333v1h-172c-9 0 -15 9 -14 19l4 28c1 10 11 19 20 19h171l31 215c1 10 10 19 19 19h52c9 0 16 -9 14 -19l-30 -215h175c9 0 15 -9 14 -19l-4 -28c-1 -10 -10 -19 -19 -19h-175l-56 -334h157c9 0 15 -9 14 -19l-4 -28
c-1 -10 -10 -19 -19 -19h-160l-48 -284c-1 -8 -11 -16 -20 -16h-11c-8 0 -16 8 -15 16l31 284h-156c-9 0 -15 9 -14 19z" />
    <glyph glyph-name="section" unicode="&#xa7;" horiz-adv-x="487" 
d="M10 -113c9 9 19 14 28 3c5 -6 65 -73 141 -73c57 0 126 36 128 113c1 55 -42 99 -128 146c-73 40 -133 95 -133 173c0 96 86 149 90 149c-3 0 -52 44 -52 122s52 190 208 190c94 0 155 -48 159 -51s13 -15 1 -33l-17 -21c-9 -12 -18 -15 -31 -6c-6 4 -60 44 -114 44
c-92 0 -131 -66 -131 -112c0 -49 37 -88 100 -119c100 -52 171 -99 171 -183c0 -97 -92 -157 -96 -157c3 0 55 -48 55 -134c0 -114 -93 -188 -217 -188c-110 0 -171 69 -182 81c-6 7 -16 17 0 34zM120 259c0 -71 67 -93 159 -153c0 0 70 34 70 109c0 53 -48 86 -133 130
c-11 6 -23 13 -32 19c-1 0 -64 -29 -64 -105z" />
    <glyph glyph-name="paragraph" unicode="&#xb6;" horiz-adv-x="636" 
d="M173 -281l79 563h-39c-92 0 -160 80 -160 182c0 127 98 237 206 237l400 -1c9 0 15 -9 14 -19l-3 -20c-2 -11 -11 -19 -20 -19h-94l-130 -923c-1 -10 -10 -19 -20 -19h-24c-9 0 -16 9 -14 19l129 923h-137l-130 -923c-1 -10 -11 -19 -20 -19h-23c-9 0 -15 9 -14 19z" />
    <glyph glyph-name="brokenbar.case" horiz-adv-x="363" 
d="M217 513c-9 0 -16 8 -15 18l47 330c1 11 11 19 20 19h7c9 0 15 -8 13 -19l-46 -330c-1 -10 -11 -18 -20 -18h-6zM152 169c1 11 10 19 19 19h8c9 0 15 -8 13 -19l-46 -331c-2 -10 -11 -18 -20 -18h-6c-9 0 -16 8 -15 18z" />
    <glyph glyph-name="copyright" unicode="&#xa9;" horiz-adv-x="751" 
d="M58 303c0 222 173 407 376 407c155 0 279 -141 279 -313c0 -223 -172 -407 -376 -407c-154 0 -279 141 -279 313zM115 310c0 -142 95 -260 228 -260c163 0 312 154 312 340c0 143 -94 259 -228 259c-161 0 -312 -152 -312 -339zM223 332c0 109 87 204 196 204
c36 0 73 -12 99 -38c7 -8 6 -20 -3 -29l-18 -18c-10 -10 -18 -6 -24 -1c-19 16 -39 23 -61 23c-66 0 -122 -65 -122 -141c0 -58 35 -103 88 -103c22 0 44 8 64 22c11 7 19 8 26 -1l15 -19c6 -7 3 -20 -5 -28c-35 -32 -71 -42 -110 -42c-77 0 -145 73 -145 171z" />
    <glyph glyph-name="registered" unicode="&#xae;" horiz-adv-x="751" 
d="M58 303c0 222 173 407 376 407c155 0 279 -141 279 -313c0 -223 -172 -407 -376 -407c-154 0 -279 141 -279 313zM115 310c0 -142 95 -260 228 -260c163 0 312 154 312 340c0 143 -94 259 -228 259c-161 0 -312 -152 -312 -339zM250 187l46 328c1 10 10 19 20 19h129
c51 0 96 -32 96 -103c0 -79 -56 -109 -89 -116c12 -39 25 -81 37 -120c4 -12 0 -27 -19 -27h-27c-11 0 -16 8 -18 14l-32 125h-66l-17 -120c-1 -10 -9 -19 -19 -19h-27c-10 0 -16 9 -14 19zM334 365h86c35 0 60 30 60 66c0 28 -16 48 -44 48h-86z" />
    <glyph glyph-name="trademark" unicode="&#x2122;" horiz-adv-x="649" 
d="M317 398c-12 0 -18 11 -14 23l84 269c3 8 8 15 20 15h3c9 0 13 -6 14 -11l44 -212l105 212c2 5 8 11 17 11h3c9 0 14 -7 15 -15l10 -270c0 -12 -9 -22 -20 -22h-15c-11 0 -15 8 -15 17l-6 165l-88 -176c-2 -5 -7 -9 -16 -9h-5c-7 0 -13 4 -14 10l-37 175l-53 -166
c-3 -8 -9 -16 -20 -16h-12zM157 398c-10 0 -16 9 -14 19l33 234h-63c-9 0 -16 8 -14 19l2 11c2 10 10 19 19 19h174c10 0 17 -9 15 -19l-2 -11c-2 -11 -10 -19 -20 -19h-62l-33 -234c-1 -10 -10 -19 -19 -19h-16z" />
    <glyph glyph-name="currency" unicode="&#xa4;" horiz-adv-x="446" 
d="M87 176l-19 19c-6 6 -3 20 4 27l44 41c-15 43 -8 95 19 138l-32 41c-5 7 -4 21 4 27l24 19c8 6 19 7 24 0l32 -41c40 26 87 27 121 1l44 42c7 7 17 5 23 -1l18 -20c6 -7 4 -19 -3 -26l-44 -41c16 -42 9 -97 -19 -140l32 -41c5 -7 4 -20 -4 -26l-24 -20
c-7 -7 -18 -8 -23 -1l-33 42c-41 -25 -87 -25 -121 1l-43 -41c-7 -7 -18 -6 -24 0zM219 260c36 0 68 32 74 72c5 40 -17 72 -53 72s-68 -32 -73 -72c-6 -40 16 -72 52 -72z" />
    <glyph glyph-name="Euro" unicode="&#x20ac;" horiz-adv-x="681" 
d="M50 253c-9 0 -15 9 -14 19l1 7c2 10 10 19 19 19h37c0 18 2 51 7 75h-33c-9 0 -15 9 -14 19l1 7c1 10 10 19 19 19h39c52 167 185 292 360 292c91 0 152 -35 205 -93c6 -8 5 -20 -3 -28l-28 -21c-9 -9 -20 -10 -28 1c-38 47 -97 69 -157 69c-116 0 -223 -96 -266 -220
h246c10 0 16 -9 14 -19l-1 -8c-1 -10 -10 -18 -19 -18h-253c-5 -21 -7 -47 -7 -75h213c10 0 16 -9 14 -19l-1 -8c-1 -10 -9 -18 -19 -18h-204c18 -109 96 -190 203 -190c73 0 123 37 175 77c10 8 17 7 22 3l30 -29c8 -8 2 -20 -5 -27c-69 -67 -152 -97 -232 -97
c-143 0 -259 110 -275 263h-46z" />
    <glyph glyph-name="cent" unicode="&#xa2;" horiz-adv-x="392" 
d="M104 9c-51 29 -89 88 -89 161c0 134 101 240 218 240c8 0 16 -1 24 -2l16 41c4 10 14 16 23 13l7 -2c9 -2 13 -12 8 -23l-16 -41c24 -12 44 -32 59 -58c5 -9 1 -20 -8 -26l-17 -12c-11 -8 -20 -4 -25 4c-8 13 -19 24 -32 32l-107 -278c6 -1 12 -2 18 -2c52 0 81 39 93 57
c7 11 17 13 26 6l22 -19c8 -7 7 -16 1 -26c-26 -43 -81 -84 -151 -84c-11 0 -23 2 -33 4l-37 -97c-3 -10 -14 -15 -23 -13l-6 2c-8 2 -12 12 -9 22zM130 75l104 273h-6c-72 0 -140 -78 -140 -170c0 -44 16 -82 42 -103z" />
    <glyph glyph-name="sterling" unicode="&#xa3;" horiz-adv-x="469" 
d="M46 19l3 18c58 94 73 182 71 257h-40c-9 0 -14 9 -13 19l1 7c1 10 8 19 19 19h28c-1 18 -9 68 -9 116c0 163 87 255 218 255c78 0 124 -50 144 -71c7 -7 6 -18 -2 -26l-24 -24c-12 -12 -19 -10 -26 -1c-3 4 -44 56 -101 56c-72 0 -138 -66 -138 -185
c0 -53 10 -106 11 -120h141c10 0 15 -9 14 -19l-1 -8c-1 -10 -9 -18 -19 -18h-131c1 -52 -16 -162 -51 -230h217c9 0 14 -8 13 -19l-3 -26c-1 -10 -10 -19 -19 -19h-288c-9 0 -16 9 -15 19z" />
    <glyph glyph-name="florin" unicode="&#x192;" horiz-adv-x="303" 
d="M36 -140l68 480h-57c-10 0 -16 9 -14 19l3 22c1 11 10 19 19 19h57l20 140c16 116 79 170 166 170c50 0 81 -24 95 -41c5 -6 5 -16 0 -23l-19 -24c-8 -10 -16 -9 -23 -1c-9 10 -39 27 -61 27c-40 0 -77 -31 -88 -108l-19 -140h102c10 0 16 -8 14 -19l-3 -22
c-1 -10 -10 -19 -20 -19h-102l-67 -480c-17 -116 -76 -170 -167 -170c-50 0 -80 24 -94 41c-5 6 -7 16 -1 23l20 24c7 9 15 9 23 1c9 -10 39 -27 61 -27c40 0 77 31 87 108z" />
    <glyph glyph-name="yen" unicode="&#xa5;" horiz-adv-x="567" 
d="M109 123c-9 0 -15 9 -14 19l1 7c2 10 10 19 19 19h115l10 75h-114c-9 0 -15 9 -14 19l1 7c2 10 10 19 19 19h115l7 49l-170 339c-6 12 0 24 14 24h46c7 0 12 -5 14 -9l139 -285h2l222 285c3 4 9 9 16 9h48c15 0 19 -16 10 -29l-264 -333l-7 -50h113c10 0 16 -9 15 -19
l-2 -8c-1 -10 -9 -18 -19 -18h-114l-10 -75h113c10 0 16 -9 15 -19l-1 -8c-2 -10 -10 -18 -20 -18h-114l-14 -104c-1 -10 -11 -19 -20 -19h-42c-10 0 -16 9 -15 19l14 104h-114z" />
    <glyph glyph-name="ordfeminine" unicode="&#xaa;" horiz-adv-x="288" 
d="M132 404c-40 0 -76 38 -67 97c7 55 52 96 118 96c28 0 48 -10 48 -10c7 54 11 77 -25 77c-37 0 -66 -13 -80 -18c-6 -2 -11 4 -12 11l-2 18c-1 8 3 12 8 15s41 20 96 20c85 0 72 -67 62 -132l-21 -152c-1 -8 -7 -14 -14 -14h-21c-7 0 -8 4 -9 10l-3 16
c-17 -15 -37 -34 -78 -34zM144 451c31 0 57 22 71 38l8 56c-8 5 -21 13 -48 13c-28 0 -60 -23 -64 -58c-4 -27 7 -49 33 -49z" />
    <glyph glyph-name="ordmasculine" unicode="&#xba;" horiz-adv-x="303" 
d="M168 394c-58 0 -94 47 -94 122c0 117 48 193 136 193c58 0 94 -47 94 -122c0 -117 -48 -193 -136 -193zM174 442c47 0 76 56 76 141c0 48 -16 78 -46 78c-47 0 -76 -58 -76 -142c0 -48 16 -77 46 -77z" />
    <glyph glyph-name="onesuperior" unicode="&#xb9;" horiz-adv-x="185" 
d="M123 504c-6 0 -9 4 -8 9l29 210l-39 -11c-5 -1 -8 0 -8 4l-2 20c0 5 0 7 5 11l71 53h29c5 0 8 -4 7 -9l-40 -278c-1 -5 -4 -9 -9 -9h-35z" />
    <glyph glyph-name="twosuperior" unicode="&#xb2;" horiz-adv-x="283" 
d="M89 504c-5 0 -9 2 -8 9l2 16l129 131c23 25 38 41 38 62c0 19 -12 41 -43 41c-19 0 -41 -15 -57 -30c-6 -5 -10 -2 -12 0l-14 18c-4 6 -3 10 1 14s40 45 92 45c54 0 87 -35 87 -77c0 -39 -23 -68 -57 -102l-80 -83h103c5 0 7 -4 6 -10l-3 -25c-1 -4 -2 -9 -9 -9h-175z
" />
    <glyph glyph-name="threesuperior" unicode="&#xb3;" horiz-adv-x="274" 
d="M165 494c-55 0 -78 29 -86 41c-3 3 -2 8 3 11l18 20c5 3 9 3 12 -1c2 -2 27 -26 56 -26c30 0 59 20 59 51c0 22 -17 42 -56 42h-28c-5 0 -9 3 -8 9l3 25c1 6 5 9 11 9h28c41 0 62 23 62 50c0 23 -18 39 -41 39c-18 0 -41 -17 -51 -27c-4 -3 -8 -4 -12 0l-16 21
c-3 3 -3 9 2 12c0 0 39 40 89 40c48 0 84 -28 84 -73c0 -40 -34 -70 -58 -80v-2c18 -8 45 -33 45 -67c0 -52 -50 -94 -116 -94z" />
    <glyph glyph-name="fraction" unicode="&#x2044;" horiz-adv-x="97" 
d="M-76 10c-2 -4 -8 -10 -16 -10h-22c-13 0 -19 14 -11 27l402 663c4 7 10 10 16 10h24c13 0 19 -14 11 -27z" />
    <glyph glyph-name="uni2215" unicode="&#x2215;" horiz-adv-x="97" 
d="M-76 10c-2 -4 -8 -10 -16 -10h-22c-13 0 -19 14 -11 27l402 663c4 7 10 10 16 10h24c13 0 19 -14 11 -27z" />
    <glyph glyph-name="onehalf" unicode="&#xbd;" horiz-adv-x="585" 
d="M49 27l402 663c4 7 10 10 16 10h24c13 0 19 -14 11 -27l-404 -663c-2 -4 -8 -10 -16 -10h-22c-13 0 -19 14 -11 27zM118 404c-6 0 -9 4 -8 9l29 210l-39 -11c-5 -1 -8 0 -8 4l-2 20c0 5 0 7 5 11l71 53h29c5 0 8 -4 7 -9l-40 -278c-1 -5 -4 -9 -9 -9h-35zM290 9l2 16
l129 131c23 25 38 41 38 62c0 19 -12 41 -43 41c-19 0 -41 -15 -57 -30c-6 -5 -10 -2 -12 0l-14 18c-4 6 -3 10 1 14s40 45 92 45c54 0 87 -35 87 -77c0 -39 -23 -68 -57 -102l-80 -83h103c5 0 7 -4 6 -10l-3 -25c-1 -4 -2 -9 -9 -9h-175c-5 0 -9 2 -8 9z" />
    <glyph glyph-name="onethird" unicode="&#x2153;" horiz-adv-x="569" 
d="M55 27l402 663c4 7 10 10 16 10h24c13 0 19 -14 11 -27l-404 -663c-2 -4 -8 -10 -16 -10h-22c-13 0 -19 14 -11 27zM124 404c-6 0 -9 4 -8 9l29 210l-39 -11c-5 -1 -8 0 -8 4l-2 20c0 5 0 7 5 11l71 53h29c5 0 8 -4 7 -9l-40 -278c-1 -5 -4 -9 -9 -9h-35zM302 31
c-3 3 -2 8 3 11l18 20c5 3 9 3 12 -1c2 -2 27 -26 56 -26c30 0 59 20 59 51c0 22 -17 42 -56 42h-28c-5 0 -9 3 -8 9l3 25c1 6 5 9 11 9h28c41 0 62 23 62 50c0 23 -18 39 -41 39c-18 0 -41 -17 -51 -27c-4 -3 -8 -4 -12 0l-16 21c-3 3 -3 9 2 12c0 0 39 40 89 40
c48 0 84 -28 84 -73c0 -40 -34 -70 -58 -80v-2c18 -8 45 -33 45 -67c0 -52 -50 -94 -116 -94c-55 0 -78 29 -86 41z" />
    <glyph glyph-name="onequarter" unicode="&#xbc;" horiz-adv-x="598" 
d="M49 27l402 663c4 7 10 10 16 10h24c13 0 19 -14 11 -27l-404 -663c-2 -4 -8 -10 -16 -10h-22c-13 0 -19 14 -11 27zM118 404c-6 0 -9 4 -8 9l29 210l-39 -11c-5 -1 -8 0 -8 4l-2 20c0 5 0 7 5 11l71 53h29c5 0 8 -4 7 -9l-40 -278c-1 -5 -4 -9 -9 -9h-35zM280 68l4 29
l181 196c2 2 5 3 7 3h22c4 0 9 -4 8 -9l-26 -185h36c5 0 7 -4 7 -8l-3 -26c-1 -5 -5 -8 -10 -8h-36l-7 -51c-1 -5 -6 -9 -11 -9h-32c-4 0 -9 4 -8 9l7 50h-133c-4 0 -7 4 -6 9zM346 103h81l16 111z" />
    <glyph glyph-name="oneeighth" unicode="&#x215b;" horiz-adv-x="569" 
d="M55 27l402 663c4 7 10 10 16 10h24c13 0 19 -14 11 -27l-404 -663c-2 -4 -8 -10 -16 -10h-22c-13 0 -19 14 -11 27zM124 404c-6 0 -9 4 -8 9l29 210l-39 -11c-5 -1 -8 0 -8 4l-2 20c0 5 0 7 5 11l71 53h29c5 0 8 -4 7 -9l-40 -278c-1 -5 -4 -9 -9 -9h-35zM323 67
c0 46 48 78 63 85v2c-15 8 -35 31 -35 61c0 54 48 91 105 91c49 0 84 -29 84 -73c0 -41 -35 -68 -56 -79v-2c17 -9 42 -33 42 -67c0 -52 -46 -95 -115 -95c-55 0 -88 34 -88 77zM403 215c0 -19 11 -34 35 -39c33 7 49 27 49 50c0 21 -15 37 -37 37c-25 0 -47 -21 -47 -48z
M377 72c0 -24 19 -39 41 -39c29 0 55 19 55 49c0 20 -14 40 -42 46c-33 -8 -54 -32 -54 -56z" />
    <glyph glyph-name="twothirds" unicode="&#x2154;" horiz-adv-x="569" 
d="M25 404c-5 0 -9 2 -8 9l2 16l129 131c23 25 38 41 38 62c0 19 -12 41 -43 41c-19 0 -41 -15 -57 -30c-6 -5 -10 -2 -12 0l-14 18c-4 6 -3 10 1 14s40 45 92 45c54 0 87 -35 87 -77c0 -39 -23 -68 -57 -102l-80 -83h103c5 0 7 -4 6 -10l-3 -25c-1 -4 -2 -9 -9 -9h-175z
M55 27l402 663c4 7 10 10 16 10h24c13 0 19 -14 11 -27l-404 -663c-2 -4 -8 -10 -16 -10h-22c-13 0 -19 14 -11 27zM302 31c-3 3 -2 8 3 11l18 20c5 3 9 3 12 -1c2 -2 27 -26 56 -26c30 0 59 20 59 51c0 22 -17 42 -56 42h-28c-5 0 -9 3 -8 9l3 25c1 6 5 9 11 9h28
c41 0 62 23 62 50c0 23 -18 39 -41 39c-18 0 -41 -17 -51 -27c-4 -3 -8 -4 -12 0l-16 21c-3 3 -3 9 2 12c0 0 39 40 89 40c48 0 84 -28 84 -73c0 -40 -34 -70 -58 -80v-2c18 -8 45 -33 45 -67c0 -52 -50 -94 -116 -94c-55 0 -78 29 -86 41z" />
    <glyph glyph-name="threequarters" unicode="&#xbe;" horiz-adv-x="664" 
d="M148 394c-55 0 -78 29 -86 41c-3 3 -2 8 3 11l18 20c5 3 9 3 12 -1c2 -2 27 -26 56 -26c30 0 59 20 59 51c0 22 -17 42 -56 42h-28c-5 0 -9 3 -8 9l3 25c1 6 5 9 11 9h28c41 0 62 23 62 50c0 23 -18 39 -41 39c-18 0 -41 -17 -51 -27c-4 -3 -8 -4 -12 0l-16 21
c-3 3 -3 9 2 12c0 0 39 40 89 40c48 0 84 -28 84 -73c0 -40 -34 -70 -58 -80v-2c18 -8 45 -33 45 -67c0 -52 -50 -94 -116 -94zM114 27l402 663c4 7 10 10 16 10h24c13 0 19 -14 11 -27l-404 -663c-2 -4 -8 -10 -16 -10h-22c-13 0 -19 14 -11 27zM345 68l4 29l181 196
c2 2 5 3 7 3h22c4 0 9 -4 8 -9l-26 -185h36c5 0 7 -4 7 -8l-3 -26c-1 -5 -5 -8 -10 -8h-36l-7 -51c-1 -5 -6 -9 -11 -9h-32c-4 0 -9 4 -8 9l7 50h-133c-4 0 -7 4 -6 9zM411 103h81l16 111z" />
    <glyph glyph-name="threeeighths" unicode="&#x215c;" horiz-adv-x="569" 
d="M88 394c-55 0 -78 29 -86 41c-3 3 -2 8 3 11l18 20c5 3 9 3 12 -1c2 -2 27 -26 56 -26c30 0 59 20 59 51c0 22 -17 42 -56 42h-28c-5 0 -9 3 -8 9l3 25c1 6 5 9 11 9h28c41 0 62 23 62 50c0 23 -18 39 -41 39c-18 0 -41 -17 -51 -27c-4 -3 -8 -4 -12 0l-16 21
c-3 3 -3 9 2 12c0 0 39 40 89 40c48 0 84 -28 84 -73c0 -40 -34 -70 -58 -80v-2c18 -8 45 -33 45 -67c0 -52 -50 -94 -116 -94zM54 27l402 663c4 7 10 10 16 10h24c13 0 19 -14 11 -27l-404 -663c-2 -4 -8 -10 -16 -10h-22c-13 0 -19 14 -11 27zM322 67c0 46 48 78 63 85v2
c-15 8 -35 31 -35 61c0 54 48 91 105 91c49 0 84 -29 84 -73c0 -41 -35 -68 -56 -79v-2c17 -9 42 -33 42 -67c0 -52 -46 -95 -115 -95c-55 0 -88 34 -88 77zM402 215c0 -19 11 -34 35 -39c33 7 49 27 49 50c0 21 -15 37 -37 37c-25 0 -47 -21 -47 -48zM376 72
c0 -24 19 -39 41 -39c29 0 55 19 55 49c0 20 -14 40 -42 46c-33 -8 -54 -32 -54 -56z" />
    <glyph glyph-name="fiveeighths" unicode="&#x215d;" horiz-adv-x="569" 
d="M55 27l402 663c4 7 10 10 16 10h24c13 0 19 -14 11 -27l-404 -663c-2 -4 -8 -10 -16 -10h-22c-13 0 -19 14 -11 27zM90 394c-48 0 -76 24 -86 38c-4 7 -5 10 1 15l19 19c4 3 8 4 11 0c2 -3 28 -26 60 -26c35 0 64 32 64 65c0 25 -17 46 -50 46h-69c-9 0 -13 8 -12 16
l18 124c1 5 5 9 9 9h141c5 0 8 -4 7 -9l-4 -27c0 -4 -4 -8 -9 -8h-103l-9 -60h42c58 0 90 -38 90 -83c0 -66 -47 -119 -120 -119zM323 67c0 46 48 78 63 85v2c-15 8 -35 31 -35 61c0 54 48 91 105 91c49 0 84 -29 84 -73c0 -41 -35 -68 -56 -79v-2c17 -9 42 -33 42 -67
c0 -52 -46 -95 -115 -95c-55 0 -88 34 -88 77zM403 215c0 -19 11 -34 35 -39c33 7 49 27 49 50c0 21 -15 37 -37 37c-25 0 -47 -21 -47 -48zM377 72c0 -24 19 -39 41 -39c29 0 55 19 55 49c0 20 -14 40 -42 46c-33 -8 -54 -32 -54 -56z" />
    <glyph glyph-name="seveneighths" unicode="&#x215e;" horiz-adv-x="569" 
d="M55 27l402 663c4 7 10 10 16 10h24c13 0 19 -14 11 -27l-404 -663c-2 -4 -8 -10 -16 -10h-22c-13 0 -19 14 -11 27zM44 404c-5 0 -8 1 -7 7l1 7l151 237h-123c-5 0 -8 4 -7 9l4 27c1 7 5 9 9 9h181c4 0 8 -4 7 -9l-2 -11l-164 -267c-5 -7 -8 -9 -14 -9h-36zM323 67
c0 46 48 78 63 85v2c-15 8 -35 31 -35 61c0 54 48 91 105 91c49 0 84 -29 84 -73c0 -41 -35 -68 -56 -79v-2c17 -9 42 -33 42 -67c0 -52 -46 -95 -115 -95c-55 0 -88 34 -88 77zM403 215c0 -19 11 -34 35 -39c33 7 49 27 49 50c0 21 -15 37 -37 37c-25 0 -47 -21 -47 -48z
M377 72c0 -24 19 -39 41 -39c29 0 55 19 55 49c0 20 -14 40 -42 46c-33 -8 -54 -32 -54 -56z" />
    <glyph glyph-name="perthousand" unicode="&#x2030;" horiz-adv-x="887" 
d="M188 440c-55 0 -104 52 -104 117c0 84 61 153 142 153c58 0 104 -52 104 -117c0 -85 -66 -153 -142 -153zM87 27l402 663c4 7 10 10 16 10h24c13 0 19 -14 11 -27l-404 -663c-2 -4 -8 -10 -16 -10h-22c-13 0 -19 14 -11 27zM196 497c39 0 76 39 76 88c0 36 -23 66 -54 66
c-41 0 -78 -40 -78 -88c0 -37 23 -66 56 -66zM585 107c0 84 61 153 142 153c58 0 104 -52 104 -117c0 -85 -66 -153 -142 -153c-55 0 -104 52 -104 117zM307 107c0 84 61 153 142 153c58 0 104 -52 104 -117c0 -85 -66 -153 -142 -153c-55 0 -104 52 -104 117zM641 113
c0 -37 23 -66 56 -66c39 0 76 39 76 88c0 36 -23 66 -54 66c-41 0 -78 -40 -78 -88zM363 113c0 -37 23 -66 56 -66c39 0 76 39 76 88c0 36 -23 66 -54 66c-41 0 -78 -40 -78 -88z" />
    <glyph glyph-name="minus" unicode="&#x2212;" horiz-adv-x="468" 
d="M67 314c-9 0 -15 9 -14 19l4 28c1 10 11 19 20 19h344c9 0 15 -9 14 -19l-4 -28c-1 -10 -10 -19 -19 -19h-345z" />
    <glyph glyph-name="plusminus" unicode="&#xb1;" horiz-adv-x="555" 
d="M258 249c-9 0 -16 8 -15 18l16 117h-140c-9 0 -16 9 -14 19l4 28c1 10 10 19 19 19h140l21 148c2 10 11 18 20 18h30c9 0 16 -8 15 -18l-21 -148h140c9 0 15 -9 14 -19l-4 -28c-2 -10 -10 -19 -19 -19h-140l-17 -117c-1 -10 -10 -18 -19 -18h-30zM82 61
c-9 0 -16 9 -14 19l4 28c1 10 10 19 19 19h345c9 0 15 -9 14 -19l-4 -28c-2 -10 -10 -19 -19 -19h-345z" />
    <glyph glyph-name="multiply" unicode="&#xd7;" horiz-adv-x="454" 
d="M93 189l-21 23c-6 6 -4 19 4 26l115 112l-81 109c-5 7 -4 20 4 27l19 17c8 7 20 7 25 0l81 -109l118 114c7 7 17 5 23 -1l21 -23c6 -6 5 -19 -3 -26l-117 -114l83 -110c6 -8 3 -20 -5 -27l-20 -16c-8 -7 -18 -8 -24 -1l-83 111l-116 -112c-7 -7 -17 -6 -23 0z" />
    <glyph glyph-name="divide" unicode="&#xf7;" horiz-adv-x="496" 
d="M273 472c-27 0 -46 23 -46 50c0 36 30 64 62 64c26 0 45 -22 45 -49c0 -35 -29 -65 -61 -65zM81 314c-9 0 -15 9 -14 19l4 28c1 10 11 19 20 19h344c9 0 15 -9 14 -19l-4 -28c-1 -10 -10 -19 -19 -19h-345zM177 164c0 36 30 64 61 64c27 0 46 -22 46 -49
c0 -35 -29 -65 -62 -65c-26 0 -45 23 -45 50z" />
    <glyph glyph-name="notequal" unicode="&#x2260;" horiz-adv-x="397" 
d="M118 57c-8 4 -11 15 -6 24l32 59h-62c-10 0 -17 9 -15 19l5 31c2 10 10 19 19 19h94l78 142h-152c-9 0 -15 9 -14 19l4 30c1 10 10 19 20 19h181l43 76c5 10 17 14 24 9l6 -3c8 -4 11 -15 5 -24l-33 -58h47c10 0 15 -9 14 -19l-4 -30c-1 -10 -10 -19 -20 -19h-77
l-77 -142h134c10 0 17 -9 15 -19l-5 -31c-1 -10 -9 -19 -19 -19h-165l-43 -77c-5 -10 -16 -13 -24 -9z" />
    <glyph glyph-name="approxequal" unicode="&#x2248;" horiz-adv-x="397" 
d="M99 326l-18 18c-6 5 -5 15 1 22c0 0 43 80 111 80c29 0 48 -16 70 -38c8 -8 24 -23 44 -23c34 0 56 34 65 51c5 9 15 9 21 4l19 -18c6 -5 4 -15 -1 -22c0 0 -41 -80 -112 -80c-30 0 -49 19 -69 37c-10 9 -24 24 -44 24c-34 0 -57 -34 -67 -51c-4 -9 -14 -9 -20 -4z
M70 122l-18 18c-6 5 -5 15 1 22c0 0 43 80 111 80c29 0 48 -16 70 -38c8 -8 24 -23 44 -23c34 0 56 34 65 51c5 9 15 9 21 4l19 -18c6 -5 4 -15 -1 -22c0 0 -41 -80 -112 -80c-30 0 -49 19 -69 37c-10 9 -24 24 -44 24c-34 0 -57 -34 -67 -51c-4 -9 -14 -9 -20 -4z" />
    <glyph glyph-name="lessequal" unicode="&#x2264;" horiz-adv-x="451" 
d="M54 382c-7 4 -8 9 -6 17l1 5c1 6 4 12 12 16l371 194c10 5 16 1 14 -12l-5 -44c-1 -5 -3 -11 -10 -15l-293 -144l253 -141c6 -4 6 -10 5 -15l-5 -38c-2 -13 -11 -17 -18 -12zM14 61c-9 0 -14 9 -14 19l4 28c1 10 11 19 20 19h343c9 0 14 -9 13 -19l-4 -28
c-1 -10 -10 -19 -19 -19h-343z" />
    <glyph glyph-name="greaterequal" unicode="&#x2265;" horiz-adv-x="451" 
d="M35 193c-9 -5 -16 -1 -14 12l5 45c1 5 3 11 9 15l290 140l-250 145c-5 4 -5 10 -4 15l5 37c2 13 10 17 18 12l319 -194c7 -4 7 -10 6 -16l-1 -5c-2 -8 -4 -13 -12 -17zM13 61c-9 0 -13 9 -13 19l4 28c1 10 10 19 19 19h343c9 0 15 -9 14 -19l-4 -28
c-1 -10 -11 -19 -20 -19h-343z" />
    <glyph glyph-name="logicalnot" unicode="&#xac;" horiz-adv-x="477" 
d="M55 314c-9 0 -15 9 -14 19l4 28c1 10 11 19 20 19h343c10 0 16 -10 15 -19l-29 -204c-1 -10 -11 -18 -20 -18h-33c-9 0 -16 8 -14 18l22 157h-294z" />
    <glyph glyph-name="Delta" unicode="&#x2206;" horiz-adv-x="686" 
d="M-12 0c-24 0 -24 17 -11 39l362 666c3 5 9 9 14 9h5c4 0 9 -3 10 -9l175 -668c3 -15 3 -37 -23 -37h-532zM75 71h381l-117 495h-2z" />
    <glyph glyph-name="uni0394" unicode="&#x394;" horiz-adv-x="686" 
d="M-12 0c-24 0 -24 17 -11 39l362 666c3 5 9 9 14 9h5c4 0 9 -3 10 -9l175 -668c3 -15 3 -37 -23 -37h-532zM75 71h381l-117 495h-2z" />
    <glyph glyph-name="Omega" unicode="&#x2126;" horiz-adv-x="780" 
d="M7 0c-7 0 -12 7 -11 15l5 41c1 8 9 15 16 15h102c-71 59 -111 163 -94 281c28 200 180 358 372 358c169 0 304 -158 276 -358c-17 -118 -78 -232 -170 -281h100c8 0 12 -7 11 -15l-5 -41c-1 -8 -8 -15 -16 -15h-224c-7 0 -11 7 -10 15l4 29c2 14 7 17 18 22
c115 38 204 154 222 283c22 157 -73 290 -214 290s-271 -133 -293 -290c-18 -129 37 -245 142 -283c9 -3 13 -8 11 -22l-4 -29c-1 -8 -6 -15 -14 -15h-224z" />
    <glyph glyph-name="uni03A9" unicode="&#x3a9;" horiz-adv-x="780" 
d="M7 0c-7 0 -12 7 -11 15l5 41c1 8 9 15 16 15h102c-71 59 -111 163 -94 281c28 200 180 358 372 358c169 0 304 -158 276 -358c-17 -118 -78 -232 -170 -281h100c8 0 12 -7 11 -15l-5 -41c-1 -8 -8 -15 -16 -15h-224c-7 0 -11 7 -10 15l4 29c2 14 7 17 18 22
c115 38 204 154 222 283c22 157 -73 290 -214 290s-271 -133 -293 -290c-18 -129 37 -245 142 -283c9 -3 13 -8 11 -22l-4 -29c-1 -8 -6 -15 -14 -15h-224z" />
    <glyph glyph-name="mu" unicode="&#xb5;" horiz-adv-x="467" 
d="M100 7l-39 -288c-1 -10 -11 -19 -20 -19h-35c-9 0 -15 9 -14 19l90 662c2 10 11 19 20 19h36c9 0 16 -9 15 -19l-30 -211c-11 -76 14 -113 63 -113c63 0 108 57 109 57l38 267c1 10 10 19 20 19h34c9 0 16 -9 15 -19l-51 -362c-1 -10 -9 -19 -20 -19h-20
c-9 0 -11 7 -13 17l-4 26c-3 -2 -51 -53 -125 -53c-29 0 -51 6 -69 17z" />
    <glyph glyph-name="uni03BC" unicode="&#x3bc;" horiz-adv-x="467" 
d="M100 7l-39 -288c-1 -10 -11 -19 -20 -19h-35c-9 0 -15 9 -14 19l90 662c2 10 11 19 20 19h36c9 0 16 -9 15 -19l-30 -211c-11 -76 14 -113 63 -113c63 0 108 57 109 57l38 267c1 10 10 19 20 19h34c9 0 16 -9 15 -19l-51 -362c-1 -10 -9 -19 -20 -19h-20
c-9 0 -11 7 -13 17l-4 26c-3 -2 -51 -53 -125 -53c-29 0 -51 6 -69 17z" />
    <glyph glyph-name="pi" unicode="&#x3c0;" horiz-adv-x="631" 
d="M126 15l46 324h-92c-8 0 -12 8 -11 15l5 31c1 8 8 15 15 15h506c8 0 12 -6 11 -14l-5 -33c-1 -8 -6 -14 -15 -14h-94l-46 -324c-1 -9 -9 -15 -16 -15h-42c-7 0 -12 7 -11 15l46 324h-182l-46 -324c-1 -9 -9 -15 -16 -15h-41c-7 0 -13 7 -12 15z" />
    <glyph glyph-name="degree" unicode="&#xb0;" horiz-adv-x="309" 
d="M176 440c-55 0 -104 52 -104 117c0 84 61 153 142 153c58 0 104 -52 104 -117c0 -85 -66 -153 -142 -153zM184 497c39 0 76 39 76 88c0 36 -23 66 -54 66c-41 0 -78 -40 -78 -88c0 -37 23 -66 56 -66z" />
    <glyph glyph-name="afii61289" unicode="&#x2113;" horiz-adv-x="505" 
d="M152 -10c-85 0 -111 76 -100 158c4 26 10 48 16 72c-18 -6 -37 -11 -49 -13c-9 -1 -12 1 -12 14l-1 17c-1 10 3 17 14 19c22 4 45 9 65 16l29 94c67 218 132 344 231 344c61 0 89 -62 79 -132c-26 -184 -162 -288 -301 -343c-8 -25 -18 -54 -23 -86
c-8 -56 -1 -110 59 -110c76 0 130 34 148 45c10 7 15 5 18 -3l7 -16c4 -8 3 -12 -6 -20c-7 -6 -78 -56 -174 -56zM139 292c116 52 217 145 236 287c6 45 -4 81 -37 81c-66 0 -117 -113 -177 -301z" />
    <glyph glyph-name="estimated" unicode="&#x212e;" horiz-adv-x="823" 
d="M108 158c37 -77 116 -122 205 -122c68 0 140 33 203 87c6 6 15 10 21 1l11 -15c6 -8 2 -14 -6 -22c-73 -66 -154 -98 -235 -98c-173 0 -305 157 -277 360c29 203 185 362 378 362c176 0 304 -159 277 -362c-2 -17 -10 -24 -20 -24h-534zM137 371h448l24 168
c-40 77 -113 124 -208 124c-94 0 -177 -45 -240 -122z" />
    <glyph glyph-name="eng" unicode="&#x14b;" horiz-adv-x="463" 
d="M33 19l50 362c1 10 8 19 20 19h20c8 0 12 -4 13 -12l4 -31c2 0 60 53 134 53c97 0 133 -76 118 -180l-53 -370c-16 -116 -71 -170 -160 -170c-49 0 -86 26 -100 42c-6 6 -6 17 -1 23l20 23c8 9 15 9 23 1c10 -10 38 -27 61 -27c41 0 77 31 88 108l51 370
c10 76 -13 113 -63 113c-64 0 -117 -57 -119 -57l-37 -267c-1 -10 -10 -19 -21 -19h-34c-9 0 -16 9 -14 19z" />
    <glyph glyph-name="Eng" unicode="&#x14a;" horiz-adv-x="716" 
d="M63 19l94 673c1 10 11 18 22 18h25l322 -561h1l75 532c1 10 11 19 23 19h32c11 0 18 -9 17 -19l-117 -821c-16 -116 -71 -170 -160 -170c-49 0 -86 26 -100 42c-6 6 -6 17 -1 23l20 23c8 9 15 9 23 1c10 -10 38 -27 61 -27c41 0 76 31 87 108l23 166l-301 535h-2
l-73 -542c-1 -10 -12 -19 -23 -19h-32c-11 0 -17 9 -16 19z" />
    <glyph glyph-name="infinity" unicode="&#x221e;" horiz-adv-x="608" 
d="M180 157c-64 0 -116 63 -105 139c10 77 67 139 144 139c43 0 74 -28 91 -66c27 38 72 66 116 66c63 0 117 -62 107 -139c-11 -76 -70 -139 -146 -139c-44 0 -75 29 -92 66c-27 -37 -72 -66 -115 -66zM331 296c-7 -46 20 -83 63 -83c40 0 79 37 86 83c6 46 -23 83 -63 83
c-43 0 -80 -37 -86 -83zM189 213c41 0 80 37 87 83c6 46 -23 83 -64 83s-79 -37 -85 -83c-7 -46 21 -83 62 -83z" />
    <glyph glyph-name="partialdiff" unicode="&#x2202;" horiz-adv-x="570" 
d="M62 219c19 133 110 217 224 217c78 0 124 -45 124 -45c-9 141 -151 236 -189 251c-16 6 -18 17 -12 29l12 22c5 9 13 14 21 10c86 -40 270 -160 236 -428c-20 -159 -95 -285 -249 -285c-105 0 -184 103 -167 229zM238 56c123 0 173 150 173 250c0 0 -44 65 -128 65
c-75 0 -139 -69 -151 -156c-12 -86 30 -159 106 -159z" />
    <glyph glyph-name="integral" unicode="&#x222b;" horiz-adv-x="354" 
d="M102 -140l96 680c16 116 79 170 166 170c50 0 81 -24 95 -41c5 -6 5 -16 0 -23l-19 -24c-8 -10 -16 -9 -23 -1c-9 10 -39 27 -61 27c-40 0 -77 -31 -88 -108l-95 -680c-17 -116 -76 -170 -167 -170c-50 0 -80 24 -94 41c-5 6 -7 16 -1 23l20 24c7 9 15 9 23 1
c9 -10 39 -27 61 -27c40 0 77 31 87 108z" />
    <glyph glyph-name="radical" unicode="&#x221a;" horiz-adv-x="668" 
d="M174 0l-99 383c-3 10 2 17 11 17h42c7 0 11 -5 11 -8l63 -261h3l302 559c3 5 7 10 14 10h138c8 0 12 -7 11 -15l-5 -35c-1 -8 -7 -15 -15 -15h-99l-348 -635c-3 -6 -8 -10 -13 -10h-6c-5 0 -9 6 -10 10z" />
    <glyph glyph-name="summation" unicode="&#x2211;" horiz-adv-x="531" 
d="M23 15l3 20l319 327l-230 305l3 18c1 8 7 15 14 15h365c7 0 12 -7 11 -15l-6 -42c-1 -8 -8 -15 -15 -15h-255l178 -231c4 -5 11 -14 9 -26l-3 -21c-2 -16 -11 -25 -17 -31l-246 -248h255c7 0 12 -6 11 -14l-6 -42c-1 -8 -8 -15 -15 -15h-365c-7 0 -11 7 -10 15z" />
    <glyph glyph-name="product" unicode="&#x220f;" horiz-adv-x="658" 
d="M29 15l95 670c1 8 8 15 15 15h477c8 0 12 -7 11 -15l-95 -670c-1 -8 -7 -15 -15 -15h-51c-7 0 -12 7 -11 15l87 614h-349l-87 -614c-1 -8 -7 -15 -15 -15h-51c-7 0 -12 7 -11 15z" />
    <glyph glyph-name="lozenge" unicode="&#x25ca;" horiz-adv-x="686" 
d="M280 8l-159 298c-13 26 -14 35 -10 55c3 16 7 24 27 47l240 297c4 5 9 9 14 9h2c7 0 10 -4 13 -9l157 -296c12 -24 16 -34 12 -56c-4 -18 -10 -27 -27 -50l-240 -295c-4 -5 -9 -8 -13 -8h-5c-5 0 -9 4 -11 8zM306 102h2l201 261l-128 249h-2l-204 -260z" />
    <glyph glyph-name="uniF8FF" unicode="&#xf8ff;" horiz-adv-x="599" 
d="M50 30v640c0 21 9 30 30 30h439c21 0 30 -9 30 -30v-640c0 -21 -9 -30 -30 -30h-439c-21 0 -30 9 -30 30zM262 314c0 -7 7 -12 14 -12h36c9 0 15 4 15 13v26c0 48 105 63 105 150c0 65 -54 111 -125 111c-87 0 -130 -61 -130 -61c-4 -6 -6 -13 0 -18l22 -22
c6 -4 11 -4 17 0c13 12 36 41 84 41c40 0 61 -25 61 -52c0 -63 -99 -72 -99 -147v-29zM245 156c0 -26 22 -48 48 -48c27 0 49 22 49 48s-22 48 -49 48c-26 0 -48 -22 -48 -48z" />
    <glyph glyph-name="zero.tf" horiz-adv-x="604" 
d="M264 -9c-112 0 -179 103 -179 262c0 262 104 438 278 438c111 0 178 -103 178 -262c0 -262 -101 -438 -277 -438zM273 56c122 0 195 150 195 370c0 122 -39 200 -115 200c-121 0 -195 -151 -195 -371c0 -123 40 -199 115 -199z" />
    <glyph glyph-name="one.tf" horiz-adv-x="604" 
d="M93 0c-10 0 -17 8 -15 18l4 22c2 11 10 19 20 19h142l71 497l-101 -78c-8 -6 -16 -7 -20 1l-14 23c-4 8 2 15 7 20l171 158h31c9 0 15 -9 14 -19l-86 -602h113c10 0 16 -8 14 -19l-4 -22c-2 -10 -10 -18 -20 -18h-327z" />
    <glyph glyph-name="two.tf" horiz-adv-x="604" 
d="M74 19l4 30l257 263c77 79 113 145 113 201c0 50 -27 109 -105 109c-53 0 -102 -42 -134 -75c-8 -8 -17 -7 -24 0l-19 19c-6 6 -5 18 2 26c0 0 79 98 186 98c113 0 171 -78 171 -166c0 -103 -61 -172 -141 -254l-200 -205h257c9 0 16 -9 15 -19l-4 -27
c-1 -10 -11 -19 -20 -19h-344c-10 0 -16 9 -14 19z" />
    <glyph glyph-name="three.tf" horiz-adv-x="604" 
d="M81 79c-5 7 -3 18 5 24l28 20c10 7 16 5 23 -5c8 -12 50 -66 124 -66c72 0 143 49 143 139c0 60 -40 117 -137 117h-50c-10 0 -16 6 -14 22l3 24c2 16 8 22 22 22h50c102 0 156 64 156 140c0 66 -45 108 -97 108c-58 0 -100 -40 -122 -65c-7 -7 -15 -10 -24 -2l-23 19
c-7 6 -3 19 4 26c0 0 68 88 172 88c91 0 167 -62 167 -167c0 -84 -69 -151 -117 -174v-3c36 -18 87 -76 87 -146c0 -116 -87 -210 -230 -210c-105 0 -153 64 -170 89z" />
    <glyph glyph-name="four.tf" horiz-adv-x="604" 
d="M69 154c-10 0 -16 9 -15 19l5 37l406 475c3 3 8 6 14 6h23c9 0 16 -8 14 -19l-63 -457h73c10 0 15 -8 14 -18l-3 -22c-1 -10 -10 -19 -20 -19h-72l-19 -137c-2 -10 -11 -19 -20 -19h-38c-9 0 -16 9 -14 19l19 135h-304zM144 216h241l49 346z" />
    <glyph glyph-name="five.tf" horiz-adv-x="604" 
d="M97 73c-10 15 -11 23 3 34l24 19c10 7 16 9 25 -6c10 -17 41 -66 118 -66c94 0 163 98 163 188c0 65 -36 120 -117 120h-138c-18 0 -25 19 -23 35l38 264c1 10 9 19 19 19h274c10 0 17 -9 15 -19l-5 -29c-2 -10 -9 -19 -19 -19h-224l-26 -184h100c116 0 181 -67 181 -173
c0 -147 -101 -266 -245 -266c-94 0 -145 53 -163 83z" />
    <glyph glyph-name="six.tf" horiz-adv-x="604" 
d="M105 215c0 310 259 449 362 488c10 4 16 -1 19 -10l9 -27c4 -12 -2 -23 -20 -29c-43 -15 -212 -111 -262 -246c3 0 66 45 138 45c90 0 164 -73 164 -185c0 -143 -109 -261 -235 -261c-122 0 -175 101 -175 225zM289 56c81 0 155 84 155 182c0 74 -46 133 -111 133
c-80 0 -144 -65 -145 -65c-27 -100 -14 -250 101 -250z" />
    <glyph glyph-name="seven.tf" horiz-adv-x="604" 
d="M106 14l2 16l333 583h-289c-9 0 -15 9 -14 19l4 29c1 10 11 19 20 19h363c9 0 16 -9 15 -19l-1 -7l-362 -638c-8 -15 -12 -16 -23 -16h-33c-9 0 -16 6 -15 14z" />
    <glyph glyph-name="eight.tf" horiz-adv-x="604" 
d="M89 157c0 104 89 171 135 193v3c-33 19 -73 69 -73 134c0 119 97 203 215 203c99 0 165 -64 165 -158s-69 -156 -116 -179l-1 -3c36 -18 87 -73 87 -148c0 -115 -93 -212 -234 -212c-113 0 -178 73 -178 167zM324 385c90 10 132 66 132 138c0 63 -41 107 -101 107
c-68 0 -130 -59 -130 -144c0 -52 30 -93 99 -101zM165 159c0 -66 49 -109 110 -109c81 0 149 54 149 141c0 55 -38 111 -110 120c-92 -11 -149 -81 -149 -152z" />
    <glyph glyph-name="nine.tf" horiz-adv-x="604" 
d="M130 20c-3 12 2 23 20 29c43 15 212 111 262 246c-2 0 -66 -45 -137 -45c-86 0 -165 73 -165 185c0 147 108 261 235 261c117 0 175 -101 175 -224c0 -311 -257 -449 -362 -489c-10 -4 -17 1 -19 10zM292 315c80 0 144 65 146 65c27 100 13 250 -102 250
c-80 0 -154 -84 -154 -182c0 -74 45 -133 110 -133z" />
    <glyph glyph-name="zerosuperior" unicode="&#x2070;" horiz-adv-x="314" 
d="M227 494c-58 0 -94 47 -94 122c0 117 48 193 136 193c58 0 94 -47 94 -122c0 -117 -48 -193 -136 -193zM233 542c47 0 76 56 76 141c0 48 -16 78 -46 78c-47 0 -76 -58 -76 -142c0 -48 16 -77 46 -77z" />
    <glyph glyph-name="foursuperior" unicode="&#x2074;" horiz-adv-x="327" 
d="M265 504c-4 0 -9 4 -8 9l7 50h-133c-4 0 -7 4 -6 9l4 29l181 196c2 2 5 3 7 3h22c4 0 9 -4 8 -9l-26 -185h36c5 0 7 -4 7 -8l-3 -26c-1 -5 -5 -8 -10 -8h-36l-7 -51c-1 -5 -6 -9 -11 -9h-32zM191 607h81l16 111z" />
    <glyph glyph-name="fivesuperior" unicode="&#x2075;" horiz-adv-x="291" 
d="M210 494c-48 0 -76 24 -86 38c-4 7 -5 10 1 15l19 19c4 3 8 4 11 0c2 -3 28 -26 60 -26c35 0 64 32 64 65c0 25 -17 46 -50 46h-69c-9 0 -13 8 -12 16l18 124c1 5 5 9 9 9h141c5 0 8 -4 7 -9l-4 -27c0 -4 -4 -8 -9 -8h-103l-9 -60h42c58 0 90 -38 90 -83
c0 -66 -47 -119 -120 -119z" />
    <glyph glyph-name="sixsuperior" unicode="&#x2076;" horiz-adv-x="294" 
d="M217 494c-57 0 -87 51 -87 102c0 148 136 206 174 219c6 2 10 -1 11 -6l6 -23c2 -6 -1 -11 -10 -13c-22 -5 -94 -44 -115 -94c4 3 31 17 58 17c41 0 79 -29 79 -86c0 -63 -53 -116 -116 -116zM224 541c32 0 60 32 60 66c0 27 -19 47 -45 47c-28 0 -53 -22 -61 -34
c-4 -33 9 -79 46 -79z" />
    <glyph glyph-name="sevensuperior" unicode="&#x2077;" horiz-adv-x="288" 
d="M137 504c-5 0 -8 1 -7 7l1 7l151 237h-123c-5 0 -8 4 -7 9l4 27c1 7 5 9 9 9h181c4 0 8 -4 7 -9l-2 -11l-164 -267c-5 -7 -8 -9 -14 -9h-36z" />
    <glyph glyph-name="eightsuperior" unicode="&#x2078;" horiz-adv-x="292" 
d="M213 494c-55 0 -88 34 -88 77c0 46 48 78 63 85v2c-15 8 -35 31 -35 61c0 54 48 91 105 91c49 0 84 -29 84 -73c0 -41 -35 -68 -56 -79v-2c17 -9 42 -33 42 -67c0 -52 -46 -95 -115 -95zM240 680c33 7 49 27 49 50c0 21 -15 37 -37 37c-25 0 -47 -21 -47 -48
c0 -19 11 -34 35 -39zM220 537c29 0 55 19 55 49c0 20 -14 40 -42 46c-33 -8 -54 -32 -54 -56s19 -39 41 -39z" />
    <glyph glyph-name="ninesuperior" unicode="&#x2079;" horiz-adv-x="293" 
d="M170 487c-6 -2 -10 1 -11 6l-6 23c-2 6 1 11 10 13c22 5 94 44 115 94c-4 -3 -31 -17 -58 -17c-41 0 -79 29 -79 86c0 63 53 116 116 116c57 0 87 -51 87 -102c0 -149 -136 -206 -174 -219zM235 648c28 0 53 22 61 34c4 33 -9 79 -46 79c-32 0 -60 -32 -60 -66
c0 -27 19 -47 45 -47z" />
    <glyph glyph-name="zeroinferior" unicode="&#x2080;" horiz-adv-x="314" 
d="M33 -38c0 117 48 193 136 193c58 0 94 -47 94 -122c0 -117 -48 -193 -136 -193c-58 0 -94 47 -94 122zM87 -35c0 -48 16 -77 46 -77c47 0 76 56 76 141c0 48 -16 78 -46 78c-47 0 -76 -58 -76 -142z" />
    <glyph glyph-name="oneinferior" unicode="&#x2081;" horiz-adv-x="195" 
d="M50 62l-2 20c0 5 0 7 5 11l71 53h29c5 0 8 -4 7 -9l-40 -278c-1 -5 -4 -9 -9 -9h-35c-6 0 -9 4 -8 9l29 210l-39 -11c-5 -1 -8 0 -8 4z" />
    <glyph glyph-name="twoinferior" unicode="&#x2082;" horiz-adv-x="282" 
d="M73 79l-14 18c-4 6 -3 10 1 14s40 45 92 45c54 0 87 -35 87 -77c0 -39 -23 -68 -57 -102l-80 -83h103c5 0 7 -4 6 -10l-3 -25c-1 -4 -2 -9 -9 -9h-175c-5 0 -9 2 -8 9l2 16l129 131c23 25 38 41 38 62c0 19 -12 41 -43 41c-19 0 -41 -15 -57 -30c-6 -5 -10 -2 -12 0z" />
    <glyph glyph-name="threeinferior" unicode="&#x2083;" horiz-adv-x="288" 
d="M77 -13l3 25c1 6 5 9 11 9h28c41 0 62 23 62 50c0 23 -18 39 -41 39c-18 0 -41 -17 -51 -27c-4 -3 -8 -4 -12 0l-16 21c-3 3 -3 9 2 12c0 0 39 40 89 40c48 0 84 -28 84 -73c0 -40 -34 -70 -58 -80v-2c18 -8 45 -33 45 -67c0 -52 -50 -94 -116 -94c-55 0 -78 29 -86 41
c-3 3 -2 8 3 11l18 20c5 3 9 3 12 -1c2 -2 27 -26 56 -26c30 0 59 20 59 51c0 22 -17 42 -56 42h-28c-5 0 -9 3 -8 9z" />
    <glyph glyph-name="fourinferior" unicode="&#x2084;" horiz-adv-x="327" 
d="M29 -53l181 196c2 2 5 3 7 3h22c4 0 9 -4 8 -9l-26 -185h36c5 0 7 -4 7 -8l-3 -26c-1 -5 -5 -8 -10 -8h-36l-7 -51c-1 -5 -6 -9 -11 -9h-32c-4 0 -9 4 -8 9l7 50h-133c-4 0 -7 4 -6 9zM91 -47h81l16 111z" />
    <glyph glyph-name="fiveinferior" unicode="&#x2085;" horiz-adv-x="291" 
d="M48 13l18 124c1 5 5 9 9 9h141c5 0 8 -4 7 -9l-4 -27c0 -4 -4 -8 -9 -8h-103l-9 -60h42c58 0 90 -38 90 -83c0 -66 -47 -119 -120 -119c-48 0 -76 24 -86 38c-4 7 -5 10 1 15l19 19c4 3 8 4 11 0c2 -3 28 -26 60 -26c35 0 64 32 64 65c0 25 -17 46 -50 46h-69
c-9 0 -13 8 -12 16z" />
    <glyph glyph-name="sixinferior" unicode="&#x2086;" horiz-adv-x="294" 
d="M30 -58c0 148 136 206 174 219c6 2 10 -1 11 -6l6 -23c2 -6 -1 -11 -10 -13c-22 -5 -94 -44 -115 -94c4 3 31 17 58 17c41 0 79 -29 79 -86c0 -63 -53 -116 -116 -116c-57 0 -87 51 -87 102zM78 -34c-4 -33 9 -79 46 -79c32 0 60 32 60 66c0 27 -19 47 -45 47
c-28 0 -53 -22 -61 -34z" />
    <glyph glyph-name="seveninferior" unicode="&#x2087;" horiz-adv-x="288" 
d="M59 101c-5 0 -8 4 -7 9l4 27c1 7 5 9 9 9h181c4 0 8 -4 7 -9l-2 -11l-164 -267c-5 -7 -8 -9 -14 -9h-36c-5 0 -8 1 -7 7l1 7l151 237h-123z" />
    <glyph glyph-name="eightinferior" unicode="&#x2088;" horiz-adv-x="292" 
d="M53 65c0 54 48 91 105 91c49 0 84 -29 84 -73c0 -41 -35 -68 -56 -79v-2c17 -9 42 -33 42 -67c0 -52 -46 -95 -115 -95c-55 0 -88 34 -88 77c0 46 48 78 63 85v2c-15 8 -35 31 -35 61zM105 65c0 -19 11 -34 35 -39c33 7 49 27 49 50c0 21 -15 37 -37 37
c-25 0 -47 -21 -47 -48zM79 -78c0 -24 19 -39 41 -39c29 0 55 19 55 49c0 20 -14 40 -42 46c-33 -8 -54 -32 -54 -56z" />
    <glyph glyph-name="nineinferior" unicode="&#x2089;" horiz-adv-x="293" 
d="M41 38c0 63 53 116 116 116c57 0 87 -51 87 -102c0 -149 -136 -206 -174 -219c-6 -2 -10 1 -11 6l-6 23c-2 6 1 11 10 13c22 5 94 44 115 94c-4 -3 -31 -17 -58 -17c-41 0 -79 29 -79 86zM90 41c0 -27 19 -47 45 -47c28 0 53 22 61 34c4 33 -9 79 -46 79
c-32 0 -60 -32 -60 -66z" />
    <glyph glyph-name="zero.denom" horiz-adv-x="314" 
d="M63 112c0 117 48 193 136 193c58 0 94 -47 94 -122c0 -117 -48 -193 -136 -193c-58 0 -94 47 -94 122zM117 115c0 -48 16 -77 46 -77c47 0 76 56 76 141c0 48 -16 78 -46 78c-47 0 -76 -58 -76 -142z" />
    <glyph glyph-name="one.denom" horiz-adv-x="195" 
d="M98 9l29 210l-39 -11c-5 -1 -8 0 -8 4l-2 20c0 5 0 7 5 11l71 53h29c5 0 8 -4 7 -9l-40 -278c-1 -5 -4 -9 -9 -9h-35c-6 0 -9 4 -8 9z" />
    <glyph glyph-name="two.denom" horiz-adv-x="282" 
d="M46 9l2 16l129 131c23 25 38 41 38 62c0 19 -12 41 -43 41c-19 0 -41 -15 -57 -30c-6 -5 -10 -2 -12 0l-14 18c-4 6 -3 10 1 14s40 45 92 45c54 0 87 -35 87 -77c0 -39 -23 -68 -57 -102l-80 -83h103c5 0 7 -4 6 -10l-3 -25c-1 -4 -2 -9 -9 -9h-175c-5 0 -9 2 -8 9z" />
    <glyph glyph-name="three.denom" horiz-adv-x="288" 
d="M51 31c-3 3 -2 8 3 11l18 20c5 3 9 3 12 -1c2 -2 27 -26 56 -26c30 0 59 20 59 51c0 22 -17 42 -56 42h-28c-5 0 -9 3 -8 9l3 25c1 6 5 9 11 9h28c41 0 62 23 62 50c0 23 -18 39 -41 39c-18 0 -41 -17 -51 -27c-4 -3 -8 -4 -12 0l-16 21c-3 3 -3 9 2 12c0 0 39 40 89 40
c48 0 84 -28 84 -73c0 -40 -34 -70 -58 -80v-2c18 -8 45 -33 45 -67c0 -52 -50 -94 -116 -94c-55 0 -78 29 -86 41z" />
    <glyph glyph-name="four.denom" horiz-adv-x="327" 
d="M61 59c-4 0 -7 4 -6 9l4 29l181 196c2 2 5 3 7 3h22c4 0 9 -4 8 -9l-26 -185h36c5 0 7 -4 7 -8l-3 -26c-1 -5 -5 -8 -10 -8h-36l-7 -51c-1 -5 -6 -9 -11 -9h-32c-4 0 -9 4 -8 9l7 50h-133zM121 103h81l16 111z" />
    <glyph glyph-name="five.denom" horiz-adv-x="291" 
d="M54 28c-4 7 -5 10 1 15l19 19c4 3 8 4 11 0c2 -3 28 -26 60 -26c35 0 64 32 64 65c0 25 -17 46 -50 46h-69c-9 0 -13 8 -12 16l18 124c1 5 5 9 9 9h141c5 0 8 -4 7 -9l-4 -27c0 -4 -4 -8 -9 -8h-103l-9 -60h42c58 0 90 -38 90 -83c0 -66 -47 -119 -120 -119
c-48 0 -76 24 -86 38z" />
    <glyph glyph-name="six.denom" horiz-adv-x="294" 
d="M60 92c0 148 136 206 174 219c6 2 10 -1 11 -6l6 -23c2 -6 -1 -11 -10 -13c-22 -5 -94 -44 -115 -94c4 3 31 17 58 17c41 0 79 -29 79 -86c0 -63 -53 -116 -116 -116c-57 0 -87 51 -87 102zM154 37c32 0 60 32 60 66c0 27 -19 47 -45 47c-28 0 -53 -22 -61 -34
c-4 -33 9 -79 46 -79z" />
    <glyph glyph-name="seven.denom" horiz-adv-x="288" 
d="M60 7l1 7l151 237h-123c-5 0 -8 4 -7 9l4 27c1 7 5 9 9 9h181c4 0 8 -4 7 -9l-2 -11l-164 -267c-5 -7 -8 -9 -14 -9h-36c-5 0 -8 1 -7 7z" />
    <glyph glyph-name="eight.denom" horiz-adv-x="292" 
d="M55 67c0 46 48 78 63 85v2c-15 8 -35 31 -35 61c0 54 48 91 105 91c49 0 84 -29 84 -73c0 -41 -35 -68 -56 -79v-2c17 -9 42 -33 42 -67c0 -52 -46 -95 -115 -95c-55 0 -88 34 -88 77zM170 176c33 7 49 27 49 50c0 21 -15 37 -37 37c-25 0 -47 -21 -47 -48
c0 -19 11 -34 35 -39zM109 72c0 -24 19 -39 41 -39c29 0 55 19 55 49c0 20 -14 40 -42 46c-33 -8 -54 -32 -54 -56z" />
    <glyph glyph-name="nine.denom" horiz-adv-x="293" 
d="M83 12c-2 6 1 11 10 13c22 5 94 44 115 94c-4 -3 -31 -17 -58 -17c-41 0 -79 29 -79 86c0 63 53 116 116 116c57 0 87 -51 87 -102c0 -149 -136 -206 -174 -219c-6 -2 -10 1 -11 6zM165 144c28 0 53 22 61 34c4 33 -9 79 -46 79c-32 0 -60 -32 -60 -66
c0 -27 19 -47 45 -47z" />
    <glyph glyph-name="zero.num" horiz-adv-x="314" 
d="M207 394c-58 0 -94 47 -94 122c0 117 48 193 136 193c58 0 94 -47 94 -122c0 -117 -48 -193 -136 -193zM213 442c47 0 76 56 76 141c0 48 -16 78 -46 78c-47 0 -76 -58 -76 -142c0 -48 16 -77 46 -77z" />
    <glyph glyph-name="one.num" horiz-adv-x="195" 
d="M156 404c-6 0 -9 4 -8 9l29 210l-39 -11c-5 -1 -8 0 -8 4l-2 20c0 5 0 7 5 11l71 53h29c5 0 8 -4 7 -9l-40 -278c-1 -5 -4 -9 -9 -9h-35z" />
    <glyph glyph-name="two.num" horiz-adv-x="282" 
d="M104 404c-5 0 -9 2 -8 9l2 16l129 131c23 25 38 41 38 62c0 19 -12 41 -43 41c-19 0 -41 -15 -57 -30c-6 -5 -10 -2 -12 0l-14 18c-4 6 -3 10 1 14s40 45 92 45c54 0 87 -35 87 -77c0 -39 -23 -68 -57 -102l-80 -83h103c5 0 7 -4 6 -10l-3 -25c-1 -4 -2 -9 -9 -9h-175z
" />
    <glyph glyph-name="three.num" horiz-adv-x="288" 
d="M187 394c-55 0 -78 29 -86 41c-3 3 -2 8 3 11l18 20c5 3 9 3 12 -1c2 -2 27 -26 56 -26c30 0 59 20 59 51c0 22 -17 42 -56 42h-28c-5 0 -9 3 -8 9l3 25c1 6 5 9 11 9h28c41 0 62 23 62 50c0 23 -18 39 -41 39c-18 0 -41 -17 -51 -27c-4 -3 -8 -4 -12 0l-16 21
c-3 3 -3 9 2 12c0 0 39 40 89 40c48 0 84 -28 84 -73c0 -40 -34 -70 -58 -80v-2c18 -8 45 -33 45 -67c0 -52 -50 -94 -116 -94z" />
    <glyph glyph-name="four.num" horiz-adv-x="327" 
d="M245 404c-4 0 -9 4 -8 9l7 50h-133c-4 0 -7 4 -6 9l4 29l181 196c2 2 5 3 7 3h22c4 0 9 -4 8 -9l-26 -185h36c5 0 7 -4 7 -8l-3 -26c-1 -5 -5 -8 -10 -8h-36l-7 -51c-1 -5 -6 -9 -11 -9h-32zM171 507h81l16 111z" />
    <glyph glyph-name="five.num" horiz-adv-x="291" 
d="M190 394c-48 0 -76 24 -86 38c-4 7 -5 10 1 15l19 19c4 3 8 4 11 0c2 -3 28 -26 60 -26c35 0 64 32 64 65c0 25 -17 46 -50 46h-69c-9 0 -13 8 -12 16l18 124c1 5 5 9 9 9h141c5 0 8 -4 7 -9l-4 -27c0 -4 -4 -8 -9 -8h-103l-9 -60h42c58 0 90 -38 90 -83
c0 -66 -47 -119 -120 -119z" />
    <glyph glyph-name="six.num" horiz-adv-x="294" 
d="M197 394c-57 0 -87 51 -87 102c0 148 136 206 174 219c6 2 10 -1 11 -6l6 -23c2 -6 -1 -11 -10 -13c-22 -5 -94 -44 -115 -94c4 3 31 17 58 17c41 0 79 -29 79 -86c0 -63 -53 -116 -116 -116zM204 441c32 0 60 32 60 66c0 27 -19 47 -45 47c-28 0 -53 -22 -61 -34
c-4 -33 9 -79 46 -79z" />
    <glyph glyph-name="seven.num" horiz-adv-x="288" 
d="M117 404c-5 0 -8 1 -7 7l1 7l151 237h-123c-5 0 -8 4 -7 9l4 27c1 7 5 9 9 9h181c4 0 8 -4 7 -9l-2 -11l-164 -267c-5 -7 -8 -9 -14 -9h-36z" />
    <glyph glyph-name="eight.num" horiz-adv-x="292" 
d="M193 394c-55 0 -88 34 -88 77c0 46 48 78 63 85v2c-15 8 -35 31 -35 61c0 54 48 91 105 91c49 0 84 -29 84 -73c0 -41 -35 -68 -56 -79v-2c17 -9 42 -33 42 -67c0 -52 -46 -95 -115 -95zM220 580c33 7 49 27 49 50c0 21 -15 37 -37 37c-25 0 -47 -21 -47 -48
c0 -19 11 -34 35 -39zM200 437c29 0 55 19 55 49c0 20 -14 40 -42 46c-33 -8 -54 -32 -54 -56s19 -39 41 -39z" />
    <glyph glyph-name="nine.num" horiz-adv-x="293" 
d="M150 387c-6 -2 -10 1 -11 6l-6 23c-2 6 1 11 10 13c22 5 94 44 115 94c-4 -3 -31 -17 -58 -17c-41 0 -79 29 -79 86c0 63 53 116 116 116c57 0 87 -51 87 -102c0 -149 -136 -206 -174 -219zM215 548c28 0 53 22 61 34c4 33 -9 79 -46 79c-32 0 -60 -32 -60 -66
c0 -27 19 -47 45 -47z" />
    <glyph glyph-name="parenleft.case" horiz-adv-x="325" 
d="M79 238c0 370 153 493 279 500c10 1 15 -2 15 -10l-2 -27c0 -9 -6 -16 -12 -17c-172 -38 -210 -247 -210 -448c0 -123 34 -211 115 -230c6 -1 10 -8 7 -17l-6 -27c-2 -8 -8 -11 -18 -10c-77 5 -168 80 -168 286z" />
    <glyph glyph-name="parenright.case" horiz-adv-x="325" 
d="M17 6c170 38 210 244 210 448c0 123 -35 211 -115 230c-6 1 -10 8 -7 17l6 27c2 8 8 11 18 10c75 -4 168 -80 168 -286c0 -370 -153 -493 -279 -500c-10 -1 -15 2 -15 10l2 27c0 9 5 16 12 17z" />
    <glyph glyph-name="hyphen.case" horiz-adv-x="391" 
d="M111 310c-10 0 -17 8 -15 18l3 19c2 11 10 19 20 19h191c10 0 16 -8 14 -19l-3 -19c-2 -10 -10 -18 -20 -18h-190z" />
    <glyph glyph-name="bracketleft.case" horiz-adv-x="308" 
d="M91 -117h123c9 0 15 -8 14 -18l-3 -26c-1 -10 -11 -19 -20 -19h-173c-9 0 -16 9 -15 19l136 962c1 10 10 19 19 19h174c9 0 15 -9 14 -19l-3 -25c-1 -11 -11 -19 -20 -19h-123z" />
    <glyph glyph-name="bracketright.case" horiz-adv-x="309" 
d="M-10 -117h122l123 874h-122c-9 0 -17 8 -15 19l4 25c2 10 10 19 19 19h174c9 0 15 -9 14 -19l-135 -962c-2 -10 -11 -19 -20 -19h-173c-9 0 -17 9 -15 19l4 26c2 10 11 18 20 18z" />
    <glyph glyph-name="braceleft.case" horiz-adv-x="363" 
d="M71 49l22 161c7 45 -30 74 -51 78c-7 1 -12 6 -11 17l4 31c1 10 9 14 16 15c20 4 67 33 73 78l23 161c26 190 161 240 254 240c9 0 17 -5 16 -17l-2 -19c-1 -9 -7 -17 -15 -18c-85 -14 -168 -78 -183 -186l-19 -133c-14 -100 -67 -124 -92 -136v-3c24 -12 67 -36 53 -136
l-18 -133c-16 -108 50 -171 131 -185c7 -1 12 -6 10 -17l-4 -20c-2 -10 -11 -17 -20 -17c-93 0 -212 67 -187 239z" />
    <glyph glyph-name="bar.case" horiz-adv-x="191" 
d="M16 -162l144 1023c1 11 11 19 20 19h7c9 0 15 -8 13 -19l-143 -1023c-2 -10 -11 -18 -20 -18h-6c-9 0 -16 8 -15 18z" />
    <glyph glyph-name="braceright.case" horiz-adv-x="364" 
d="M165 49l19 133c14 100 63 124 90 136v3c-21 12 -65 36 -51 136l18 133c15 108 -50 172 -131 186c-7 1 -10 9 -9 18l3 19c2 12 11 17 20 17c93 0 212 -68 187 -240l-22 -161c-6 -45 32 -73 51 -78c8 -2 12 -7 11 -15l-4 -31c-2 -12 -9 -16 -16 -17c-22 -4 -67 -33 -73 -78
l-23 -161c-26 -190 -161 -239 -254 -239c-9 0 -17 7 -16 17l2 20c1 11 7 16 15 17c85 14 168 77 183 185z" />
    <glyph glyph-name="guilsinglleft.case" horiz-adv-x="239" 
d="M122 159l-72 155c-4 8 -1 18 3 24l114 148c4 5 11 12 20 12h22c15 0 18 -15 9 -31l-86 -144l39 -142c4 -16 -2 -30 -18 -30h-18c-7 0 -11 4 -13 8z" />
    <glyph glyph-name="guilsinglright.case" horiz-adv-x="238" 
d="M49 151c-15 0 -18 15 -9 31l86 144l-39 142c-4 16 2 30 18 30h18c7 0 11 -4 13 -8l72 -155c4 -8 1 -18 -3 -24l-114 -148c-4 -5 -11 -12 -20 -12h-22z" />
    <glyph glyph-name="guillemotleft.case" horiz-adv-x="391" 
d="M274 159l-72 155c-4 8 -1 18 3 24l114 148c4 5 11 12 20 12h22c15 0 18 -15 9 -31l-86 -144l39 -142c4 -16 -2 -30 -18 -30h-18c-7 0 -11 4 -13 8zM122 159l-72 155c-4 8 -1 18 3 24l114 148c4 5 11 12 20 12h22c15 0 18 -15 9 -31l-86 -144l39 -142
c4 -16 -2 -30 -18 -30h-18c-7 0 -11 4 -13 8z" />
    <glyph glyph-name="guillemotright.case" horiz-adv-x="391" 
d="M193 182l86 144l-39 142c-4 16 2 30 18 30h18c7 0 11 -4 13 -8l72 -155c4 -8 1 -18 -3 -24l-114 -148c-4 -5 -11 -12 -20 -12h-22c-15 0 -18 15 -9 31zM49 151c-15 0 -18 15 -9 31l86 144l-39 142c-4 16 2 30 18 30h18c7 0 11 -4 13 -8l72 -155c4 -8 1 -18 -3 -24
l-114 -148c-4 -5 -11 -12 -20 -12h-22z" />
    <glyph glyph-name="endash.case" horiz-adv-x="540" 
d="M120 313c-10 0 -17 8 -15 18l2 11c2 11 10 19 20 19h335c10 0 17 -8 15 -19l-2 -11c-2 -10 -9 -18 -19 -18h-336z" />
    <glyph glyph-name="emdash.case" horiz-adv-x="738" 
d="M120 313c-10 0 -17 8 -15 18l2 11c2 11 10 19 20 19h533c10 0 17 -8 15 -19l-2 -11c-2 -10 -9 -18 -19 -18h-534z" />
    <glyph glyph-name="bullet.case" horiz-adv-x="323" 
d="M166 209c-48 0 -84 42 -84 92c0 66 56 122 114 122c51 0 87 -43 87 -95c0 -65 -56 -119 -117 -119z" />
    <glyph glyph-name="periodcentered.case" horiz-adv-x="227" 
d="M130 294c-28 0 -49 23 -49 50c0 36 32 64 65 64c28 0 49 -22 49 -50c0 -35 -31 -64 -65 -64z" />
    <glyph glyph-name="brokenbar" unicode="&#xa6;" horiz-adv-x="363" 
d="M197 393c-9 0 -16 8 -15 18l47 330c1 11 11 19 20 19h7c9 0 15 -8 13 -19l-46 -330c-1 -10 -11 -18 -20 -18h-6zM132 49c1 11 10 19 19 19h8c9 0 15 -8 13 -19l-46 -331c-2 -10 -11 -18 -20 -18h-6c-9 0 -16 8 -15 18z" />
    </font>
</defs>
</svg>
